osu file format v14

[General]
AudioFilename: audio.mp3
AudioLeadIn: 0
PreviewTime: 10018
Countdown: 0
SampleSet: Soft
StackLeniency: 0.2
Mode: 2
LetterboxInBreaks: 0
WidescreenStoryboard: 1

[Editor]
Bookmarks: 10101,31100,43080,73100,97099,113099,134766
DistanceSpacing: 1.1
BeatDivisor: 16
GridSize: 4
TimelineZoom: 4.839995

[Metadata]
Title:Mantis Lords (0 K Remix)
TitleUnicode:Mantis Lords (0 K Remix)
Artist:Christopher Larkin
ArtistUnicode:Christopher Larkin
Creator:JBHyperion
Version:A Traitor's End
Source:Hollow Knight
Tags:Neuro Orchestral Neurofunk Absolute Zero AZ ok 0K zero_kelvin zero kelvin Video Game Instrumental Electronic osu!catch World Cup 2022 CWC2022 Qualifiers NoMod No Mod NM2 Stardust Prism Stardust_Prism ZiRoX Greaper -Joakh Ascendance
BeatmapID:3610043
BeatmapSetID:1763744

[Difficulty]
HPDrainRate:7
CircleSize:4.4
OverallDifficulty:9.4
ApproachRate:9.4
SliderMultiplier:2
SliderTickRate:1

[Events]
//Background and Video events
0,0,"Mantis lords BG.jpg",0,0
//Break Periods
2,73300,74560
//Storyboard Layer 0 (Background)
//Storyboard Layer 1 (Fail)
//Storyboard Layer 2 (Pass)
//Storyboard Layer 3 (Foreground)
//Storyboard Layer 4 (Overlay)
//Storyboard Sound Samples

[TimingPoints]
102,333.333333333333,6,3,1,75,1,0
5101,-100,6,2,1,70,0,0
6101,-100,6,2,1,65,0,0
7101,-100,6,2,1,60,0,0
8101,-100,6,2,1,50,0,0
10101,-100,6,2,1,80,0,0
10268,-100,6,3,1,75,0,0
14101,-100,6,2,1,60,0,0
17581,-100,6,2,1,20,0,0
17601,-80,6,2,1,75,0,0
17935,-100,6,2,1,45,0,0
18101,-100,6,2,1,80,0,0
18268,-100,6,3,1,75,0,0
22101,-100,6,2,1,60,0,0
25101,333.333333333333,6,3,1,75,1,0
25101,-66.6666666666667,6,3,1,75,0,0
25267,-100,6,3,1,75,0,0
26101,-66.6666666666667,6,3,1,75,0,0
26434,-80,6,3,1,75,0,0
26767,-100,6,3,1,75,0,0
28100,-66.6666666666667,6,3,1,75,0,0
28434,-80,6,3,1,75,0,0
28767,-100,6,3,1,75,0,0
31101,-100,6,3,1,60,0,0
31267,-100,6,2,1,60,0,0
33101,-100,6,3,1,70,0,0
33267,-100,6,2,1,70,0,0
35100,-66.6666666666667,6,3,1,80,0,0
35267,-66.6666666666667,6,2,1,80,0,0
37100,-100,6,2,1,60,0,0
37142,-100,6,2,1,20,0,0
37600,-100,6,2,1,60,0,0
37642,-100,6,2,1,20,0,0
38100,-100,6,2,1,60,0,0
38142,-100,6,2,1,20,0,0
38517,-100,6,2,1,60,0,0
38559,-100,6,2,1,20,0,0
38600,-100,6,2,1,70,0,0
39100,-100,6,3,1,70,0,0
39142,-100,6,3,1,20,0,0
39184,-100,6,3,2,80,0,0
39267,-100,6,2,0,40,0,0
40934,-100,6,2,0,5,0,0
41080,333.333333333333,6,2,1,60,1,0
42059,-100,6,2,1,20,0,0
42080,-80,6,2,1,70,0,0
42392,-100,6,2,1,20,0,0
42413,-66.6666666666667,6,2,1,60,0,0
42705,-100,6,2,1,20,0,0
42746,-100,6,2,2,75,0,0
42913,-100,6,2,2,65,0,0
43080,-75.187969924812,6,2,1,80,0,0
43246,-100,6,2,1,70,0,0
45079,-100,6,2,2,60,0,0
45413,-100,6,2,2,65,0,0
45746,-75.187969924812,6,2,2,70,0,0
45913,-75.187969924812,6,2,2,60,0,0
46413,-100,6,2,2,70,0,0
47079,-100,6,2,1,70,0,0
47121,-100,6,2,1,30,0,0
47579,-100,6,2,1,70,0,0
47621,-100,6,2,1,30,0,0
48079,-100,6,2,1,80,0,0
48121,-100,6,2,1,30,0,0
48579,-100,6,2,1,80,0,0
48621,-100,6,2,1,30,0,0
49079,-100,6,2,1,70,0,0
50392,-100,6,2,1,20,0,0
50413,-50,6,2,1,60,0,0
50559,-100,6,2,1,20,0,0
50579,-60.2409638554217,6,2,1,60,0,0
50725,-100,6,2,1,20,0,0
50746,-75.187969924812,6,2,1,60,0,0
50892,-100,6,2,1,20,0,0
50913,-75.187969924812,6,2,2,60,0,0
51079,-80,6,2,1,75,0,0
51413,-100,6,2,1,75,0,0
52746,-75.187969924812,6,2,1,75,0,0
53079,-100,6,3,1,75,0,0
53121,-100,6,2,1,30,0,0
53413,-100,6,2,1,80,0,0
53746,-100,6,2,1,75,0,0
54079,-100,6,2,1,70,0,0
54413,-100,6,3,1,65,0,0
54746,-100,6,3,1,60,0,0
55079,-100,6,2,1,70,0,0
56079,-100,6,2,1,75,0,0
56413,-100,6,2,1,80,0,0
56746,-100,6,2,1,85,0,0
57079,-100,6,2,1,65,0,0
58079,-76.9230769230769,6,2,2,80,0,0
58121,-76.9230769230769,6,2,1,75,0,0
58413,-76.9230769230769,6,2,1,70,0,0
58746,-76.9230769230769,6,2,1,65,0,0
58913,-100,6,2,2,65,0,0
59079,-100,6,2,1,75,0,0
60413,-100,6,2,1,70,0,0
60746,-100,6,3,1,60,0,0
61079,-100,6,2,1,65,0,0
61413,-100,6,2,1,60,0,0
61746,-100,6,3,1,60,0,0
62079,-100,6,2,2,80,0,0
62413,-100,6,2,1,70,0,0
62746,-100,6,2,1,60,0,0
63079,-100,6,3,1,70,0,0
63163,-100,6,2,1,30,0,0
63579,-100,6,2,1,70,0,0
63663,-100,6,2,1,30,0,0
64079,-100,6,3,1,80,0,0
64163,-100,6,2,1,30,0,0
64579,-100,6,2,1,80,0,0
64663,-100,6,2,1,30,0,0
65079,-75.187969924812,6,2,2,65,0,0
66079,-75.187969924812,6,3,2,70,0,0
66392,-75.187969924812,6,2,1,20,0,0
66413,-100,6,2,1,60,0,0
66746,-100,6,2,2,65,0,0
67079,-80,6,2,1,70,0,0
67413,-100,6,2,1,70,0,0
68413,-83.3333333333333,6,2,1,75,0,0
69079,-100,6,2,1,80,0,0
69746,-100,6,2,1,75,0,0
70079,-100,6,2,1,70,0,0
70413,-83.3333333333333,6,3,1,65,0,0
70663,-100,6,3,1,65,0,0
70746,-100,6,2,1,75,0,0
70941,-116.279069767442,6,2,1,75,0,0
71079,-100,6,2,1,70,0,0
71579,-80,6,2,1,75,0,0
71913,-100,6,2,1,75,0,0
72079,-100,6,2,1,80,0,0
72413,-66.6666666666667,6,2,1,85,0,0
72746,-100,6,2,1,90,0,0
73100,333.333333333333,6,2,1,70,1,0
75100,-100,6,2,0,20,0,0
75434,-100,6,2,0,25,0,0
75767,-100,6,2,0,30,0,0
76100,-100,6,2,0,35,0,0
76434,-100,6,2,0,40,0,0
76767,-100,6,2,0,45,0,0
76934,-100,6,2,0,5,0,0
77100,-100,6,2,1,65,0,0
85100,-100,6,2,1,50,0,0
85267,-100,6,2,1,60,0,0
85934,-100,6,2,1,55,0,0
86100,-100,6,2,1,65,0,0
86934,-100,6,2,1,60,0,0
87100,-100,6,2,1,70,0,0
87934,-40,6,2,1,65,0,0
88100,-100,6,2,1,80,0,0
88934,-100,6,2,1,50,0,0
89580,-100,6,2,1,20,0,0
89600,-100,6,2,1,55,0,0
90080,-100,6,2,1,20,0,0
90100,-75.187969924812,6,2,1,60,0,0
90580,-100,6,2,1,20,0,0
90600,-100,6,2,1,55,0,0
91080,-100,6,2,1,20,0,0
91100,-100,6,2,1,40,0,0
93100,-100,6,2,1,50,0,0
93580,-100,6,2,1,20,0,0
93600,-111.111111111111,6,2,1,55,0,0
94080,-100,6,2,1,20,0,0
94100,-58.8235294117647,6,2,1,60,0,0
94580,-100,6,2,1,20,0,0
94600,-100,6,2,1,55,0,0
95080,-100,6,2,1,20,0,0
95100,-100,6,2,1,40,0,0
96100,-100,6,2,1,50,0,0
97017,-100,6,2,1,30,0,0
97100,-100,6,3,1,75,0,0
99100,-100,6,3,1,70,0,0
101100,-100,6,3,1,80,0,0
103100,-100,6,3,1,75,0,0
104100,-71.4285714285714,6,3,1,75,0,0
104434,-100,6,3,1,75,0,0
105100,-75.187969924812,6,3,1,85,0,0
105267,-100,6,3,1,85,0,0
109100,-62.5,6,2,1,80,0,0
109559,-60.2409638554217,6,2,1,30,0,0
109600,-60.2409638554217,6,2,1,80,0,0
109642,-100,6,2,1,30,0,0
110100,-62.5,6,2,1,80,0,0
110559,-60.2409638554217,6,2,1,30,0,0
110600,-60.2409638554217,6,2,1,80,0,0
110642,-100,6,2,1,30,0,0
111099,-100,6,2,1,80,0,0
111600,-100,6,2,1,85,0,0
112100,-100,6,2,1,90,0,0
112600,-100,6,2,1,95,0,0
113100,-100,6,2,1,100,0,0
113267,-100,6,2,1,70,0,0
115017,-100,6,2,1,30,0,0
115100,-100,6,2,1,70,0,0
117017,-100,6,2,1,30,0,0
117100,-100,6,2,3,90,0,0
117267,-100,6,2,3,70,0,0
119017,-100,6,2,1,30,0,0
119100,-100,6,2,1,70,0,0
121017,-100,6,2,1,30,0,0
121100,-100,6,2,3,90,0,0
121142,-100,6,2,1,70,0,0
122392,-100,6,2,1,30,0,0
122434,-100,6,2,1,70,0,0
123017,-100,6,2,1,30,0,0
123100,-100,6,2,1,70,0,0
125017,-100,6,2,1,30,0,0
125100,-100,6,2,3,90,0,0
125142,-100,6,2,1,70,0,0
127017,-100,6,2,1,30,0,0
127100,-100,6,2,1,70,0,0
131017,-100,6,2,1,30,0,0
131100,-100,6,2,1,40,0,0
133100,-100,6,2,1,36,0,0
133434,-100,6,2,1,32,0,0
133767,-100,6,2,1,28,0,0
134100,-100,6,2,1,24,0,0
134434,-100,6,2,1,20,0,0
134767,-100,6,2,1,5,0,0

[Colours]
Combo1 : 146,162,237
Combo2 : 158,163,156

[HitObjects]
84,192,102,6,0,L|80:88,1,100,12|0,0:0|0:0,0:0:0:0:
200,292,435,2,0,L|196:188,1,100
388,192,768,1,2,0:0:0:0:
277,192,935,1,0,0:0:0:0:
464,240,1101,6,0,L|377:190,2,100,2|0|0,0:0|0:0|0:0,0:0:0:0:
277,192,1601,2,0,L|363:142,1,100,2|0,0:0|0:0,0:0:0:0:
176,192,1935,1,8,0:0:0:0:
236,192,2018,1,8,0:0:0:0:
440,192,2101,5,2,0:0:0:0:
504,280,2268,1,0,0:0:0:0:
444,372,2435,1,0,0:0:0:0:
336,372,2601,1,0,0:0:0:0:
148,372,2768,2,0,L|238:320,1,100,2|0,0:0|0:0,0:0:0:0:
44,192,3101,6,0,L|130:142,2,100,2|0|0,0:0|0:0|0:0,0:0:0:0:
236,192,3601,1,2,0:0:0:0:
136,192,3768,1,8,0:0:0:0:
36,192,3935,1,8,0:0:0:0:
376,192,4101,5,2,0:0:0:0:
256,192,4268,1,0,0:0:0:0:
368,192,4435,1,0,0:0:0:0:
248,192,4601,1,0,0:0:0:0:
360,192,4768,2,0,L|364:88,1,100
188,24,5101,5,2,0:0:0:0:
288,24,5268,1,0,0:0:0:0:
288,128,5435,1,0,0:0:0:0:
188,124,5601,1,0,0:0:0:0:
296,128,5768,2,0,L|300:236,1,100
124,192,6101,5,2,0:0:0:0:
40,192,6268,1,0,0:0:0:0:
40,272,6435,1,0,0:0:0:0:
124,272,6601,1,0,0:0:0:0:
48,272,6768,1,0,0:0:0:0:
132,272,6935,1,0,0:0:0:0:
292,272,7101,6,0,L|378:222,1,100,2|0,0:0|0:0,0:0:0:0:
268,192,7435,2,0,L|210:110,1,100,2|0,0:0|0:0,0:0:0:0:
320,120,7768,2,0,L|337:21,1,100,2|0,0:0|0:0,0:0:0:0:
156,20,8101,5,2,0:0:0:0:
148,20,8601,1,0,0:0:0:0:
340,20,9101,1,2,0:0:0:0:
40,20,9601,1,2,0:0:0:0:
480,16,10101,6,0,L|380:16,1,100,12|2,0:0|0:0,0:0:0:0:
332,16,10351,1,2,0:0:0:0:
284,16,10435,1,2,0:0:0:0:
464,104,10601,2,0,L|364:104,1,100,8|0,0:0|0:0,0:0:0:0:
192,104,10935,1,2,0:0:0:0:
372,104,11101,6,0,L|376:216,1,100,8|0,0:0|0:0,0:0:0:0:
192,232,11435,2,0,L|188:288,1,50,8|0,0:0|0:0,0:0:0:0:
263,264,11601,2,0,L|259:320,1,50,2|2,0:0|0:0,0:0:0:0:
136,332,11768,2,0,P|112:272|144:224,1,100,8|2,0:0|0:0,0:0:0:0:
172,216,12018,1,2,0:0:0:0:
364,192,12101,6,0,B|416:192|416:192|360:192,1,100,8|2,0:0|0:0,0:0:0:0:
316,192,12351,1,2,0:0:0:0:
440,192,12435,2,0,L|384:192,1,50,2|0,0:0|0:0,0:0:0:0:
100,192,12601,1,8,0:0:0:0:
100,192,12935,1,2,0:0:0:0:
360,192,13101,5,8,0:0:0:0:
188,192,13268,1,2,0:0:0:0:
488,192,13435,2,0,L|492:76,1,100,8|0,0:0|0:0,0:0:0:0:
232,56,13768,2,0,L|120:56,1,100,8|0,0:0|0:0,0:0:0:0:
408,212,14101,6,0,L|297:275,1,100,2|0,0:0|0:0,0:0:0:0:
424,212,14435,2,0,L|313:275,1,100
164,260,14768,2,0,L|251:210,1,100
424,212,15101,5,2,0:0:0:0:
332,168,15268,1,0,0:0:0:0:
332,68,15435,1,0,0:0:0:0:
424,36,15601,1,0,0:0:0:0:
245,17,15768,2,0,L|331:67,1,100
164,96,16101,5,2,0:0:0:0:
232,96,16268,1,0,0:0:0:0:
128,96,16435,1,0,0:0:0:0:
264,96,16601,1,0,0:0:0:0:
100,96,16768,1,0,0:0:0:0:
296,96,16935,1,0,0:0:0:0:
36,96,17101,6,0,P|8:192|80:360,1,287.5,2|0,0:0|0:0,0:0:0:0:
92,360,17601,2,0,L|220:360,2,125,2|2|0,0:0|0:0|0:0,0:0:0:0:
400,336,18101,6,0,L|404:280,1,50,12|0,0:0|0:0,0:0:0:0:
324,264,18268,2,0,L|328:208,1,50,2|2,0:0|0:0,0:0:0:0:
400,336,18435,1,2,0:0:0:0:
288,293,18601,2,0,L|201:243,1,100,8|0,0:0|0:0,0:0:0:0:
323,214,18935,1,2,0:0:0:0:
64,212,19101,6,0,L|60:100,1,100,8|0,0:0|0:0,0:0:0:0:
312,80,19435,2,0,L|212:80,1,100,8|0,0:0|0:0,0:0:0:0:
472,80,19768,1,8,0:0:0:0:
372,80,19935,1,2,0:0:0:0:
312,80,20018,1,2,0:0:0:0:
152,80,20101,6,0,B|100:80|100:80|156:80,1,100,8|2,0:0|0:0,0:0:0:0:
200,80,20351,1,2,0:0:0:0:
324,80,20435,2,0,L|328:140,1,50,2|0,0:0|0:0,0:0:0:0:
52,80,20601,1,8,0:0:0:0:
332,80,20935,1,2,0:0:0:0:
24,80,21101,6,0,L|20:192,1,100,8|2,0:0|0:0,0:0:0:0:
392,192,21435,2,0,L|292:192,1,100,8|0,0:0|0:0,0:0:0:0:
40,192,21768,2,0,L|93:276,1,100,8|0,0:0|0:0,0:0:0:0:
396,352,22101,6,0,L|400:240,1,100,2|0,0:0|0:0,0:0:0:0:
289,248,22435,2,0,L|348:153,1,100
222,112,22768,2,0,L|320:59,1,100
136,8,23101,6,0,L|132:120,1,100,2|0,0:0|0:0,0:0:0:0:
243,112,23435,2,0,L|183:206,1,100
310,248,23768,2,0,L|211:300,1,100
396,352,24101,5,2,0:0:0:0:
216,296,24268,1,0,0:0:0:0:
356,352,24435,1,0,0:0:0:0:
272,352,24601,1,0,0:0:0:0:
396,352,24768,1,0,0:0:0:0:
212,296,24935,1,0,0:0:0:0:
472,352,25101,6,0,P|480:292|424:216,1,150.000005722046,12|2,0:0|0:0,0:0:0:0:
384,196,25351,1,2,0:0:0:0:
328,192,25434,2,0,L|324:132,1,50,2|0,0:0|0:0,0:0:0:0:
432,220,25601,2,0,L|436:164,1,50,2|0,0:0|0:0,0:0:0:0:
268,192,25767,2,0,L|264:80,1,100,8|0,0:0|0:0,0:0:0:0:
16,40,26101,6,0,L|168:40,1,150.000005722046,8|0,0:0|0:0,0:0:0:0:
16,40,26434,2,0,L|140:40,1,125,8|2,0:0|0:0,0:0:0:0:
220,40,26684,1,2,0:0:0:0:
300,40,26767,2,0,L|304:112,1,50,8|0,0:0|0:0,0:0:0:0:
132,136,26934,2,0,L|108:148,2,25
356,136,27100,6,0,L|456:136,2,100,12|0|2,0:0|0:0|0:0,0:0:0:0:
184,192,27600,1,8,0:0:0:0:
336,196,27767,1,2,0:0:0:0:
164,192,27934,1,0,0:0:0:0:
412,312,28100,6,0,L|256:312,1,150.000005722046,8|0,0:0|0:0,0:0:0:0:
412,312,28434,2,0,L|288:312,1,125,8|0,0:0|0:0,0:0:0:0:
132,312,28767,1,2,0:0:0:0:
252,312,28934,1,0,0:0:0:0:
222,312,28975,1,0,0:0:0:0:
192,312,29017,1,0,0:0:0:0:
412,312,29100,6,0,P|456:280|452:228,1,100,8|0,0:0|0:0,0:0:0:0:
432,200,29309,1,0,0:0:0:0:
400,192,29350,1,0,0:0:0:0:
224,192,29434,2,0,L|280:192,1,50,2|0,0:0|0:0,0:0:0:0:
84,192,29600,2,0,L|184:192,1,100,8|2,0:0|0:0,0:0:0:0:
24,192,29934,1,2,0:0:0:0:
456,192,30100,5,8,0:0:0:0:
344,192,30267,1,0,0:0:0:0:
232,192,30434,1,8,0:0:0:0:
400,192,30600,1,2,0:0:0:0:
160,192,30767,1,8,0:0:0:0:
436,192,30934,1,0,0:0:0:0:
436,192,30975,1,0,0:0:0:0:
436,192,31017,1,0,0:0:0:0:
84,192,31101,6,0,L|84:92,2,100,2|0|0,0:0|0:0|0:0,0:0:0:0:
196,192,31601,2,0,L|196:136,2,50,2|0|0,0:0|0:0|0:0,0:0:0:0:
84,92,31934,1,0,0:0:0:0:
268,192,32101,5,2,0:0:0:0:
268,192,32184,1,0,0:0:0:0:
268,192,32267,1,0,0:0:0:0:
380,192,32434,1,0,0:0:0:0:
196,192,32601,1,2,0:0:0:0:
196,192,32684,1,0,0:0:0:0:
196,192,32767,1,0,0:0:0:0:
84,192,32934,1,0,0:0:0:0:
336,292,33101,6,0,L|440:292,2,100,8|0|0,0:0|0:0|0:0,0:0:0:0:
156,296,33601,1,2,0:0:0:0:
100,296,33684,1,0,0:0:0:0:
156,296,33767,1,0,0:0:0:0:
44,296,33934,1,0,0:0:0:0:
228,192,34101,5,2,0:0:0:0:
288,192,34184,1,0,0:0:0:0:
228,192,34267,1,0,0:0:0:0:
358,192,34434,1,0,0:0:0:0:
180,192,34601,1,2,0:0:0:0:
240,192,34684,1,0,0:0:0:0:
300,192,34767,1,0,0:0:0:0:
120,192,34934,1,0,0:0:0:0:
420,48,35100,6,0,L|260:48,2,150.000005722046,8|0|0,0:0|0:0|0:0,0:0:0:0:
120,48,35600,1,2,0:0:0:0:
196,48,35684,1,0,0:0:0:0:
270,48,35767,1,0,0:0:0:0:
120,48,35934,1,0,0:0:0:0:
420,148,36100,5,2,0:0:0:0:
326,148,36184,1,0,0:0:0:0:
232,148,36267,1,0,0:0:0:0:
420,148,36434,1,0,0:0:0:0:
120,248,36600,1,2,0:0:0:0:
204,248,36684,1,0,0:0:0:0:
120,248,36767,1,0,0:0:0:0:
300,248,36934,1,0,0:0:0:0:
92,192,37100,6,0,L|92:232,1,25,2|0,0:0|0:0,0:0:0:0:
256,192,37600,2,0,L|256:160,1,25,2|0,0:0|0:0,0:0:0:0:
420,192,38100,6,0,L|420:228,1,25,2|0,0:0|0:0,0:0:0:0:
256,192,38517,2,0,L|260:168,1,25,2|0,0:0|0:0,0:0:0:0:
332,124,38600,1,0,0:0:0:0:
256,192,39100,6,0,L|252:160,1,25,8|8,2:3|2:3,0:0:0:0:
64,192,39184,1,4,0:0:0:0:
256,192,39267,12,0,40934,0:0:0:0:
176,192,41080,6,0,P|180:0|184:192,1,587.5,2|0,0:0|0:0,0:0:0:0:
176,192,42080,6,0,L|412:192,1,234.375,8|0,0:0|0:0,0:0:0:0:
392,192,42413,2,0,P|304:276|388:348,1,262.500010013581,2|0,0:0|0:0,0:0:0:0:
116,192,42746,1,8,0:0:0:0:
196,192,42913,2,0,L|200:164,3,25,2|2|2|2,0:0|0:0|0:0|0:0,0:0:0:0:
336,192,43080,6,0,L|472:192,1,132.999994520569,10|0,0:0|0:0,0:0:0:0:
288,192,43413,2,0,L|284:84,1,100,2|0,0:0|0:0,0:0:0:0:
36,32,43746,1,8,0:0:0:0:
208,92,43913,1,0,0:0:0:0:
44,32,44080,1,2,0:0:0:0:
216,92,44246,1,0,0:0:0:0:
480,192,44413,6,0,L|389:140,3,100,8|0|2|0,0:0|0:0|0:0|0:0,0:0:0:0:
104,192,45079,6,0,L|100:136,1,50,2|2,0:0|0:0,0:0:0:0:
192,192,45246,2,0,L|220:142,1,50,2|2,0:0|0:0,0:0:0:0:
104,192,45413,2,0,L|59:159,1,50,2|2,0:0|0:0,0:0:0:0:
192,192,45579,2,0,L|244:192,1,50,2|2,0:0|0:0,0:0:0:0:
432,192,45746,6,0,P|472:156|468:80,1,132.999994520569,8|0,0:0|0:0,0:0:0:0:
444,53,45954,1,0,0:0:0:0:
414,39,45996,1,0,0:0:0:0:
381,38,46038,1,0,0:0:0:0:
351,51,46079,1,0,0:0:0:0:
327,74,46121,1,0,0:0:0:0:
315,105,46163,1,0,0:0:0:0:
316,138,46204,1,0,0:0:0:0:
331,167,46246,1,0,0:0:0:0:
355,189,46288,1,0,0:0:0:0:
387,199,46329,1,0,0:0:0:0:
100,296,46413,6,0,B|92:244|92:244|140:224,1,100,2|2,0:0|0:0,0:0:0:0:
188,224,46663,1,2,0:0:0:0:
392,300,46746,2,0,L|352:266,1,50,8|2,0:0|0:0,0:0:0:0:
188,224,46913,2,0,L|227:190,1,50,2|2,0:0|0:0,0:0:0:0:
484,192,47079,6,0,L|488:164,1,25,8|0,0:0|0:0,0:0:0:0:
308,84,47579,2,0,L|304:52,1,25,2|0,0:0|0:0,0:0:0:0:
72,192,48079,6,0,L|52:166,1,25,8|0,0:0|0:0,0:0:0:0:
416,344,48579,2,0,L|435:318,1,25,2|0,0:0|0:0,0:0:0:0:
32,324,49079,6,0,P|256:62|488:324,1,787.5,2|0,0:0|0:0,0:0:0:0:
476,324,50413,6,0,L|296:324,1,175,2|0,0:0|0:0,0:0:0:0:
312,324,50579,2,0,L|471:324,1,145.250002105522,2|0,0:0|0:0,0:0:0:0:
448,324,50746,2,0,L|322:324,1,116.374995205498,2|0,0:0|0:0,0:0:0:0:
320,324,50913,1,2,0:0:0:0:
350,324,50954,1,2,0:0:0:0:
383,324,50996,1,2,0:0:0:0:
415,324,51038,1,2,0:0:0:0:
204,192,51079,6,0,L|68:192,2,125,10|0|2,0:0|0:0|0:0,0:0:0:0:
456,192,51579,1,8,0:0:0:0:
464,192,51913,1,2,0:0:0:0:
276,192,52079,2,0,L|185:140,1,100,8|0,0:0|0:0,0:0:0:0:
472,192,52413,6,0,L|475:92,1,100,2|0,0:0|0:0,0:0:0:0:
268,28,52746,2,0,L|397:62,1,132.999994520569,8|0,0:0|0:0,0:0:0:0:
44,64,53079,6,0,L|40:112,1,25
444,192,53413,2,0,L|460:192,14,12.5,2|0|0|0|0|0|0|0|0|0|0|0|0|0|0,0:0|0:0|0:0|0:0|0:0|0:0|0:0|0:0|0:0|0:0|0:0|0:0|0:0|0:0|0:0,0:0:0:0:
343,212,53746,5,2,0:0:0:0:
318,212,53774,1,0,0:0:0:0:
295,207,53802,1,0,0:0:0:0:
273,196,53829,1,0,0:0:0:0:
255,180,53857,1,0,0:0:0:0:
242,160,53885,1,0,0:0:0:0:
234,137,53913,1,0,0:0:0:0:
232,113,53941,1,0,0:0:0:0:
236,89,53968,1,0,0:0:0:0:
244,64,53996,1,0,0:0:0:0:
262,48,54024,1,0,0:0:0:0:
392,16,54079,5,2,0:0:0:0:
414,42,54121,1,0,0:0:0:0:
426,75,54163,1,0,0:0:0:0:
428,110,54204,1,0,0:0:0:0:
420,144,54246,1,0,0:0:0:0:
401,175,54288,1,0,0:0:0:0:
376,198,54329,1,0,0:0:0:0:
343,212,54371,1,0,0:0:0:0:
244,212,54413,6,0,L|184:212,2,40,2|0|0,0:0|0:0|0:0,0:0:0:0:
343,212,54613,2,0,L|392:212,1,40
320,284,54767,1,0,0:0:0:0:
256,284,54871,1,0,0:0:0:0:
320,284,54975,1,0,0:0:0:0:
22,192,55079,6,0,L|126:192,2,100,10|0|2,0:0|0:0|0:0,0:0:0:0:
288,192,55579,1,8,0:0:0:0:
108,192,55913,1,2,0:0:0:0:
392,192,56079,2,0,L|396:88,1,100,8|0,0:0|0:0,0:0:0:0:
212,192,56413,5,8,0:0:0:0:
400,192,56579,1,2,0:0:0:0:
68,192,56746,5,8,0:0:0:0:
468,192,56913,1,2,0:0:0:0:
204,192,57079,6,0,L|200:160,1,25,2|0,0:0|0:0,0:0:0:0:
228,168,57163,2,0,L|332:168,1,100
200,276,57496,2,0,P|268:160|336:276,1,325,2|0,0:0|0:0,0:0:0:0:
136,316,58079,5,8,0:0:0:0:
108,281,58121,1,0,0:0:0:0:
89,240,58163,1,0,0:0:0:0:
81,197,58204,1,0,0:0:0:0:
84,153,58246,1,0,0:0:0:0:
97,110,58288,1,0,0:0:0:0:
120,72,58329,1,0,0:0:0:0:
151,41,58371,1,0,0:0:0:0:
189,18,58413,1,0,0:0:0:0:
231,4,58454,1,0,0:0:0:0:
275,2,58496,1,0,0:0:0:0:
319,10,58538,1,0,0:0:0:0:
359,28,58579,5,0,0:0:0:0:
394,55,58621,1,0,0:0:0:0:
422,90,58663,1,0,0:0:0:0:
440,131,58704,1,0,0:0:0:0:
447,174,58746,1,0,0:0:0:0:
445,219,58788,1,0,0:0:0:0:
431,261,58829,1,0,0:0:0:0:
408,299,58871,1,0,0:0:0:0:
348,340,58913,6,0,L|344:308,2,25,2|2|2,0:0|0:0|0:0,0:0:0:0:
176,292,59079,5,10,0:0:0:0:
20,292,59246,1,0,0:0:0:0:
184,292,59413,5,2,0:0:0:0:
28,292,59579,1,0,0:0:0:0:
300,192,59746,6,0,L|196:192,3,100,8|0|2|0,0:0|0:0|0:0|0:0,0:0:0:0:
472,192,60413,6,0,L|476:88,1,100,8|0,0:0|0:0,0:0:0:0:
196,304,60746,2,0,L|192:272,1,25,2|0,0:0|0:0,0:0:0:0:
300,236,60829,2,0,L|320:220,5,25
192,279,61079,6,0,P|128:219|192:171,1,187.5,2|0,0:0|0:0,0:0:0:0:
300,24,61413,6,0,L|316:24,14,12.5,2|0|0|0|0|0|0|0|0|0|0|0|0|0|0,0:0|0:0|0:0|0:0|0:0|0:0|0:0|0:0|0:0|0:0|0:0|0:0|0:0|0:0|0:0,0:0:0:0:
172,24,61746,5,2,0:0:0:0:
141,47,61788,1,0,0:0:0:0:
138,85,61829,1,0,0:0:0:0:
163,113,61871,1,0,0:0:0:0:
202,114,61913,1,0,0:0:0:0:
228,87,61954,1,0,0:0:0:0:
227,49,61996,1,0,0:0:0:0:
198,24,62038,1,0,0:0:0:0:
0,40,62079,5,8,0:0:0:0:
100,88,62413,2,0,L|104:144,2,50,2|0|0,0:0|0:0|0:0,0:0:0:0:
200,192,62746,2,0,L|196:248,2,50,2|0|0,0:0|0:0|0:0,0:0:0:0:
452,192,63079,6,0,L|456:140,1,50,4|0,0:0|0:0,0:0:0:0:
120,192,63579,2,0,L|116:136,1,50,2|0,0:0|0:0,0:0:0:0:
496,192,64079,6,0,L|500:136,1,50,4|0,0:0|0:0,0:0:0:0:
16,192,64579,2,0,L|12:140,1,50,2|0,0:0|0:0,0:0:0:0:
488,344,65079,6,0,B|140:344|140:40|488:40|488:40|380:40,1,764.749968493272,2|0,0:0|0:0,0:0:0:0:
232,40,66079,6,0,P|168:68|232:192,1,249.374989726067,4|0,0:0|0:0,0:0:0:0:
331,192,66413,6,0,L|343:192,12,12.5,2|0|0|0|0|0|0|0|0|0|0|0|0,0:0|0:0|0:0|0:0|0:0|0:0|0:0|0:0|0:0|0:0|0:0|0:0|0:0,0:0:0:0:
160,284,66746,1,2,0:0:0:0:
240,284,66829,1,2,0:0:0:0:
160,284,66913,1,2,0:0:0:0:
240,284,66996,1,2,0:0:0:0:
456,192,67079,6,0,L|328:192,2,125,10|0|2,0:0|0:0|0:0,0:0:0:0:
132,192,67579,2,0,L|336:192,1,200,8|2,0:0|0:0,0:0:0:0:
148,192,68079,2,0,L|144:88,1,100,8|0,0:0|0:0,0:0:0:0:
376,304,68413,6,0,L|483:366,1,119.999996337891,8|0,0:0|0:0,0:0:0:0:
280,340,68746,2,0,L|390:404,1,119.999996337891,8|0,0:0|0:0,0:0:0:0:
80,340,69079,5,2,0:0:0:0:
64,340,69100,1,0,0:0:0:0:
79,300,69121,1,0,0:0:0:0:
63,300,69142,1,0,0:0:0:0:
87,261,69163,1,0,0:0:0:0:
71,261,69184,1,0,0:0:0:0:
104,224,69204,1,0,0:0:0:0:
88,224,69225,1,0,0:0:0:0:
128,193,69246,1,0,0:0:0:0:
112,193,69267,1,0,0:0:0:0:
159,167,69288,1,0,0:0:0:0:
143,167,69309,1,0,0:0:0:0:
195,150,69329,1,0,0:0:0:0:
179,150,69350,1,0,0:0:0:0:
233,140,69371,1,0,0:0:0:0:
217,140,69392,1,0,0:0:0:0:
273,140,69413,5,0,0:0:0:0:
257,140,69434,1,0,0:0:0:0:
312,148,69454,1,0,0:0:0:0:
296,148,69475,1,0,0:0:0:0:
348,165,69496,1,0,0:0:0:0:
332,165,69517,1,0,0:0:0:0:
380,190,69538,1,0,0:0:0:0:
364,190,69559,1,0,0:0:0:0:
405,221,69579,1,0,0:0:0:0:
389,221,69600,1,0,0:0:0:0:
423,256,69621,1,0,0:0:0:0:
407,256,69642,1,0,0:0:0:0:
432,295,69663,1,0,0:0:0:0:
416,295,69684,1,0,0:0:0:0:
432,335,69704,1,0,0:0:0:0:
416,335,69725,1,0,0:0:0:0:
312,336,69746,5,2,0:0:0:0:
270,326,69788,1,0,0:0:0:0:
237,299,69829,1,0,0:0:0:0:
218,261,69871,1,0,0:0:0:0:
217,219,69913,1,0,0:0:0:0:
234,180,69954,1,0,0:0:0:0:
266,152,69996,1,0,0:0:0:0:
307,141,70038,1,0,0:0:0:0:
338,131,70079,1,2,0:0:0:0:
361,107,70135,1,0,0:0:0:0:
369,75,70191,1,0,0:0:0:0:
361,43,70246,1,0,0:0:0:0:
338,19,70302,1,0,0:0:0:0:
307,8,70357,1,0,0:0:0:0:
188,8,70413,6,0,L|120:8,3,59.9999981689454
364,16,70746,2,0,L|369:77,1,58.3333333333333,2|0,0:0|0:0,0:0:0:0:
292,80,70941,2,0,L|288:148,1,50,2|0,0:0|0:0,0:0:0:0:
120,192,71079,6,0,L|20:192,2,100,10|0|2,0:0|0:0|0:0,0:0:0:0:
420,192,71579,2,0,L|168:192,1,250,8|2,0:0|0:0,0:0:0:0:
496,192,72079,2,0,L|500:80,1,100,8|0,0:0|0:0,0:0:0:0:
176,192,72413,6,0,L|328:192,1,150.000005722046,8|0,0:0|0:0,0:0:0:0:
28,192,72746,2,0,L|24:300,1,100,8|0,0:0|0:0,0:0:0:0:
476,192,73100,5,12,0:0:0:0:
256,192,75100,12,0,76934,0:0:0:0:
424,56,77100,6,0,L|308:56,2,100,4|0|2,0:0|0:0|0:0,0:0:0:0:
140,56,77600,1,2,0:0:0:0:
460,56,77934,1,8,0:0:0:0:
88,148,79100,6,0,L|204:148,2,100,8|0|2,0:0|0:0|0:0,0:0:0:0:
368,148,79600,1,2,0:0:0:0:
124,148,79934,1,8,0:0:0:0:
496,256,81100,5,8,0:0:0:0:
356,256,81267,1,0,0:0:0:0:
216,256,81434,1,0,0:0:0:0:
400,256,81600,1,8,0:0:0:0:
80,256,81934,1,2,0:0:0:0:
16,256,83100,5,8,0:0:0:0:
176,256,83267,1,0,0:0:0:0:
336,256,83434,1,2,0:0:0:0:
56,256,83600,1,8,0:0:0:0:
496,256,83934,1,2,0:0:0:0:
40,192,85100,5,12,0:0:0:0:
220,192,85267,1,0,0:0:0:0:
400,192,85434,1,2,0:0:0:0:
120,192,85600,2,0,L|116:84,1,100,8|0,0:0|0:0,0:0:0:0:
444,28,85934,6,0,L|340:28,1,100,12|0,0:0|0:0,0:0:0:0:
164,28,86267,1,8,0:0:0:0:
336,28,86434,2,0,L|340:92,1,50,2|2,0:0|0:0,0:0:0:0:
84,28,86600,2,0,L|80:144,1,100,8|0,0:0|0:0,0:0:0:0:
388,192,86934,6,0,L|500:192,1,100,12|0,0:0|0:0,0:0:0:0:
308,192,87267,1,8,0:0:0:0:
476,192,87434,1,2,0:0:0:0:
400,192,87517,1,2,0:0:0:0:
192,192,87600,2,0,L|84:192,1,100,8|0,0:0|0:0,0:0:0:0:
344,48,87934,6,0,L|92:48,1,250,12|0,0:0|0:0,0:0:0:0:
360,48,88267,1,8,0:0:0:0:
76,48,88434,1,2,0:0:0:0:
420,48,88600,2,0,L|424:176,1,100,8|0,0:0|0:0,0:0:0:0:
156,48,88934,6,0,P|52:144|156:336,1,387.5,8|0,0:0|0:0,0:0:0:0:
168,336,89600,2,0,L|456:336,1,287.5
436,336,90100,6,0,P|308:216|436:108,1,382.374984246636,2|0,0:0|0:0,0:0:0:0:
448,108,90600,2,0,L|152:108,1,287.5
148,108,91100,5,2,0:0:0:0:
224,108,91600,1,0,0:0:0:0:
450,108,92100,5,2,0:0:0:0:
376,108,92600,1,0,0:0:0:0:
72,336,93100,6,0,P|88:264|256:152,1,287.5,2|0,0:0|0:0,0:0:0:0:
268,152,93600,2,0,L|8:152,1,258.749992103577
9,152,94100,6,0,L|500:152,1,488.750009322167,2|0,0:0|0:0,0:0:0:0:
484,152,94600,2,0,P|354:206|299:336,1,287.5
312,336,95100,5,2,0:0:0:0:
192,336,95600,1,0,0:0:0:0:
432,336,96100,5,2,0:0:0:0:
72,336,96600,2,0,P|3:287|96:192,1,250
292,192,97100,6,0,L|392:192,1,100,6|0,0:0|0:0,0:0:0:0:
188,192,97434,2,0,L|184:140,1,50,2|2,0:0|0:0,0:0:0:0:
432,88,97600,1,8,0:0:0:0:
432,88,97934,1,2,0:0:0:0:
132,40,98100,2,0,L|128:144,1,100,8|0,0:0|0:0,0:0:0:0:
312,192,98434,6,0,L|208:192,1,100,2|0,0:0|0:0,0:0:0:0:
392,192,98767,2,0,L|312:125,1,100,8|0,3:0|3:0,3:0:0:0:
52,192,99100,6,0,L|48:304,1,100,2|0,0:0|0:0,0:0:0:0:
252,344,99434,2,0,L|248:288,1,50,2|2,0:0|0:0,0:0:0:0:
48,291,99600,1,8,0:0:0:0:
52,192,99934,1,2,0:0:0:0:
332,192,100100,2,0,L|336:292,1,100,8|0,0:0|0:0,0:0:0:0:
152,192,100434,6,0,L|148:92,1,100,2|0,0:0|0:0,0:0:0:0:
420,56,100767,2,0,L|364:88,1,50,8|2,0:0|0:0,0:0:0:0:
140,192,100934,2,0,L|195:224,1,50,2|2,0:0|0:0,0:0:0:0:
468,192,101100,6,0,L|360:192,1,100,12|0,0:0|0:0,0:0:0:0:
176,192,101434,1,2,0:0:0:0:
328,192,101517,1,2,0:0:0:0:
480,192,101600,1,8,0:0:0:0:
480,192,101934,1,2,0:0:0:0:
156,192,102100,2,0,L|152:92,1,100,8|0,0:0|0:0,0:0:0:0:
336,40,102434,6,0,L|332:148,1,100,2|0,0:0|0:0,0:0:0:0:
156,192,102767,2,0,L|76:258,1,100,8|0,0:0|0:0,0:0:0:0:
360,320,103100,6,0,L|256:320,1,100,2|0,0:0|0:0,0:0:0:0:
440,320,103434,2,0,L|444:252,1,50,2|2,0:0|0:0,0:0:0:0:
256,244,103600,1,8,0:0:0:0:
199,215,103683,1,0,0:0:0:0:
203,152,103766,1,0,0:0:0:0:
263,131,103849,1,0,0:0:0:0:
472,88,103934,2,0,L|404:88,1,50,2|0,0:0|0:0,0:0:0:0:
212,28,104100,6,0,L|120:28,3,69.9999978637696,8|0|0|0,0:0|0:0|0:0|0:0,0:0:0:0:
380,88,104434,2,0,L|384:152,1,50,2|0,0:0|0:0,0:0:0:0:
203,152,104600,2,0,L|199:216,1,50,2|0,0:0|0:0,0:0:0:0:
480,296,104767,2,0,L|424:296,1,50,8|2,0:0|0:0,0:0:0:0:
152,344,104934,2,0,L|96:344,1,50,2|2,0:0|0:0,0:0:0:0:
432,296,105100,6,0,P|464:260|428:192,1,132.999994520569,12|0,0:0|0:0,0:0:0:0:
368,188,105350,1,0,0:0:0:0:
152,192,105434,2,0,L|96:192,1,50,2|2,0:0|0:0,0:0:0:0:
352,188,105599,2,0,L|356:88,1,100,8|2,0:0|0:0,0:0:0:0:
160,56,105934,1,8,0:0:0:0:
448,24,106100,6,0,L|452:136,1,100,2|0,0:0|0:0,0:0:0:0:
148,192,106434,1,8,0:0:0:0:
429,192,106600,1,0,0:0:0:0:
256,192,106767,1,2,0:0:0:0:
440,192,106934,1,0,0:0:0:0:
148,192,107100,6,0,L|248:192,1,100,8|0,0:0|0:0,0:0:0:0:
48,192,107434,2,0,L|112:192,1,50,2|2,0:0|0:0,0:0:0:0:
332,192,107600,2,0,L|336:88,1,100,8|0,0:0|0:0,0:0:0:0:
144,56,107934,1,2,0:0:0:0:
448,28,108100,1,8,0:0:0:0:
448,28,108434,5,8,0:0:0:0:
136,56,108600,1,0,0:0:0:0:
308,56,108767,1,2,0:0:0:0:
127,56,108934,1,0,0:0:0:0:
496,192,109100,6,0,L|48:192,1,440,12|0,0:0|0:0,0:0:0:0:
288,192,109599,2,0,L|336:192,1,41.5000006015778,2|0,0:0|0:0,0:0:0:0:
16,192,110100,6,0,L|456:192,1,440,12|0,0:0|0:0,0:0:0:0:
224,192,110599,2,0,L|172:192,1,41.5000006015778,2|0,0:0|0:0,0:0:0:0:
428,192,111100,6,0,L|432:168,1,25,12|0,2:3|0:0,0:0:0:0:
96,192,111600,2,0,L|80:168,1,25,10|0,2:3|0:0,0:0:0:0:
488,192,112100,6,0,L|508:176,1,25,12|0,2:3|0:0,0:0:0:0:
40,192,112600,2,0,L|16:192,1,25,10|0,2:3|0:0,0:0:0:0:
488,336,113100,6,0,B|492:36|492:36|492:340|492:340|488:36|488:36|496:280,1,1150,12|0,2:3|0:0,0:0:0:0:
264,340,115100,6,0,B|64:340|64:340|264:336|264:336|64:336|64:336|264:332|264:332|64:332|64:332|216:328,1,1150,2|0,0:0|0:0,0:0:0:0:
432,324,117100,6,0,P|480:80|384:352,1,1150,2|0,0:0|0:0,0:0:0:0:
180,328,119100,6,0,B|80:328|80:328|80:228|80:228|180:228|180:228|180:128|180:128|80:128|80:128|80:28|80:28|180:28|180:28|180:128|180:128|80:128|80:128|80:228|80:228|180:228|180:228|240:228,1,1150,2|0,0:0|0:0,0:0:0:0:
36,336,121100,5,2,0:0:0:0:
36,300,121142,2,0,B|32:36|32:36|32:340|32:340|40:156,1,750
40,156,122434,2,0,P|164:232|48:340,1,350
260,344,123100,6,0,B|460:344|460:344|460:144|460:144|260:144|260:144|260:344|260:344|460:344|460:344|460:244|460:244|408:244,1,1150,2|0,0:0|0:0,0:0:0:0:
156,192,125100,5,2,0:0:0:0:
132,192,125142,2,0,B|32:92|32:92|136:-12|136:-12|232:92|232:92|132:192|132:192|32:92|32:92|136:-12|136:-12|232:92|232:92|132:192|132:192,1,1125
372,24,127100,6,0,B|204:24|204:276|372:276|372:276|172:276|172:276|372:280|372:280|172:280|172:280|340:280|340:24|172:24|172:24|372:20|372:20|172:20|172:20|372:16|372:16|204:16|204:204|368:204,1,2350,2|0,0:0|0:0,0:0:0:0:
256,192,131100,12,0,134766,0:0:0:0:
