osu file format v14

[General]
AudioFilename: audio.mp3
AudioLeadIn: 0
PreviewTime: -1
Countdown: 1
SampleSet: Normal
StackLeniency: 0.7
Mode: 1
LetterboxInBreaks: 0
WidescreenStoryboard: 1

[Editor]
DistanceSpacing: 2
BeatDivisor: 4
GridSize: 32
TimelineZoom: 1

[Metadata]
Title:Hollow Knight
TitleUnicode:Hollow Knight
Artist:Christopher Larkin
ArtistUnicode:Christopher Larkin
Creator:streeteelf
Version:Futsuu
Source:Hollow Knight
Tags:
BeatmapID:1230432
BeatmapSetID:581257

[Difficulty]
HPDrainRate:7
CircleSize:2
OverallDifficulty:3
ApproachRate:10
SliderMultiplier:1.4
SliderTickRate:1

[Events]
//Background and Video events
0,0,"nEHQHnf Taiko.png",0,-75
//Break Periods
//Storyboard Layer 0 (Background)
//Storyboard Layer 1 (Fail)
//Storyboard Layer 2 (Pass)
//Storyboard Layer 3 (Foreground)
//Storyboard Sound Samples

[TimingPoints]
1925,545.454545454546,6,1,0,100,1,0
80470,576.923076923077,4,1,0,100,1,0
82777,476.190476190476,4,1,0,100,1,0

[HitObjects]
256,192,1925,5,0,0:0:0:0:
256,192,2470,1,8,0:0:0:0:
256,192,3015,1,0,0:0:0:0:
256,192,4106,1,0,0:0:0:0:
256,192,4652,1,0,0:0:0:0:
256,192,5197,1,8,0:0:0:0:
256,192,5743,1,0,0:0:0:0:
256,192,6288,1,0,0:0:0:0:
256,192,8470,1,0,0:0:0:0:
256,192,9015,1,8,0:0:0:0:
256,192,9561,1,8,0:0:0:0:
256,192,10652,1,8,0:0:0:0:
256,192,11197,1,8,0:0:0:0:
256,192,11743,1,0,0:0:0:0:
256,192,12288,1,8,0:0:0:0:
256,192,12834,1,0,0:0:0:0:
256,192,13379,1,8,0:0:0:0:
256,192,13925,1,0,0:0:0:0:
256,192,15015,1,0,0:0:0:0:
256,192,15561,1,8,0:0:0:0:
256,192,16106,1,0,0:0:0:0:
256,192,17197,1,0,0:0:0:0:
256,192,17743,1,0,0:0:0:0:
256,192,18288,1,8,0:0:0:0:
256,192,18834,1,0,0:0:0:0:
256,192,19379,1,8,0:0:0:0:
256,192,21561,1,8,0:0:0:0:
256,192,22106,1,8,0:0:0:0:
256,192,22652,1,8,0:0:0:0:
256,192,23197,1,0,0:0:0:0:
256,192,23743,1,8,0:0:0:0:
256,192,24834,1,0,0:0:0:0:
256,192,25379,1,8,0:0:0:0:
256,192,25925,1,8,0:0:0:0:
256,192,26470,1,0,0:0:0:0:
256,192,27015,1,0,0:0:0:0:
256,192,27561,1,8,0:0:0:0:
256,192,28106,1,4,0:0:0:0:
256,192,30288,1,0,0:0:0:0:
256,192,31379,1,0,0:0:0:0:
256,192,32470,1,0,0:0:0:0:
256,192,33561,1,0,0:0:0:0:
256,192,34106,1,8,0:0:0:0:
256,192,34652,1,0,0:0:0:0:
256,192,35743,1,8,0:0:0:0:
256,192,36834,1,0,0:0:0:0:
256,192,37925,1,8,0:0:0:0:
256,192,38470,1,0,0:0:0:0:
256,192,39015,1,8,0:0:0:0:
256,192,40106,1,8,0:0:0:0:
256,192,40652,1,8,0:0:0:0:
256,192,41197,1,0,0:0:0:0:
256,192,41743,1,8,0:0:0:0:
256,192,42288,1,8,0:0:0:0:
256,192,43379,1,0,0:0:0:0:
256,192,44470,1,8,0:0:0:0:
256,192,45561,1,8,0:0:0:0:
256,192,46652,1,0,0:0:0:0:
256,192,47197,1,8,0:0:0:0:
256,192,47743,1,8,0:0:0:0:
256,192,48834,1,0,0:0:0:0:
256,192,49379,1,0,0:0:0:0:
256,192,49925,1,8,0:0:0:0:
256,192,50470,1,0,0:0:0:0:
256,192,50743,1,0,0:0:0:0:
256,192,51015,1,0,0:0:0:0:
256,192,52106,1,0,0:0:0:0:
256,192,53197,1,0,0:0:0:0:
256,192,53743,1,8,0:0:0:0:
256,192,54288,1,8,0:0:0:0:
256,192,55379,1,0,0:0:0:0:
256,192,56470,1,8,0:0:0:0:
256,192,57015,1,0,0:0:0:0:
256,192,57561,1,8,0:0:0:0:
256,192,58652,1,8,0:0:0:0:
256,192,59743,1,8,0:0:0:0:
256,192,60288,1,0,0:0:0:0:
256,192,60834,1,8,0:0:0:0:
256,192,61379,1,0,0:0:0:0:
256,192,61925,1,8,0:0:0:0:
256,192,63015,1,0,0:0:0:0:
256,192,63561,1,0,0:0:0:0:
256,192,64106,1,8,0:0:0:0:
256,192,65197,1,8,0:0:0:0:
256,192,65743,1,8,0:0:0:0:
256,192,66288,1,0,0:0:0:0:
256,192,67379,1,0,0:0:0:0:
256,192,68470,1,8,0:0:0:0:
256,192,69561,1,0,0:0:0:0:
256,192,70106,1,8,0:0:0:0:
256,192,70652,1,8,0:0:0:0:
256,192,71743,1,0,0:0:0:0:
256,192,72288,1,0,0:0:0:0:
256,192,72834,1,8,0:0:0:0:
256,192,73925,1,8,0:0:0:0:
256,192,74470,1,0,0:0:0:0:
256,192,75015,1,0,0:0:0:0:
256,192,75561,1,8,0:0:0:0:
256,192,76470,1,0,0:0:0:0:
256,192,76834,1,0,0:0:0:0:
256,192,77197,1,8,0:0:0:0:
256,192,78288,1,0,0:0:0:0:
256,192,79379,1,0,0:0:0:0:
256,192,80470,1,8,0:0:0:0:
256,192,81623,1,0,0:0:0:0:
256,192,82200,1,0,0:0:0:0:
256,192,82777,1,8,0:0:0:0:
256,192,84681,1,8,0:0:0:0:
