osu file format v14

[General]
AudioFilename: audio.mp3
AudioLeadIn: 0
PreviewTime: 3840
Countdown: 0
SampleSet: Normal
StackLeniency: 0.7
Mode: 1
LetterboxInBreaks: 0
WidescreenStoryboard: 0

[Editor]
Bookmarks: 3840,19200,34560,49920,53760,69120
DistanceSpacing: 1.4
BeatDivisor: 4
GridSize: 4
TimelineZoom: 1

[Metadata]
Title:Jpop Drop
TitleUnicode:Jpop Drop
Artist:Christopher Branch & Tom Haines
ArtistUnicode:Christopher Branch & Tom Haines
Creator:Pachiru
Version:Kantan
Source:
Tags:nepuri vitamin pack cute happy
BeatmapID:1476021
BeatmapSetID:696883

[Difficulty]
HPDrainRate:9
CircleSize:2
OverallDifficulty:3
ApproachRate:9
SliderMultiplier:1.4
SliderTickRate:1

[Events]
//Background and Video events
0,0,"ZVzuAEW.jpg",0,-20
//Break Periods
//Storyboard Layer 0 (Background)
//Storyboard Layer 1 (Fail)
//Storyboard Layer 2 (Pass)
//Storyboard Layer 3 (Foreground)
//Storyboard Sound Samples

[TimingPoints]
0,480,4,1,0,80,1,0
3840,-100,4,1,0,80,0,1
19200,-100,4,1,0,80,0,0
53760,-100,4,1,0,80,0,1
69120,-100,4,1,0,70,0,0
70080,-100,4,1,0,60,0,0
71040,-100,4,1,0,50,0,0
72000,-100,4,1,0,40,0,0
72960,-100,4,1,0,30,0,0
73920,-100,4,1,0,20,0,0
74880,-100,4,1,0,5,0,0

[Colours]
Combo1 : 37,185,239
Combo2 : 0,128,255

[HitObjects]
256,192,0,5,4,0:0:0:0:
256,192,960,1,8,0:0:0:0:
256,192,1920,1,0,0:0:0:0:
256,192,3840,1,4,0:0:0:0:
256,192,4800,1,8,0:0:0:0:
256,192,5760,1,0,0:0:0:0:
256,192,6240,1,0,0:0:0:0:
256,192,6720,1,8,0:0:0:0:
256,192,7680,1,0,0:0:0:0:
256,192,8640,1,8,0:0:0:0:
256,192,9600,1,0,0:0:0:0:
256,192,10560,1,8,0:0:0:0:
256,192,11040,1,8,0:0:0:0:
256,192,11520,1,4,0:0:0:0:
256,192,12480,1,8,0:0:0:0:
256,192,13440,1,0,0:0:0:0:
256,192,13920,1,0,0:0:0:0:
256,192,14400,1,8,0:0:0:0:
256,192,15360,1,0,0:0:0:0:
256,192,16320,1,8,0:0:0:0:
256,192,17280,1,0,0:0:0:0:
256,192,17760,1,0,0:0:0:0:
256,192,18240,1,8,0:0:0:0:
256,192,19200,1,4,0:0:0:0:
256,192,21120,1,0,0:0:0:0:
256,192,22080,1,8,0:0:0:0:
256,192,23040,1,8,0:0:0:0:
256,196,24960,1,0,0:0:0:0:
256,196,25920,1,8,0:0:0:0:
256,196,26880,1,4,0:0:0:0:
256,200,28800,1,8,0:0:0:0:
256,200,29760,1,0,0:0:0:0:
256,200,30720,1,8,0:0:0:0:
260,200,32640,1,8,0:0:0:0:
260,200,33600,1,0,0:0:0:0:
260,200,34560,1,4,0:0:0:0:
260,200,36480,1,0,0:0:0:0:
260,200,37440,1,0,0:0:0:0:
260,200,38400,1,0,0:0:0:0:
260,200,40320,1,8,0:0:0:0:
260,200,41280,1,8,0:0:0:0:
260,200,42240,1,4,0:0:0:0:
260,200,44160,1,0,0:0:0:0:
260,200,45120,1,0,0:0:0:0:
260,200,46080,1,0,0:0:0:0:
260,200,48000,1,8,0:0:0:0:
260,200,48960,1,8,0:0:0:0:
260,200,49920,1,4,0:0:0:0:
260,200,53760,1,4,0:0:0:0:
260,200,54720,1,8,0:0:0:0:
260,200,55680,1,0,0:0:0:0:
276,180,56160,1,0,0:0:0:0:
260,200,56640,1,8,0:0:0:0:
260,200,57600,1,0,0:0:0:0:
260,200,58560,1,8,0:0:0:0:
260,200,59520,1,0,0:0:0:0:
256,212,60480,1,8,0:0:0:0:
256,212,60960,1,8,0:0:0:0:
256,212,61440,1,4,0:0:0:0:
256,192,62400,1,8,0:0:0:0:
260,196,63360,1,0,0:0:0:0:
260,196,63840,1,0,0:0:0:0:
260,196,64320,1,8,0:0:0:0:
260,196,65280,1,0,0:0:0:0:
260,196,66240,1,8,0:0:0:0:
264,204,67200,1,0,0:0:0:0:
264,204,67680,1,0,0:0:0:0:
264,204,68160,1,8,0:0:0:0:
264,204,68640,1,8,0:0:0:0:
264,204,69120,1,4,0:0:0:0:
256,192,70080,12,0,75840,0:0:0:0:
