osu file format v14

[General]
AudioFilename: audio.mp3
AudioLeadIn: 0
PreviewTime: 3840
Countdown: 0
SampleSet: Normal
StackLeniency: 0.7
Mode: 1
LetterboxInBreaks: 0
WidescreenStoryboard: 1

[Editor]
Bookmarks: 3840,19200,34560,49920,53760,69120
DistanceSpacing: 1.4
BeatDivisor: 4
GridSize: 4
TimelineZoom: 1

[Metadata]
Title:Jpop Drop
TitleUnicode:Jpop Drop
Artist:Christopher Branch & Tom Haines
ArtistUnicode:Christopher Branch & Tom Haines
Creator:Pachiru
Version:Muzukashii
Source:
Tags:nepuri vitamin pack cute happy
BeatmapID:1476036
BeatmapSetID:696883

[Difficulty]
HPDrainRate:7
CircleSize:2
OverallDifficulty:5
ApproachRate:0
SliderMultiplier:1.4
SliderTickRate:1

[Events]
//Background and Video events
0,0,"ZVzuAEW.jpg",0,-20
//Break Periods
//Storyboard Layer 0 (Background)
//Storyboard Layer 1 (Fail)
//Storyboard Layer 2 (Pass)
//Storyboard Layer 3 (Foreground)
//Storyboard Sound Samples

[TimingPoints]
0,480,4,1,0,80,1,0
3840,-100,4,1,0,80,0,1
19200,-100,4,1,0,80,0,0
53760,-100,4,1,0,80,0,1
69120,-100,4,1,0,70,0,0
70080,-100,4,1,0,60,0,0
71040,-100,4,1,0,50,0,0
72000,-100,4,1,0,40,0,0
72960,-100,4,1,0,30,0,0
73920,-100,4,1,0,20,0,0
74880,-100,4,1,0,5,0,0

[Colours]
Combo1 : 37,185,239
Combo2 : 0,128,255

[HitObjects]
192,156,0,5,0,0:0:0:0:
192,156,240,1,0,0:0:0:0:
200,156,480,1,8,0:0:0:0:
192,156,960,1,0,0:0:0:0:
192,156,1200,1,8,0:0:0:0:
200,156,1440,1,0,0:0:0:0:
192,156,1920,1,0,0:0:0:0:
192,156,2160,1,8,0:0:0:0:
200,156,2400,1,0,0:0:0:0:
200,160,2640,1,8,0:0:0:0:
192,156,2880,1,0,0:0:0:0:
192,156,3120,1,8,0:0:0:0:
200,144,3360,1,0,0:0:0:0:
200,156,3840,1,12,0:0:0:0:
192,156,4080,1,0,0:0:0:0:
200,156,4200,1,0,0:0:0:0:
200,156,4320,1,0,0:0:0:0:
200,160,4560,1,0,0:0:0:0:
200,148,4800,1,8,0:0:0:0:
204,148,5040,1,0,0:0:0:0:
192,152,5280,1,8,0:0:0:0:
200,160,5760,1,8,0:0:0:0:
200,160,6000,1,0,0:0:0:0:
196,164,6240,1,0,0:0:0:0:
192,156,6360,1,0,0:0:0:0:
200,176,6480,1,0,0:0:0:0:
200,160,6720,1,8,0:0:0:0:
196,164,6960,1,8,0:0:0:0:
200,164,7200,1,0,0:0:0:0:
196,172,7680,1,0,0:0:0:0:
196,172,7920,1,8,0:0:0:0:
196,172,8040,1,8,0:0:0:0:
196,176,8160,1,8,0:0:0:0:
196,172,8400,1,8,0:0:0:0:
196,172,8640,1,0,0:0:0:0:
196,172,8880,1,0,0:0:0:0:
184,168,9120,1,8,0:0:0:0:
196,172,9600,1,0,0:0:0:0:
196,172,9840,1,8,0:0:0:0:
196,172,10080,1,0,0:0:0:0:
196,172,10200,1,0,0:0:0:0:
196,176,10320,1,0,0:0:0:0:
196,172,10560,1,0,0:0:0:0:
196,172,10800,1,8,0:0:0:0:
184,168,11040,1,0,0:0:0:0:
200,156,11520,1,4,0:0:0:0:
192,156,11760,1,0,0:0:0:0:
200,156,11880,1,0,0:0:0:0:
200,156,12000,1,0,0:0:0:0:
200,160,12240,1,0,0:0:0:0:
200,148,12480,1,8,0:0:0:0:
204,148,12720,1,8,0:0:0:0:
192,152,12960,1,0,0:0:0:0:
200,160,13440,1,8,0:0:0:0:
200,160,13680,1,0,0:0:0:0:
196,164,13920,1,0,0:0:0:0:
192,156,14040,1,0,0:0:0:0:
200,176,14160,1,0,0:0:0:0:
200,160,14400,1,8,0:0:0:0:
196,164,14640,1,0,0:0:0:0:
200,164,14880,1,8,0:0:0:0:
196,172,15360,1,8,0:0:0:0:
196,172,15600,1,8,0:0:0:0:
196,172,15720,1,8,0:0:0:0:
196,176,15840,1,8,0:0:0:0:
184,172,16080,1,8,0:0:0:0:
196,172,16320,1,0,0:0:0:0:
196,172,16560,1,0,0:0:0:0:
184,168,16800,1,8,0:0:0:0:
196,172,17280,1,0,0:0:0:0:
196,172,17520,1,8,0:0:0:0:
196,176,17760,1,0,0:0:0:0:
196,172,17880,1,0,0:0:0:0:
196,172,18000,1,0,0:0:0:0:
196,172,18240,1,0,0:0:0:0:
196,172,18480,1,8,0:0:0:0:
184,168,18720,1,0,0:0:0:0:
188,168,19200,1,4,0:0:0:0:
188,168,19440,1,0,0:0:0:0:
184,168,19680,1,8,0:0:0:0:
188,168,20160,1,0,0:0:0:0:
188,168,20400,1,8,0:0:0:0:
192,164,21120,1,0,0:0:0:0:
192,164,21360,1,8,0:0:0:0:
192,164,21600,1,0,0:0:0:0:
192,164,22080,1,8,0:0:0:0:
192,164,22320,1,0,0:0:0:0:
184,160,22560,1,0,0:0:0:0:
184,160,23040,1,0,0:0:0:0:
184,160,23280,1,0,0:0:0:0:
184,160,23520,1,8,0:0:0:0:
184,160,24000,1,0,0:0:0:0:
192,160,24240,1,8,0:0:0:0:
184,160,24960,1,0,0:0:0:0:
184,160,25200,1,8,0:0:0:0:
184,160,25440,1,0,0:0:0:0:
184,160,25920,1,8,0:0:0:0:
184,160,26160,1,0,0:0:0:0:
184,160,26400,1,8,0:0:0:0:
184,160,26880,1,4,0:0:0:0:
184,160,27120,1,0,0:0:0:0:
184,160,27360,1,8,0:0:0:0:
184,160,27840,1,8,0:0:0:0:
168,104,28080,1,0,0:0:0:0:
196,152,28800,1,8,0:0:0:0:
196,152,29040,1,8,0:0:0:0:
196,152,29280,1,0,0:0:0:0:
196,152,29760,1,0,0:0:0:0:
196,152,30000,1,8,0:0:0:0:
196,152,30240,1,8,0:0:0:0:
196,152,30720,1,0,0:0:0:0:
196,152,30960,1,0,0:0:0:0:
196,152,31200,1,8,0:0:0:0:
196,152,31680,1,8,0:0:0:0:
200,148,31920,1,0,0:0:0:0:
208,144,32640,1,8,0:0:0:0:
208,144,32880,1,0,0:0:0:0:
208,144,33120,1,8,0:0:0:0:
208,144,33600,1,0,0:0:0:0:
208,144,33840,1,8,0:0:0:0:
208,144,34080,1,0,0:0:0:0:
208,144,34560,1,4,0:0:0:0:
208,144,34800,1,8,0:0:0:0:
208,144,35520,1,8,0:0:0:0:
208,144,35760,1,8,0:0:0:0:
200,152,36000,1,0,0:0:0:0:
196,152,36480,1,8,0:0:0:0:
196,152,36720,1,0,0:0:0:0:
196,152,37440,1,0,0:0:0:0:
196,152,37680,1,0,0:0:0:0:
200,156,37920,1,8,0:0:0:0:
196,152,38400,1,0,0:0:0:0:
196,152,38640,1,8,0:0:0:0:
200,156,38880,1,0,0:0:0:0:
196,152,39360,1,8,0:0:0:0:
196,152,39600,1,8,0:0:0:0:
196,152,40320,1,8,0:0:0:0:
196,152,40560,1,0,0:0:0:0:
196,152,41280,1,0,0:0:0:0:
196,152,41520,1,0,0:0:0:0:
224,256,41760,1,8,0:0:0:0:
196,152,42240,1,4,0:0:0:0:
288,152,42480,1,8,0:0:0:0:
196,152,43200,1,8,0:0:0:0:
196,152,43440,1,8,0:0:0:0:
196,152,44160,1,8,0:0:0:0:
196,152,44400,1,0,0:0:0:0:
196,152,45120,1,0,0:0:0:0:
196,152,45360,1,0,0:0:0:0:
196,152,45600,1,8,0:0:0:0:
196,152,46080,1,0,0:0:0:0:
196,152,46320,1,8,0:0:0:0:
196,152,46560,1,0,0:0:0:0:
196,152,47040,1,8,0:0:0:0:
196,152,47280,1,8,0:0:0:0:
196,152,48000,1,8,0:0:0:0:
196,152,48240,1,0,0:0:0:0:
196,152,48960,1,0,0:0:0:0:
196,152,49200,1,0,0:0:0:0:
196,152,49440,1,8,0:0:0:0:
196,152,49920,1,12,0:0:0:0:
196,152,50880,1,8,0:0:0:0:
196,152,51840,1,8,0:0:0:0:
196,152,52320,1,8,0:0:0:0:
196,152,52800,1,0,0:0:0:0:
196,152,53040,1,0,0:0:0:0:
196,152,53280,1,0,0:0:0:0:
196,152,53760,1,12,0:0:0:0:
188,144,54000,1,0,0:0:0:0:
188,148,54240,1,0,0:0:0:0:
188,144,54360,1,0,0:0:0:0:
188,144,54480,1,0,0:0:0:0:
188,144,54720,1,8,0:0:0:0:
188,148,54960,1,8,0:0:0:0:
188,144,55200,1,0,0:0:0:0:
188,144,55680,1,8,0:0:0:0:
184,140,55920,1,0,0:0:0:0:
188,144,56040,1,0,0:0:0:0:
188,144,56160,1,0,0:0:0:0:
188,144,56400,1,0,0:0:0:0:
172,148,56640,1,8,0:0:0:0:
184,148,56880,1,0,0:0:0:0:
184,152,57120,1,8,0:0:0:0:
184,152,57600,1,0,0:0:0:0:
192,152,57840,1,8,0:0:0:0:
184,148,58080,1,8,0:0:0:0:
184,152,58200,1,8,0:0:0:0:
184,152,58320,1,8,0:0:0:0:
192,152,58560,1,0,0:0:0:0:
192,152,58800,1,0,0:0:0:0:
192,152,59040,1,8,0:0:0:0:
184,148,59520,1,0,0:0:0:0:
192,152,59760,1,0,0:0:0:0:
192,152,59880,1,0,0:0:0:0:
192,152,60000,1,0,0:0:0:0:
184,148,60240,1,8,0:0:0:0:
184,148,60480,1,0,0:0:0:0:
192,152,60720,1,8,0:0:0:0:
192,152,60960,1,0,0:0:0:0:
184,148,61440,1,4,0:0:0:0:
192,152,61680,1,8,0:0:0:0:
184,148,61920,1,0,0:0:0:0:
192,152,62040,1,0,0:0:0:0:
192,152,62160,1,0,0:0:0:0:
192,152,62400,1,8,0:0:0:0:
192,156,62640,1,8,0:0:0:0:
192,152,62880,1,0,0:0:0:0:
192,152,63360,1,8,0:0:0:0:
192,156,63600,1,0,0:0:0:0:
192,152,63720,1,0,0:0:0:0:
192,152,63840,1,0,0:0:0:0:
192,152,64080,1,0,0:0:0:0:
192,152,64320,1,8,0:0:0:0:
192,156,64560,1,0,0:0:0:0:
192,152,64800,1,8,0:0:0:0:
184,152,65280,1,8,0:0:0:0:
192,152,65520,1,0,0:0:0:0:
184,148,65760,1,8,0:0:0:0:
184,152,65880,1,8,0:0:0:0:
184,152,66000,1,8,0:0:0:0:
192,152,66240,1,0,0:0:0:0:
192,152,66480,1,0,0:0:0:0:
192,152,66720,1,8,0:0:0:0:
184,148,67200,1,0,0:0:0:0:
192,152,67440,1,0,0:0:0:0:
192,152,67560,1,0,0:0:0:0:
192,152,67680,1,0,0:0:0:0:
184,148,67920,1,8,0:0:0:0:
184,148,68160,1,0,0:0:0:0:
192,152,68400,1,8,0:0:0:0:
192,152,68640,1,0,0:0:0:0:
192,152,68880,1,0,0:0:0:0:
256,192,69120,12,0,75840,0:0:0:0:
