osu file format v14

[General]
AudioFilename: audio.mp3
AudioLeadIn: 0
PreviewTime: 61880
Countdown: 0
SampleSet: Soft
StackLeniency: 0.8
Mode: 0
LetterboxInBreaks: 0
WidescreenStoryboard: 0

[Editor]
Bookmarks: 404,20970,51844,62106,82955,88121,118986,129270,170995,191574,212157,233005,253878,282871
DistanceSpacing: 1
BeatDivisor: 4
GridSize: 32
TimelineZoom: 1

[Metadata]
Title:A Thousand Years
TitleUnicode:A Thousand Years
Artist:Christina Perri
ArtistUnicode:Christina Perri
Creator:Weoweet
Version:Millennium
Source:The Twilight Saga: Breaking Dawn Part 1
Tags:english pop ballad
BeatmapID:4224117
BeatmapSetID:2027227

[Difficulty]
HPDrainRate:5
CircleSize:4
OverallDifficulty:8
ApproachRate:8
SliderMultiplier:1
SliderTickRate:1

[Events]
//Background and Video events
0,0,"scrensjhort.png",0,0
Video,231,"Christina Perri - A Thousand Years [Official Music Video] (720P).mp4"
//Break Periods
2,212157,227039
//Storyboard Layer 0 (Background)
//Storyboard Layer 1 (Fail)
//Storyboard Layer 2 (Pass)
//Storyboard Layer 3 (Foreground)
//Storyboard Layer 4 (Overlay)
//Storyboard Sound Samples

[TimingPoints]
-872,425.531914893617,6,2,0,40,1,0
404,-200,3,2,0,40,0,0
4233,431.654676258993,6,2,0,40,1,0
4234,-500,3,2,0,40,0,0
5527,-200,3,2,0,40,0,0
6822,428.571428571429,6,2,0,40,1,0
6822,-200,3,2,0,40,0,0
9393,-500,3,2,0,40,0,0
10679,-166.666666666667,3,2,0,30,0,0
14536,-250,3,2,0,30,0,0
15822,434.782608695652,6,2,0,30,1,0
15822,-166.666666666667,3,2,0,30,0,0
17126,425.531914893617,6,2,0,30,1,0
17126,-166.666666666667,3,2,0,30,0,0
18402,428.571428571428,6,2,0,30,1,0
18402,-250,3,2,0,30,0,0
20970,428.571428571428,6,2,0,40,1,0
20970,-133.333333333333,3,2,0,40,0,0
29969,-100,3,2,0,40,0,0
35112,-133.333333333333,3,2,0,40,0,0
45398,-100,3,2,0,40,0,0
49255,431.654676258992,6,2,0,40,1,0
49255,-133.333333333333,3,2,0,40,0,0
53139,425.531914893616,6,2,0,40,1,0
54415,-200,3,2,0,40,0,0
55692,-133.333333333333,3,2,0,40,0,0
56968,434.782608695652,6,2,0,40,1,0
58272,428.571428571428,6,2,0,40,1,0
59557,422.535211267605,6,2,0,40,1,0
59557,-133.333333333333,3,2,0,40,0,0
62106,431.654676258992,6,2,0,50,1,0
62106,-76.9230769230769,3,2,0,50,0,0
65990,444.444444444444,6,2,0,50,1,0
65990,-76.9230769230769,3,2,0,50,0,0
67323,434.782608695652,6,2,0,50,1,0
67323,-76.9230769230769,3,2,0,50,0,0
77757,428.571428571428,6,2,0,50,1,0
77757,-76.9230769230769,3,2,0,50,0,0
79042,444.444444444444,6,2,0,50,1,0
79042,-76.9230769230769,3,2,0,50,0,0
80375,430.10752688172,6,2,0,45,1,0
80375,-200,3,2,0,45,0,0
82955,434.782608695652,6,2,0,40,1,0
82955,-133.333333333333,3,2,0,40,0,0
84259,424.028268551236,6,2,0,40,1,0
84259,-133.333333333333,3,2,0,40,0,0
85531,441.176470588235,6,2,0,40,1,0
85531,-200,3,2,0,40,0,0
86854,422.535211267605,6,2,0,40,1,0
88121,428.571428571428,6,2,0,45,1,0
97120,-83.3333333333333,3,2,0,45,0,0
103549,-83.3333333333333,3,2,0,50,0,0
117692,431.654676258992,6,2,0,50,1,0
118986,428.571428571428,6,2,0,50,1,0
120271,-133.333333333333,3,2,0,40,0,0
121557,422.535211267605,6,2,0,50,1,0
121557,-133.333333333333,3,2,0,50,0,0
122824,433.212996389891,6,2,0,50,1,0
125423,425.531914893616,6,2,0,50,1,0
126699,-133.333333333333,3,2,0,50,0,0
127976,431.654676258992,6,2,0,50,1,0
129270,-66.6666666666667,3,2,0,60,0,0
131860,437.956204379561,6,2,0,60,1,0
131860,-66.6666666666667,3,2,0,60,0,0
134487,433.212996389891,6,2,0,60,1,0
134487,-66.6666666666667,3,2,0,60,0,0
138385,437.956204379561,6,2,0,60,1,0
138385,-66.6666666666667,3,2,0,60,0,0
141012,428.571428571428,6,2,0,60,1,0
141012,-66.6666666666667,3,2,0,60,0,0
142297,439.560439560439,6,2,0,60,1,0
142297,-66.6666666666667,3,2,0,60,0,0
143615,434.782608695651,6,2,0,60,1,0
143615,-66.6666666666667,3,2,0,60,0,0
168397,-66.6666666666667,3,2,0,65,0,0
169701,431.654676258992,6,2,0,60,1,0
169701,-66.6666666666667,3,2,0,60,0,0
170995,-66.6666666666667,3,2,0,60,0,1
173585,425.531914893616,6,2,0,60,1,1
173585,-76.9230769230769,3,2,0,60,0,1
176138,431.654676258992,6,2,0,60,1,1
176138,-66.6666666666667,3,2,0,60,0,1
178727,-76.9230769230769,3,2,0,60,0,1
179375,-100,3,2,0,60,0,1
180022,422.535211267605,6,2,0,60,1,1
180022,-142.857142857143,3,2,0,60,0,1
181289,428.571428571427,6,2,0,60,1,1
181289,-66.6666666666667,3,2,0,60,0,1
185146,-100,3,2,0,60,0,1
187717,-66.6666666666667,3,2,0,60,0,1
189003,-76.9230769230769,3,2,0,60,0,1
190288,-100,3,2,0,60,0,1
191574,431.654676258992,6,2,0,60,1,0
191574,-133.333333333333,3,2,0,50,0,0
192868,-133.333333333333,3,2,0,40,0,0
194163,424.028268551236,6,2,0,40,1,0
194163,-200,3,2,0,40,0,0
195435,430.107526881719,6,2,0,40,1,0
195435,-133.333333333333,3,2,0,40,0,0
199300,428.571428571427,6,2,0,40,1,0
199300,-200,3,2,0,40,0,0
204443,-200,3,2,0,45,0,0
205729,-133.333333333333,3,2,0,45,0,0
207014,-100,3,2,0,50,0,0
209586,-200,3,2,0,50,0,0
210872,-200,3,2,0,40,0,0
213443,436.363636363635,6,2,0,40,1,0
216061,434.782608695651,6,2,0,40,1,0
221278,431.654676258992,6,2,0,40,1,0
222572,434.782608695651,6,2,0,40,1,0
227789,-133.333333333333,3,2,0,40,0,0
229093,441.176470588234,6,2,0,40,1,0
229093,-200,3,2,0,40,0,0
230416,431.654676258992,6,2,0,45,1,0
231279,-100,3,2,0,50,0,0
232142,-100,3,2,0,55,0,0
233005,437.956204379561,6,2,0,60,1,1
233005,-62.5,3,2,0,60,0,1
235632,433.212996389891,6,2,0,60,1,1
235632,-62.5,3,2,0,60,0,1
238231,437.956204379561,6,2,0,60,1,1
238231,-62.5,3,2,0,60,0,1
239544,431.654676258992,6,2,0,60,1,1
239544,-62.5,3,2,0,60,0,1
240838,437.956204379561,6,2,0,60,1,1
240838,-62.5,3,2,0,60,0,1
242151,431.654676258992,6,2,0,60,1,1
242151,-62.5,3,2,0,60,0,1
243445,434.782608695651,6,2,0,60,1,1
243445,-62.5,3,2,0,60,0,1
251271,431.654676258992,6,2,0,60,1,1
252565,437.956204379561,6,2,0,60,1,1
253878,430.10752688172,6,2,0,40,1,0
253878,-200,3,2,0,40,0,0
256458,425.531914893616,6,2,0,40,1,0
256458,-250,3,2,0,40,0,0
257734,437.956204379561,6,2,0,40,1,0
257734,-333.333333333333,3,2,0,40,0,0
259047,422.535211267605,6,2,0,40,1,0
259047,-200,3,2,0,40,0,0
261582,437.956204379561,6,2,0,40,1,0
261582,-250,3,2,0,40,0,0
262895,428.571428571428,6,2,0,40,1,0
262895,-200,3,2,0,40,0,0
265466,422.535211267605,6,2,0,40,1,0
266733,434.782608695651,6,2,0,40,1,0
266733,-250,3,2,0,40,0,0
268037,428.571428571428,6,2,0,40,1,0
268465,-133.333333333333,3,2,0,40,0,0
269322,419.580419580419,6,2,0,40,1,0
269322,-200,3,2,0,40,0,0
270580,441.176470588234,6,2,0,40,1,0
271903,428.571428571428,6,2,0,40,1,0
271903,-200,3,2,0,40,0,0
273188,468.749999999999,6,2,0,35,1,0
273656,508.474576271185,6,2,0,30,1,0
274164,526.315789473683,6,2,0,25,1,0
274690,545.454545454544,6,2,0,40,1,0

[Colours]
Combo1 : 17,254,176
Combo2 : 173,255,95
Combo3 : 255,88,100
Combo4 : 255,94,55

[HitObjects]
64,380,404,6,0,P|20:360|12:313,1,100,2|0,0:0|0:0,0:0:0:0:
12,313,1681,2,0,P|50:284|95:301,1,100,2|0,0:0|0:0,0:0:0:0:
96,302,2957,2,0,P|101:349|63:379,1,100,2|0,0:0|0:0,0:0:0:0:
63,379,4234,2,0,L|56:333,1,40,2|0,0:0|0:0,0:0:0:0:
88,213,5527,6,0,P|118:173|131:122,1,100,2|0,0:0|0:0,0:0:0:0:
130,125,6822,2,0,P|175:105|212:67,1,100,2|0,0:0|0:0,0:0:0:0:
210,70,8107,2,0,P|259:75|310:61,1,100,2|0,0:0|0:0,0:0:0:0:
307,63,9393,2,0,L|267:55,1,40,2|0,0:0|0:0,0:0:0:0:
392,121,10679,6,0,P|433:183|479:227,1,119.999996337891,2|0,0:0|0:0,0:0:0:0:
431,285,11964,2,0,P|356:290|295:307,1,119.999996337891,2|0,0:0|0:0,0:0:0:0:
269,236,13250,2,0,P|301:168|317:107,1,119.999996337891,2|0,0:0|0:0,0:0:0:0:
314,125,14536,2,0,P|277:137|263:173,1,80,2|0,0:0|0:0,0:0:0:0:
67,128,15822,6,0,P|24:71|33:11,1,119.999996337891,2|0,0:0|0:0,0:0:0:0:
100,0,17126,2,0,P|142:56|133:116,1,119.999996337891,2|0,0:0|0:0,0:0:0:0:
139,103,18402,2,0,P|101:85|94:44,1,80,2|0,0:0|0:0,0:0:0:0:
92,50,19687,5,2,0:0:0:0:
185,177,20116,1,2,0:0:0:0:
221,284,20544,1,2,0:0:0:0:
235,384,20970,6,0,P|308:364|382:352,1,150.000005722046,2|0,3:2|0:0,0:0:0:0:
512,299,22255,2,0,P|437:287|365:267,1,150.000005722046,2|0,3:2|0:0,0:0:0:0:
263,227,23541,2,0,P|324:264|325:341,1,150.000005722046,2|0,3:2|0:0,0:0:0:0:
120,265,24827,1,2,3:2:0:0:
73,324,25041,2,0,P|36:330|-1:337,1,75.0000028610231,2|0,0:2|0:0,0:0:0:0:
150,381,25684,1,2,3:2:0:0:
150,381,26112,6,0,P|162:307|185:235,1,150.000005722046,2|0,3:2|0:0,0:0:0:0:
46,160,27398,2,0,P|69:231|81:305,1,150.000005722046,2|0,3:2|0:0,0:0:0:0:
54,384,28684,2,0,P|96:332|203:333,1,150.000005722046,2|0,3:2|0:0,0:0:0:0:
325,384,29969,2,0,P|320:359|313:334,1,50,2|0,3:2|0:0,0:0:0:0:
399,268,30398,1,2,3:2:0:0:
399,268,30612,2,0,P|405:292|410:316,1,50,10|0,0:0|0:0,0:0:0:0:
475,361,31041,1,0,3:0:0:0:
410,316,31255,2,0,P|461:251|485:131,1,200,2|0,1:2|0:0,0:0:0:0:
470,39,32541,6,0,P|451:55|434:73,1,50,2|0,3:2|0:0,0:0:0:0:
361,98,32969,1,2,3:2:0:0:
361,98,33184,2,0,P|327:60|288:30,1,100,10|0,0:0|3:0,0:0:0:0:
146,0,33827,6,0,P|126:72|119:146,1,150,2|0,1:2|0:0,0:0:0:0:
167,265,34684,1,2,0:3:0:0:
124,334,34898,1,4,0:3:0:0:
188,384,35112,2,0,P|197:347|202:310,2,75.0000028610231,2|0|0,1:2|0:0|0:0,0:0:0:0:
0,312,36398,6,0,P|46:254|113:221,1,150.000005722046,6|0,1:2|0:0,0:0:0:0:
243,178,37684,2,0,P|170:166|109:125,1,150.000005722046,2|0,3:2|0:0,0:0:0:0:
0,119,38969,2,0,P|71:113|103:49,1,150.000005722046,2|0,3:2|0:0,0:0:0:0:
103,49,40041,1,2,3:2:0:0:
208,95,40255,1,10,0:2:0:0:
255,37,40469,2,0,P|291:31|335:24,1,75.0000028610231,2|0,0:2|0:0,0:0:0:0:
473,1,41112,1,2,3:2:0:0:
473,1,41541,6,0,P|437:87|383:133,1,150.000005722046,2|0,3:2|0:0,0:0:0:0:
301,262,42827,2,0,P|362:219|435:203,1,150.000005722046,2|0,3:2|0:0,0:0:0:0:
446,114,44112,2,0,P|449:186|513:218,1,150.000005722046,2|0,3:2|0:0,0:0:0:0:
351,379,45398,2,0,P|348:354|345:329,1,50,2|0,3:2|0:0,0:0:0:0:
345,329,45827,1,2,3:2:0:0:
227,267,46041,2,0,P|230:291|232:316,1,50,10|0,0:2|0:0,0:0:0:0:
140,368,46469,1,0,3:0:0:0:
232,316,46684,2,0,P|132:322|32:333,1,200,2|0,1:2|3:0,0:0:0:0:
0,252,47969,6,0,P|17:237|34:213,1,50,2|0,3:2|0:0,0:0:0:0:
65,146,48398,1,2,3:2:0:0:
112,205,48612,2,0,P|144:242|186:269,1,100,10|0,0:2|0:0,0:0:0:0:
391,249,49255,6,0,P|397:214|411:165,1,75.0000028610231,2|0,1:2|0:0,0:0:0:0:
503,86,49902,2,0,P|471:106|426:101,1,75.0000028610231,2|0,3:2|0:0,0:0:0:0:
308,159,50549,2,0,P|302:124|288:75,1,75.0000028610231,2|0,1:2|0:0,0:0:0:0:
245,25,51197,2,0,P|213:4|168:10,1,75.0000028610231,2|0,3:2|0:0,0:0:0:0:
291,85,51844,2,0,P|366:120|440:94,1,150.000005722046,4|0,1:2|0:0,0:0:0:0:
427,103,53139,6,0,P|412:150|405:200,1,100,8|0,0:0|3:0,0:0:0:0:
511,384,53777,1,8,0:0:0:0:
511,384,53990,2,0,P|505:359|498:335,1,50,0|0,3:0|0:0,0:0:0:0:
440,277,54415,6,0,P|391:283|363:342,1,100,10|0,0:0|0:0,0:1:0:0:
343,219,55479,1,0,3:0:0:0:
246,197,55692,2,0,P|180:164|175:91,1,150.000005722046,10|0,0:0|3:0,0:1:0:0:
122,4,56756,1,0,3:0:0:0:
19,35,56968,2,0,P|29:83|36:133,1,100,10|0,0:0|0:0,0:1:0:0:
36,133,57620,1,0,3:0:0:0:
109,198,57837,2,0,P|112:173|117:148,1,50,0|0,3:0|0:0,0:0:0:0:
165,5,58272,2,0,P|171:54|178:111,1,100,8|0,0:0|3:0,0:0:0:0:
177,104,58914,1,0,3:0:0:0:
317,143,59129,1,8,0:0:0:0:
283,8,59343,1,8,0:0:0:0:
260,81,59557,6,2,B|278:149|230:238|247:308,1,225.000008583069,6|0,1:2|0:0,0:1:0:0:
512,106,62106,6,0,P|478:98|446:94,1,64.9999970245363,6|0,1:1|0:0,0:0:0:0:
300,69,62537,1,2,0:0:0:0:
386,17,62753,2,0,P|373:80|364:145,1,129.999994049073,2|0,0:0|0:0,0:0:0:0:
252,294,63400,2,0,P|220:302|188:306,1,64.9999970245363,10|0,1:2|0:0,0:0:0:0:
42,332,63832,1,2,0:0:0:0:
118,353,64048,2,0,P|116:325|108:282,1,64.9999970245363,2|0,0:2|0:0,0:0:0:0:
92,172,64480,1,0,3:0:0:0:
109,288,64695,6,0,P|182:248|191:127,1,194.999991073609,2|0,1:2|1:0,0:0:0:0:
352,67,65559,1,2,3:2:0:0:
450,92,65775,1,2,3:2:0:0:
421,189,65990,2,0,P|416:213|409:266,1,64.9999970245363,8|0,0:0|0:0,0:0:0:0:
378,335,66434,1,2,1:2:0:0:
305,356,66656,1,8,0:0:0:0:
253,296,66878,1,0,1:0:0:0:
325,281,67101,1,8,0:3:0:0:
182,368,67323,6,0,P|150:363|107:358,1,64.9999970245363,2|0,1:2|0:0,0:0:0:0:
101,225,67757,1,2,0:0:0:0:
9,306,67975,2,0,P|41:302|73:297,1,64.9999970245363,2|0,0:0|1:0,0:0:0:0:
147,287,68409,1,0,3:0:0:0:
284,270,68627,2,0,P|292:239|296:206,1,64.9999970245363,10|0,0:0|0:0,0:0:0:0:
138,166,69062,1,2,0:0:0:0:
209,89,69279,2,0,P|213:153|220:218,1,129.999994049073,2|0,0:0|0:0,0:0:0:0:
299,15,69931,6,0,P|382:62|409:153,1,194.999991073609,2|8,1:2|0:0,0:0:0:0:
498,220,70801,1,2,0:3:0:0:
438,306,71018,1,2,0:3:0:0:
341,242,71236,2,0,P|405:233|470:226,1,129.999994049073,8|2,0:0|0:0,0:0:0:0:
205,133,72105,5,2,3:2:0:0:
111,261,72323,1,2,3:2:0:0:
0,183,72540,2,2,B|47:165|206:221|279:198,1,259.999988098145,6|0,1:2|0:0,0:1:0:0:
257,202,73844,2,0,P|253:244|248:272,1,64.9999970245363,8|0,0:0|0:0,0:0:0:0:
98,157,74279,2,0,P|102:115|107:87,1,64.9999970245363,2|0,0:0|0:0,0:0:0:0:
174,51,74714,1,2,3:2:0:0:
174,51,74931,1,0,3:0:0:0:
314,114,75149,2,0,P|248:119|183:129,2,129.999994049073,2|0|0,1:2|0:0|0:0,0:0:0:0:
391,115,76236,5,2,0:0:0:0:
481,223,76453,1,10,0:0:0:0:
428,303,76670,2,0,P|423:335|421:367,1,64.9999970245363,2|0,0:0|0:0,0:0:0:0:
274,264,77105,2,0,P|278:296|280:328,1,64.9999970245363,2|0,1:2|3:0,0:0:0:0:
152,368,77540,1,10,0:0:0:0:
22,315,77757,6,2,B|101:300|223:349|282:327,1,259.999988098145,6|0,1:2|0:0,0:1:0:0:
477,174,79042,2,2,B|398:159|276:208|217:186,1,259.999988098145,6|0,1:2|0:0,0:1:0:0:
255,51,80375,2,0,P|258:26|263:2,2,50,6|0|0,0:2|0:0|0:0,0:0:0:0:
262,178,81665,2,0,P|258:154|253:129,2,50,2|0|0,0:2|0:0|0:0,0:0:0:0:
458,23,82955,6,0,P|432:130|368:179,1,187.500007152558,6|0,3:2|0:0,0:0:0:0:
300,140,84259,2,0,P|391:150|454:217,1,187.500007152558,2|0,3:2|0:0,0:0:0:0:
512,273,85531,2,0,P|480:319|453:386,1,125,2|0,3:2|0:0,0:0:0:0:
450,305,86854,6,0,P|400:298|351:288,1,100,0|0,3:0|0:0,0:0:0:0:
238,315,87487,1,0,3:0:0:0:
276,234,87699,1,0,3:0:0:0:
315,361,87910,1,0,3:0:0:0:
156,333,88121,6,0,P|116:363|68:373,1,100,6|0,1:2|0:0,0:0:0:0:
19,296,88763,1,0,3:2:0:0:
26,277,88978,1,0,3:2:0:0:
7,265,89192,1,0,3:2:0:0:
105,201,89406,2,0,P|145:231|193:241,1,100,10|0,0:0|0:0,0:0:0:0:
241,159,90049,1,0,3:0:0:0:
227,142,90263,1,0,3:0:0:0:
247,128,90478,1,0,3:0:0:0:
148,74,90692,2,0,P|108:104|60:114,1,100,2|0,1:2|0:0,0:0:0:0:
6,58,91335,2,0,P|3:33|2:8,2,50,0|0|0,3:0|3:0|3:0,3:0:0:0:
19,201,91978,5,10,0:0:0:0:
98,212,92192,2,0,P|157:220|218:233,1,100,2|0,0:0|0:0,0:0:0:0:
315,221,92835,1,2,3:2:0:0:
325,338,93049,1,0,3:0:0:0:
325,338,93156,1,0,3:0:0:0:
325,337,93263,6,0,P|374:345|415:372,1,100,2|0,1:0|0:0,0:0:0:0:
478,299,93906,1,0,3:0:0:0:
458,287,94120,1,0,3:0:0:0:
468,270,94335,1,0,3:0:0:0:
373,218,94549,2,0,P|323:225|282:252,1,100,10|0,0:0|0:0,0:0:0:0:
226,183,95192,1,0,3:0:0:0:
236,164,95406,1,0,3:0:0:0:
217,155,95620,1,0,3:0:0:0:
323,102,95835,2,0,P|372:110|413:137,1,100,2|0,1:2|0:0,0:0:0:0:
459,201,96478,2,0,P|483:206|508:207,2,50,0|0|0,3:0|3:0|3:0,3:0:0:0:
266,77,97120,6,0,P|262:47|256:17,1,59.9999981689454,10|0,0:0|0:0,0:0:0:0:
171,64,97549,1,2,0:0:0:0:
81,17,97763,2,0,P|75:46|71:76,1,59.9999981689454,2|0,0:0|0:0,0:0:0:0:
0,210,98192,5,0,3:0:0:0:
0,210,98299,1,0,3:0:0:0:
0,210,98406,2,0,P|73:240|88:292,1,119.999996337891,2|0,1:2|0:0,3:0:0:0:
103,350,99049,2,0,P|73:354|47:341,2,59.9999981689454,0|0|0,3:0|3:0|3:0,3:0:0:0:
317,213,99692,6,0,P|335:189|347:161,1,59.9999981689454,10|0,0:0|0:0,0:0:0:0:
254,263,100120,1,2,0:0:0:0:
328,289,100335,2,0,P|376:344|408:408,1,119.999996337891,2|0,0:0|0:0,0:0:0:0:
512,226,100978,6,0,P|452:233|393:242,1,119.999996337891,2|0,1:2|0:0,0:0:0:0:
158,270,101620,1,10,0:0:0:0:
122,168,101835,1,0,3:0:0:0:
235,187,102049,1,0,3:0:0:0:
235,187,102263,2,0,P|244:246|251:305,1,119.999996337891,2|0,1:2|0:0,0:0:0:0:
219,107,102906,1,10,0:0:0:0:
294,74,103120,2,0,P|299:41|304:15,1,59.9999981689454,2|0,0:3|0:0,0:0:0:0:
502,74,103549,6,0,P|456:78|396:132,1,119.999996337891,6|0,1:2|0:0,0:0:0:0:
378,231,104192,1,0,3:0:0:0:
368,196,104406,1,0,3:0:0:0:
335,208,104620,1,0,3:0:0:0:
461,275,104835,2,0,P|480:233|463:154,1,119.999996337891,10|0,0:0|0:0,0:0:0:0:
387,89,105478,1,0,3:0:0:0:
422,97,105692,1,0,3:0:0:0:
428,63,105906,1,0,3:0:0:0:
308,139,106120,2,0,P|334:176|411:201,1,119.999996337891,2|0,1:2|0:0,0:0:0:0:
512,140,106763,2,0,P|482:139|452:143,1,59.9999981689454,0|0,3:0|3:0,0:0:0:0:
401,202,107191,5,2,3:2:0:0:
477,281,107406,2,0,P|482:310|485:340,1,59.9999981689454,10|0,0:2|0:2,0:2:0:0:
409,328,107835,1,2,0:0:0:0:
343,373,108049,2,0,P|337:343|334:313,1,59.9999981689454,2|4,0:0|0:3,0:0:0:0:
245,256,108478,1,4,0:3:0:0:
136,309,108692,6,0,P|97:292|18:271,1,119.999996337891,2|0,1:2|0:0,0:0:0:0:
98,160,109335,1,0,3:0:0:0:
87,202,109549,1,0,3:0:0:0:
47,198,109763,1,0,3:0:0:0:
178,107,109978,2,0,P|182:149|229:304,1,179.999994506836,10|0,0:1|0:0,0:0:0:0:
131,265,110835,1,8,0:0:0:0:
34,294,111049,1,8,0:0:0:0:
2,195,111263,2,0,P|36:169|93:111,2,119.999996337891,2|0|0,1:1|0:0|0:0,0:0:0:0:
185,28,112549,6,0,P|214:29|244:34,1,59.9999981689454,10|0,0:0|0:0,0:0:0:0:
320,51,112978,1,2,3:2:0:0:
415,106,113192,1,10,0:0:0:0:
452,9,113406,1,0,3:0:0:0:
415,106,113620,5,0,3:0:0:0:
415,106,113728,1,0,3:0:0:0:
415,106,113835,2,0,P|405:172|458:221,1,119.999996337891,2|0,1:2|0:0,0:0:0:0:
493,264,114478,2,0,P|511:239|511:204,2,59.9999981689454,0|0|0,3:0|3:0|3:0,3:0:0:0:
296,373,115120,6,0,P|294:344|284:301,1,59.9999981689454,10|0,0:0|0:0,0:0:0:0:
270,238,115549,1,2,3:2:0:0:
186,294,115763,1,2,3:2:0:0:
186,294,115978,1,0,3:0:0:0:
186,294,116192,1,0,3:0:0:0:
126,204,116406,2,0,P|102:158|45:102,1,119.999996337891,2|0,1:1|0:0,0:0:0:0:
11,174,117049,1,10,0:0:0:0:
140,81,117263,1,8,0:0:0:0:
226,208,117692,6,0,P|279:221|344:226,1,100,2|8,1:1|0:0,0:0:0:0:
226,208,118339,1,10,0:3:0:0:
181,277,118555,2,0,P|156:270|99:262,1,75,4|0,0:3|0:0,0:0:0:0:
16,247,118986,6,0,P|40:340|134:380,1,200,6|0,1:2|0:0,0:0:0:0:
128,380,120271,2,0,P|136:343|142:306,2,75.0000028610231
0,298,121557,6,0,P|55:296|116:217,1,150.000005722046,2|0,1:0|0:0,0:0:0:0:
88,134,122613,1,0,3:0:0:0:
208,201,122824,2,0,P|250:156|389:162,1,200,2|0,1:0|0:0,0:0:0:0:
402,240,123907,1,0,3:0:0:0:
465,115,124123,2,0,P|496:76|509:29,2,100,2|0|0,1:0|0:0|0:0,0:0:0:0:
194,158,125423,6,0,P|173:143|157:124,1,50,10|0,0:0|0:0,0:0:0:0:
276,78,125848,2,0,P|277:102|273:127,1,50,2|0,3:2|0:0,0:0:0:0:
160,47,126274,2,0,P|182:35|207:31,1,50,2|0,3:2|0:0,0:0:0:0:
404,228,126699,2,2,P|316:228|250:201,1,150.000005722046,6|0,1:2|0:0,0:1:0:0:
258,206,127763,5,8,0:3:0:0:
239,76,127976,1,8,0:0:0:0:
239,76,128407,5,4,0:3:0:0:
207,144,128623,1,8,0:3:0:0:
162,203,128839,1,4,0:3:0:0:
99,242,129055,1,4,0:3:0:0:
0,157,129270,6,0,P|38:159|75:167,1,75.0000028610231,6|0,1:1|0:0,0:0:0:0:
99,242,129702,1,2,0:0:0:0:
193,291,129918,1,2,0:0:0:0:
133,375,130134,2,0,P|95:377|58:385,1,75.0000028610231,0|0,1:0|0:0,0:0:0:0:
340,245,130565,6,0,P|376:252|414:254,1,75.0000028610231,10|0,0:0|0:0,0:0:0:0:
458,189,130997,1,2,3:2:0:0:
412,97,131213,1,2,3:2:0:0:
306,141,131429,1,0,3:0:0:0:
412,97,131645,5,8,0:3:0:0:
415,66,131752,1,8,0:3:0:0:
420,37,131860,2,2,P|496:86|484:211,1,225.000008583069,2|0,1:2|0:0,0:1:0:0:
340,315,132735,1,2,0:0:0:0:
267,231,132954,1,2,3:2:0:0:
134,349,133173,6,0,P|80:331|24:325,1,112.500004291535,10|0,0:1|0:0,0:0:0:0:
0,251,133611,2,0,P|42:213|74:168,1,112.500004291535,2|0,0:1|0:0,0:0:0:0:
151,183,134049,2,0,P|162:238|185:289,1,112.500004291535,2|0,3:1|0:0,0:0:0:0:
269,362,134487,6,0,P|305:353|342:350,1,75.0000028610231,2|0,1:2|0:0,0:0:0:0:
418,367,134920,1,2,0:0:0:0:
498,295,135136,1,2,0:0:0:0:
394,259,135353,2,0,P|385:222|382:185,1,75.0000028610231,0|0,1:0|0:0,0:0:0:0:
239,88,135786,6,0,P|201:84|165:76,1,75.0000028610231,10|0,0:0|0:0,0:0:0:0:
93,43,136219,1,2,0:0:0:0:
0,122,136436,1,2,0:0:0:0:
114,167,136653,1,0,3:0:0:0:
130,318,136869,5,0,3:0:0:0:
134,347,136977,1,0,3:0:0:0:
136,376,137086,2,2,P|46:324|48:210,1,225.000008583069,2|0,1:2|0:0,0:1:0:0:
151,235,137952,1,2,3:2:0:0:
180,126,138169,1,2,3:2:0:0:
217,285,138385,6,0,P|249:311|335:297,1,112.500004291535,10|0,0:1|0:0,0:0:0:0:
354,239,138822,2,0,P|386:213|472:227,1,112.500004291535,2|0,0:1|0:0,0:0:0:0:
512,267,139260,1,2,1:1:0:0:
465,358,139479,1,2,0:2:0:0:
274,241,139698,6,2,B|192:203|72:367|-13:334,1,300.000011444092,6|0,1:2|0:0,0:1:0:0:
0,337,141012,2,0,P|2:299|10:263,1,75.0000028610231,8|0,0:0|0:0,0:0:0:0:
79,161,141440,2,0,P|87:197|89:234,1,75.0000028610231,2|0,0:0|0:0,0:0:0:0:
138,305,141869,1,0,1:2:0:0:
138,305,142083,1,8,0:0:0:0:
276,247,142297,6,0,P|323:229|371:219,1,75.0000028610231,2|0,1:0|0:0,0:0:0:0:
266,159,142736,2,0,P|297:119|334:87,1,75.0000028610231,2|0,0:1|0:0,0:0:0:0:
179,162,143176,2,0,P|186:112|202:65,1,75.0000028610231,2|0,0:1|0:0,0:0:0:0:
376,38,143615,5,10,0:0:0:0:
499,93,143832,2,0,P|462:100|424:103,1,75.0000028610231,2|0,0:0|0:0,0:0:0:0:
419,265,144267,2,0,P|382:257|344:254,1,75.0000028610231,2|0,0:0|1:0,0:0:0:0:
457,188,144701,1,10,0:0:0:0:
274,93,144919,6,2,B|192:55|72:219|-13:186,1,300.000011444092,6|0,1:2|0:0,0:1:0:0:
238,266,146223,2,2,B|320:228|440:392|525:359,1,300.000011444092,10|0,0:0|0:0,0:1:0:0:
182,384,147528,6,0,P|179:342|167:303,1,75.0000028610231,6|0,1:2|0:0,0:0:0:0:
328,224,147962,2,0,P|330:265|342:304,1,75.0000028610231,2|8,3:2|0:0,0:0:0:0:
250,194,148397,1,2,3:2:0:0:
269,96,148615,1,0,3:0:0:0:
177,232,148832,5,8,0:0:0:0:
50,204,149049,1,8,0:0:0:0:
144,105,149267,1,0,1:0:0:0:
73,196,149484,1,8,0:0:0:0:
47,107,149701,1,8,0:3:0:0:
94,188,149919,1,4,0:3:0:0:
31,358,150136,6,0,P|22:321|10:285,1,75.0000028610231,6|0,1:2|0:0,0:0:0:0:
96,304,150571,1,2,0:0:0:0:
232,336,150788,1,2,3:2:0:0:
191,218,151006,2,0,P|179:253|170:290,1,75.0000028610231,0|0,3:0|0:0,0:0:0:0:
402,270,151441,6,0,P|437:258|474:249,1,75.0000028610231,10|0,0:0|0:0,0:0:0:0:
410,186,151875,1,2,0:0:0:0:
274,150,152093,1,2,3:2:0:0:
364,99,152310,1,0,3:0:0:0:
283,237,152528,5,8,0:3:0:0:
256,229,152636,1,8,0:3:0:0:
221,220,152745,2,2,P|100:241|-8:268,1,225.000008583069,2|0,1:0|0:0,0:1:0:0:
48,362,153614,1,2,3:2:0:0:
134,311,153832,1,2,3:2:0:0:
20,136,154049,6,0,P|32:82|106:52,1,112.500004291535,10|0,0:1|0:0,0:0:0:0:
192,178,154484,2,0,P|139:194|76:145,1,112.500004291535,2|0,0:1|0:0,0:0:0:0:
142,9,154919,2,0,P|182:46|171:125,1,112.500004291535,2|0,3:1|0:0,0:0:0:0:
309,121,155354,6,0,P|354:116|395:107,1,75.0000028610231,2|0,1:2|0:0,0:0:0:0:
450,70,155788,1,2,0:0:0:0:
512,224,156006,2,0,P|467:229|426:238,1,75.0000028610231,2|0,0:0|3:0,0:0:0:0:
372,192,156441,1,2,3:2:0:0:
307,323,156658,2,0,P|302:278|293:237,1,75.0000028610231,10|0,0:0|0:0,0:0:0:0:
383,334,157093,1,2,0:0:0:0:
259,384,157310,1,2,0:0:0:0:
201,277,157528,1,0,3:0:0:0:
273,172,157745,5,0,3:0:0:0:
267,152,157854,1,0,3:0:0:0:
258,129,157962,2,2,P|362:106|481:72,1,225.000008583069,2|0,1:2|0:0,0:1:0:0:
425,0,158832,1,2,0:0:0:0:
337,33,159049,1,2,0:0:0:0:
450,162,159267,6,0,P|461:217|465:273,1,112.500004291535,10|0,0:1|0:0,0:0:0:0:
399,360,159701,2,0,P|387:304|383:248,1,112.500004291535,2|0,0:1|0:0,0:0:0:0:
450,162,160136,1,2,1:1:0:0:
341,118,160354,1,2,0:0:0:0:
227,240,160571,6,2,B|190:135|62:120|23:14,1,300.000011444092,6|0,1:2|1:1,0:1:0:0:
26,22,161875,2,0,P|63:21|100:24,1,75.0000028610231,8|0,0:0|0:0,0:0:0:0:
199,102,162310,2,0,P|161:102|124:99,1,75.0000028610231,2|0,3:2|3:0,3:0:0:0:
43,186,162745,1,2,0:0:0:0:
139,267,162962,5,0,3:0:0:0:
139,267,163071,1,0,3:0:0:0:
138,267,163180,2,0,P|157:311|168:363,1,75.0000028610231,2|0,1:1|0:0,0:0:0:0:
41,329,163614,2,0,P|79:357|114:397,1,75.0000028610231,2|0,0:1|0:0,0:0:0:0:
250,241,164049,2,0,P|244:288|227:339,1,75.0000028610231,2|0,0:1|0:0,0:0:0:0:
403,373,164484,5,10,0:0:0:0:
502,288,164701,2,0,P|465:296|428:299,1,75.0000028610231,2|0,0:0|0:0,0:0:0:0:
426,149,165136,2,0,P|389:140|352:137,1,75.0000028610231,2|0,0:0|1:0,0:0:0:0:
399,225,165571,1,2,0:0:0:0:
210,334,165788,6,2,B|173:229|45:214|6:108,1,300.000011444092,6|0,1:2|0:0,0:1:0:0:
300,268,167093,2,2,B|337:163|465:148|504:42,1,300.000011444092,10|0,0:0|3:0,0:1:0:0:
368,79,168180,1,0,1:0:0:0:
254,0,168397,2,0,P|248:37|247:74,1,75.0000028610231,6|0,1:1|0:0,0:0:0:0:
209,148,168832,1,2,1:0:0:0:
276,224,169049,1,8,0:0:0:0:
241,296,169267,2,0,P|246:333|247:370,1,75.0000028610231,2|0,1:0|0:0,0:0:0:0:
388,227,169701,6,0,P|428:216|493:214,1,75.0000028610231,14|0,0:1|0:0,0:0:0:0:
406,356,170132,2,0,P|368:351|332:341,1,75.0000028610231,10|0,0:1|0:0,0:0:0:0:
289,232,170564,1,10,0:1:0:0:
406,356,170780,1,8,0:0:0:0:
233,384,170995,6,0,P|194:381|139:253,1,187.500007152558,6|0,1:1|0:0,0:0:0:0:
134,262,171643,1,8,0:0:0:0:
43,185,171859,2,0,P|48:222|53:259,1,75.0000028610231,0|0,1:0|0:0,0:0:0:0:
311,356,172290,6,0,P|349:280|482:216,1,225.000008583069,10|0,0:0|1:0,0:0:0:0:
512,279,173154,1,8,0:0:0:0:
301,204,173370,1,8,0:0:0:0:
301,204,173477,1,8,0:0:0:0:
300,203,173585,2,0,P|230:140|221:65,1,162.499992561341,2|0,1:2|0:0,0:0:0:0:
279,25,174223,2,0,P|336:40|378:102,1,129.999994049073,0|0,1:0|0:0,0:0:0:0:
174,211,174861,2,0,P|116:268|47:260,2,129.999994049073,10|0|0,0:0|3:0|3:0,0:0:0:0:
16,41,176138,6,0,P|50:105|131:117,1,150.000005722046,2|0,1:0|0:0,0:0:0:0:
204,162,176785,1,0,3:0:0:0:
275,87,177001,1,0,3:0:0:0:
181,47,177217,1,0,3:0:0:0:
115,268,177432,2,0,P|197:269|289:161,1,225.000008583069,10|0,0:0|0:0,0:0:0:0:
275,87,178296,1,0,3:0:0:0:
446,187,178512,1,0,3:0:0:0:
446,187,178620,1,0,3:0:0:0:
446,187,178727,2,0,P|456:108|380:50,1,162.499992561341,2|0,1:0|0:0,0:0:0:0:
275,87,179375,2,0,P|313:135|387:127,1,125,2|0,1:0|0:0,0:0:0:0:
437,1,180022,2,0,P|412:17|403:67,2,69.9999978637696,10|0|0,0:1|3:0|1:0,0:0:0:0:
364,365,181289,6,0,P|402:252|518:96,1,300.000011444092,2|0,1:0|0:0,0:0:0:0:
339,173,182360,1,0,3:0:0:0:
358,26,182574,2,0,P|356:100|339:173,1,150.000005722046,10|0,0:1|0:0,0:0:0:0:
259,191,183217,1,0,3:0:0:0:
277,116,183431,1,0,3:0:0:0:
322,246,183646,1,0,3:0:0:0:
267,339,183860,2,0,P|251:276|267:166,1,150.000005722046,2|0,1:1|0:0,0:0:0:0:
277,116,184503,1,0,1:0:0:0:
134,81,184717,2,0,P|160:112|176:147,1,75.0000028610231,0|0,1:0|0:0,0:0:0:0:
124,384,185146,2,0,P|83:354|56:311,2,100,10|0|8,0:1|3:0|0:0,0:0:0:0:
142,297,186217,1,0,1:0:0:0:
8,200,186431,6,0,P|31:155|69:6,1,200,2|0,1:0|0:0,0:0:0:0:
42,280,187717,2,0,P|144:198|315:116,1,300.000011444092,10|0,0:1|3:0,0:0:0:0:
393,129,188788,1,0,3:0:0:0:
262,251,189003,2,0,P|336:239|426:199,1,162.499992561341,2|0,1:1|0:0,0:0:0:0:
393,129,189646,2,0,P|422:103|493:23,1,129.999994049073,0|0,1:0|0:0,0:0:0:0:
358,327,190288,2,0,P|417:344|462:367,2,100,14|0|0,0:1|0:0|0:0,0:0:0:0:
267,368,191360,1,0,0:0:0:0:
149,242,191574,6,0,P|79:269|28:323,1,150.000005722046,4|0,1:1|0:0,0:0:0:0:
28,322,192868,2,0,P|61:321|109:316,1,75.0000028610231,8|0,0:0|0:0,0:0:0:0:
236,373,193516,2,0,P|198:369|161:367,1,75.0000028610231,0|0,3:0|0:0,0:0:0:0:
72,232,194163,6,0,P|53:189|9:155,1,100,2|0,3:2|0:0,0:0:0:0:
12,156,195435,2,0,P|86:137|139:76,1,150.000005722046,10|0,0:0|0:0,0:0:0:0:
134,84,196725,2,0,P|209:171|457:163,1,375.000014305115,2|0,3:2|0:0,0:0:0:0:
451,166,199300,2,0,P|428:206|442:264,1,100,2|0,3:2|0:0,0:0:0:0:
414,347,200585,5,8,0:0:0:0:
414,347,200800,1,8,0:0:0:0:
329,324,201015,1,0,3:0:0:0:
301,366,201229,1,0,0:0:0:0:
264,347,201443,1,0,3:0:0:0:
264,347,201872,6,0,P|261:323|242:248,1,100,0|0,1:0|0:0,0:0:0:0:
115,217,203157,2,0,P|101:265|93:314,1,100,8|0,0:0|0:0,0:0:0:0:
126,384,204443,6,0,P|172:366|197:316,1,100,2|0,1:0|0:0,0:0:0:0:
278,359,205514,1,0,3:0:0:0:
382,303,205729,2,0,P|336:287|294:193,1,150.000005722046,10|0,0:1|0:0,0:0:0:0:
192,133,206800,1,0,3:0:0:0:
252,2,207014,2,0,B|258:29|266:107,2,100,2|0|0,1:1|0:0|0:0,0:0:0:0:
338,147,208300,6,0,P|323:166|307:190,1,50,10|0,0:2|0:0,0:0:0:0:
168,211,208729,2,0,P|188:224|206:242,1,50,2|0,0:2|0:0,0:0:0:0:
272,330,209157,2,0,P|268:354|266:379,1,50,2|0,0:2|0:0,0:0:0:0:
233,150,209586,2,2,P|240:75|251:1,1,150,6|8,1:2|0:0,0:1:0:0:
506,177,227789,6,0,P|435:201|381:252,1,150.000005722046,2|0,3:2|0:0,0:0:0:0:
292,311,229093,2,0,P|340:324|379:356,1,100,2|0,3:2|0:0,0:0:0:0:
456,384,230416,2,0,P|478:373|493:353,1,50,2|0,3:2|0:0,0:0:0:0:
465,279,230847,2,0,P|440:274|417:282,1,50,0|0,1:0|0:0,0:0:0:0:
379,356,231279,1,0,1:0:0:0:
465,279,231495,1,0,1:0:0:0:
323,186,231710,1,8,0:0:0:0:
323,186,232142,5,8,0:3:0:0:
305,285,232358,1,8,0:0:0:0:
400,168,232574,1,4,0:3:0:0:
247,227,232790,1,4,0:3:0:0:
135,84,233005,6,0,P|95:75|56:69,1,80,6|0,1:1|0:0,0:0:0:0:
1,127,233442,1,2,0:0:0:0:
141,200,233661,1,2,0:0:0:0:
59,231,233880,2,0,P|64:191|73:152,1,80,0|0,3:0|0:0,0:0:0:0:
352,274,234318,6,0,P|359:320|367:361,1,80,10|0,0:0|0:0,0:0:0:0:
438,373,234756,1,2,0:0:0:0:
481,233,234975,1,2,0:0:0:0:
512,318,235194,1,0,3:0:0:0:
352,274,235413,5,8,0:3:0:0:
324,267,235523,1,8,0:3:0:0:
298,261,235632,2,2,P|189:257|95:362,1,240,2|0,1:2|0:0,0:1:0:0:
23,256,236498,1,2,3:2:0:0:
116,191,236715,1,2,1:2:0:0:
50,8,236931,6,0,P|58:67|60:127,1,120,8|0,0:0|0:0,0:0:0:0:
116,191,237364,1,2,1:2:0:0:
188,153,237581,1,8,0:0:0:0:
149,79,237798,1,0,1:0:0:0:
267,174,238014,1,0,1:0:0:0:
342,46,238231,6,0,P|381:39|421:36,1,80,2|0,1:2|0:0,0:0:0:0:
278,94,238668,1,2,0:0:0:0:
383,119,238887,1,2,0:0:0:0:
354,225,239106,1,0,3:0:0:0:
354,225,239325,1,2,1:2:0:0:
399,361,239544,2,0,P|408:312|419:273,1,80,10|0,0:0|0:0,0:0:0:0:
494,254,239975,1,2,0:0:0:0:
354,225,240191,1,2,0:0:0:0:
472,145,240407,2,0,P|463:96|452:57,1,80,0|0,1:0|0:0,0:0:0:0:
172,24,240838,6,2,P|252:108|369:107,1,240,2|0,1:2|0:0,0:1:0:0:
321,220,241713,1,2,0:0:0:0:
411,278,241932,1,2,0:0:0:0:
264,384,242151,6,0,P|259:324|251:264,1,120,10|0,0:1|0:0,0:0:0:0:
106,236,242582,2,0,P|97:295|93:355,1,120,2|0,0:1|0:0,0:0:0:0:
176,315,243014,1,10,0:1:0:0:
18,291,243230,1,6,0:3:0:0:
101,154,243445,6,2,B|170:131|341:256|412:231,1,320,6|0,1:2|0:0,0:1:0:0:
406,232,244749,2,0,P|405:193|399:153,1,80,8|0,0:0|0:0,0:0:0:0:
493,212,245184,2,0,P|486:251|486:291,1,80,2|0,0:0|0:0,0:0:0:0:
355,379,245618,1,2,1:2:0:0:
355,379,246053,6,0,P|320:358|278:344,1,80,2|0,1:1|0:0,0:0:0:0:
384,277,246488,2,0,P|364:241|334:208,1,80,2|0,0:1|0:0,0:0:0:0:
498,300,246923,2,0,P|498:259|489:215,1,80,2|0,0:1|0:0,0:0:0:0:
306,0,247358,5,10,0:0:0:0:
206,56,247575,2,0,P|166:63|126:65,1,80,2|0,0:0|0:0,0:0:0:0:
284,121,248010,2,0,P|323:128|363:130,1,80,2|0,0:0|1:0,0:0:0:0:
253,230,248445,1,10,0:0:0:0:
101,154,248662,6,2,B|170:131|341:256|412:231,1,320,6|0,1:2|0:0,0:1:0:0:
411,154,249966,2,2,B|342:131|171:256|100:231,1,320,10|0,0:0|0:0,0:1:0:0:
252,384,251271,6,0,P|254:339|268:273,1,100,6|0,1:2|0:0,0:0:0:0:
186,272,251918,1,8,0:0:0:0:
129,325,252134,1,0,3:0:0:0:
129,325,252350,1,0,3:0:0:0:
12,287,252565,2,0,P|6:253|-4:223,1,50,8|0,0:0|0:0,0:0:0:0:
101,187,253002,2,0,P|89:219|83:256,1,50,8|0,0:3|0:0,0:0:0:0:
49,374,253440,1,0,3:0:0:0:
49,374,253878,6,0,P|88:332|131:318,1,100,6|0,3:1|0:0,0:0:0:0:
210,361,255168,1,2,3:2:0:0:
298,332,256458,2,0,P|339:319|363:284,1,80,2|0,3:2|0:0,0:0:0:0:
452,288,257734,2,0,P|449:258|432:234,1,59.9999981689454,2|0,3:2|0:0,0:0:0:0:
466,150,259047,6,2,P|389:156|316:168,1,150,2|0,3:2|0:0,0:1:0:0:
223,189,261582,2,0,P|189:184|159:151,1,80,2|0,3:2|0:0,0:0:0:0:
216,84,262895,2,0,P|224:61|223:34,1,50,2|2,3:0|0:0,0:0:0:0:
135,4,263537,2,0,P|134:28|142:52,1,50,2|0,0:0|0:0,0:0:0:0:
216,84,264180,6,0,P|260:75|321:66,1,100,2|0,3:2|0:0,0:0:0:0:
411,62,265466,1,2,0:0:0:0:
485,125,266733,2,0,P|491:167|433:219,1,120,2|0,3:2|3:0,0:1:0:0:
416,304,268465,2,2,P|388:297|364:247,1,75.0000028610231,2|0,0:0|0:0,0:1:0:0:
278,243,269322,2,2,P|291:169|298:94,1,150,2|0,3:2|3:0,0:1:0:0:
203,7,271903,2,2,P|206:56|217:105,1,100,2|0,3:2|0:0,0:1:0:0:
302,143,273188,6,0,P|291:187|289:211,1,50,2|0,3:3|0:0,0:0:0:0:
214,230,273656,2,0,P|225:274|227:298,1,50,2|0,0:3|0:0,0:0:0:0:
260,361,274164,1,2,0:3:0:0:
260,361,274690,5,6,3:2:0:0:
