osu file format v14

[General]
AudioFilename: audio.mp3
AudioLeadIn: 0
PreviewTime: 26378
Countdown: 0
SampleSet: Soft
StackLeniency: 0.7
Mode: 0
LetterboxInBreaks: 0
WidescreenStoryboard: 0

[Editor]
DistanceSpacing: 1.1
BeatDivisor: 4
GridSize: 32
TimelineZoom: 1.2

[Metadata]
Title:CALL ME, BEEP ME! (The KIM POSSIBLE Song) (Cut Ver.)
TitleUnicode:CALL ME, BEEP ME! (The KIM POSSIBLE Song) (Cut Ver.)
Artist:Christina Milian
ArtistUnicode:Christina Milian
Creator:Seolv
Version:What's the Sitch?
Source:Kim Possible
Tags:english pop r&b cartoon disney channel opening theme short version tv size christy carlson romano milan lukas [_l_u_k_a_s_] paradogi sylas thekoala qiyana dylbyl dyl-byl aistre alphabet venax
BeatmapID:2899188
BeatmapSetID:1405908

[Difficulty]
HPDrainRate:5.7
CircleSize:4.2
OverallDifficulty:9
ApproachRate:9.6
SliderMultiplier:3.59999990463257
SliderTickRate:1

[Events]
//Background and Video events
0,0,"thumb-1920-879128.png",0,0
//Break Periods
//Storyboard Layer 0 (Background)
//Storyboard Layer 1 (Fail)
//Storyboard Layer 2 (Pass)
//Storyboard Layer 3 (Foreground)
//Storyboard Layer 4 (Overlay)
//Storyboard Sound Samples

[TimingPoints]
2025,500,4,2,1,80,1,0
2400,-100,4,2,1,5,0,0
2525,-100,4,2,1,80,0,0
2900,-100,4,2,1,5,0,0
3025,-100,4,2,1,80,0,0
3150,-100,4,2,1,5,0,0
3275,-100,4,2,1,80,0,0
3650,-100,4,2,1,5,0,0
3775,-100,4,2,1,80,0,0
3900,-100,4,2,1,5,0,0
4025,-66.6666666666667,4,2,1,80,0,0
4275,-66.6666666666667,4,2,1,60,0,0
4525,-133.333333333333,4,2,1,60,0,0
4775,-133.333333333333,4,2,1,5,0,0
4900,-133.333333333333,4,2,1,60,0,0
5900,-133.333333333333,4,2,1,5,0,0
6025,-133.333333333333,4,2,1,60,0,0
6150,-133.333333333333,4,2,1,5,0,0
6275,-133.333333333333,4,2,1,60,0,0
6400,-133.333333333333,4,2,1,5,0,0
6525,-133.333333333333,4,2,1,60,0,0
6775,-133.333333333333,4,2,1,5,0,0
6900,-133.333333333333,4,2,1,60,0,0
7900,-133.333333333333,4,2,1,5,0,0
8025,-133.333333333333,4,2,1,60,0,0
8150,-133.333333333333,4,2,1,5,0,0
8275,-133.333333333333,4,2,1,60,0,0
8400,-133.333333333333,4,2,1,5,0,0
8525,-133.333333333333,4,2,1,60,0,0
8775,-133.333333333333,4,2,1,5,0,0
8900,-133.333333333333,4,2,1,60,0,0
9900,-133.333333333333,4,2,1,5,0,0
10025,-100,4,2,1,60,0,0
10400,-100,4,2,1,5,0,0
10525,-100,4,2,1,60,0,0
10900,-100,4,2,1,5,0,0
11025,-83.3333333333333,4,2,1,60,0,0
11149,-83.3333333333333,4,2,1,5,0,0
11275,-83.3333333333333,4,2,1,60,0,0
11399,-83.3333333333333,4,2,1,5,0,0
11525,-83.3333333333333,4,2,1,60,0,0
12025,-66.6666666666667,4,2,1,60,0,0
12525,-133.333333333333,4,2,1,60,0,0
12775,-133.333333333333,4,2,1,5,0,0
12900,-133.333333333333,4,2,1,60,0,0
13900,-133.333333333333,4,2,1,5,0,0
14025,-133.333333333333,4,2,1,60,0,0
14150,-133.333333333333,4,2,1,5,0,0
14275,-133.333333333333,4,2,1,60,0,0
14400,-133.333333333333,4,2,1,5,0,0
14525,-133.333333333333,4,2,1,60,0,0
14775,-133.333333333333,4,2,1,5,0,0
14900,-133.333333333333,4,2,1,60,0,0
15900,-133.333333333333,4,2,1,5,0,0
16025,-133.333333333333,4,2,1,60,0,0
16150,-133.333333333333,4,2,1,5,0,0
16275,-133.333333333333,4,2,1,60,0,0
17900,-133.333333333333,4,2,1,5,0,0
18025,-133.333333333333,4,2,1,60,0,0
18275,-133.333333333333,4,2,1,5,0,0
18400,-133.333333333333,4,2,1,60,0,0
18525,-66.6666666666667,4,2,1,60,0,0
18712,-66.6666666666667,4,2,1,5,0,0
18775,-66.6666666666667,4,2,1,60,0,0
19025,-100,4,2,1,60,0,0
19275,-100,4,2,1,5,0,0
19400,-100,4,2,1,60,0,0
19650,-100,4,2,1,5,0,0
19775,-100,4,2,1,60,0,0
19900,-100,4,2,1,5,0,0
20025,-66.6666666666667,4,2,1,70,0,0
20212,-66.6666666666667,4,2,1,5,0,0
20275,-66.6666666666667,4,2,1,70,0,0
20525,-100,4,2,1,70,0,0
20650,-100,4,2,1,5,0,0
20775,-100,4,2,1,70,0,0
21150,-100,4,2,1,5,0,0
21275,-100,4,2,1,70,0,0
21400,-100,4,2,1,5,0,0
21525,-100,4,2,1,70,0,0
21775,-66.6666666666667,4,2,1,70,0,0
21962,-66.6666666666667,4,2,1,5,0,0
22025,-66.6666666666667,4,2,1,70,0,0
22275,-100,4,2,1,70,0,0
22400,-100,4,2,1,5,0,0
22525,-100,4,2,1,70,0,0
22962,-100,4,2,1,5,0,0
23025,-100,4,2,1,70,0,0
23150,-100,4,2,1,5,0,0
23275,-100,4,2,1,70,0,0
23400,-100,4,2,1,5,0,0
23525,-100,4,2,1,70,0,0
23775,-100,4,2,1,80,0,0
24150,-100,4,2,1,5,0,0
24275,-100,4,2,1,80,0,0
24400,-100,4,2,1,5,0,0
24525,-100,4,2,1,80,0,0
24900,-100,4,2,1,5,0,0
25025,-100,4,2,1,80,0,0
25150,-100,4,2,1,5,0,0
25275,-100,4,2,1,80,0,0
25400,-100,4,2,1,5,0,0
25525,-100,4,2,1,80,0,0
26525,-1000,4,2,1,60,0,0
27899,-1000,4,2,1,5,0,0
28025,-58.8235294117647,4,2,1,90,0,0
28212,-58.8235294117647,4,2,1,5,0,0
28275,-58.8235294117647,4,2,1,90,0,0
28400,-58.8235294117647,4,2,1,5,0,0
28525,-58.8235294117647,4,2,1,90,0,0
28712,-58.8235294117647,4,2,1,5,0,0
28775,-58.8235294117647,4,2,1,90,0,0
28900,-58.8235294117647,4,2,1,5,0,0
29025,-58.8235294117647,4,2,1,90,0,0
29712,-58.8235294117647,4,2,1,5,0,0
29775,-58.8235294117647,4,2,1,90,0,0
29900,-58.8235294117647,4,2,1,5,0,0
30025,-58.8235294117647,4,2,1,90,0,0
30650,-58.8235294117647,4,2,1,5,0,0
30775,-58.8235294117647,4,2,1,90,0,0
30900,-58.8235294117647,4,2,1,5,0,0
31025,-58.8235294117647,4,2,1,90,0,0
31212,-58.8235294117647,4,2,1,5,0,0
31275,-58.8235294117647,4,2,1,90,0,0
31400,-58.8235294117647,4,2,1,5,0,0
31525,-58.8235294117647,4,2,1,90,0,0
31650,-58.8235294117647,4,2,1,5,0,0
31775,-58.8235294117647,4,2,1,90,0,0
32400,-58.8235294117647,4,2,1,5,0,0
32525,-100,4,2,1,90,0,0
32650,-100,4,2,1,5,0,0
32775,-100,4,2,1,90,0,0
32900,-100,4,2,1,5,0,0
33025,-100,4,2,1,90,0,0
33150,-100,4,2,1,5,0,0
33275,-100,4,2,1,90,0,0
33400,-100,4,2,1,5,0,0
33525,-66.6666666666667,4,2,1,90,0,0
33712,-66.6666666666667,4,2,1,5,0,0
33775,-66.6666666666667,4,2,1,90,0,0
33900,-66.6666666666667,4,2,1,5,0,0
34025,-66.6666666666667,4,2,1,90,0,0
34275,-66.6666666666667,4,2,1,80,0,0
35212,-66.6666666666667,4,2,1,5,0,0
35400,-66.6666666666667,4,2,1,80,0,0
35587,-66.6666666666667,4,2,1,5,0,0
35775,-133.333333333333,4,2,1,80,0,0
35900,-133.333333333333,4,2,1,5,0,0
36025,-133.333333333333,4,2,1,90,0,0
36650,-133.333333333333,4,2,1,5,0,0
36775,-133.333333333333,4,2,1,90,0,0
36900,-133.333333333333,4,2,1,5,0,0
37025,-58.8235294117647,4,2,1,90,0,0
37212,-58.8235294117647,4,2,1,5,0,0
37275,-66.6666666666667,4,2,1,90,0,0
37462,-66.6666666666667,4,2,1,5,0,0
37525,-55.5555555555556,4,2,1,90,0,0
38525,-58.8235294117647,4,2,1,90,0,0
38712,-58.8235294117647,4,2,1,5,0,0
38775,-66.6666666666667,4,2,1,90,0,0
38962,-66.6666666666667,4,2,1,5,0,0
39025,-55.5555555555556,4,2,1,90,0,0
39212,-55.5555555555556,4,2,1,5,0,0
39275,-55.5555555555556,4,2,1,90,0,0
39462,-55.5555555555556,4,2,1,5,0,0
39525,-55.5555555555556,4,2,1,90,0,0
39712,-55.5555555555556,4,2,1,5,0,0
39775,-55.5555555555556,4,2,1,90,0,0
40149,-55.5555555555556,4,2,1,5,0,0
40275,-55.5555555555556,4,2,1,90,0,0
40525,-66.6666666666667,4,2,1,90,0,0
41212,-66.6666666666667,4,2,1,5,0,0
41275,-66.6666666666667,4,2,1,90,0,0
41900,-66.6666666666667,4,2,1,5,0,0
42025,-66.6666666666667,4,2,1,90,0,0
42275,-66.6666666666667,4,2,1,60,0,0
43525,-133.333333333333,4,2,1,60,0,0
43650,-133.333333333333,4,2,1,5,0,0
43775,-133.333333333333,4,2,1,60,0,0
43900,-133.333333333333,4,2,1,5,0,0
44025,-66.6666666666667,4,2,1,80,0,0
44150,-66.6666666666667,4,2,1,5,0,0
44275,-66.6666666666667,4,2,1,80,0,0
44400,-66.6666666666667,4,2,1,5,0,0
44525,-66.6666666666667,4,2,1,80,0,0
44837,-66.6666666666667,4,2,1,5,0,0
44900,-66.6666666666667,4,2,1,80,0,0
46400,-66.6666666666667,4,2,1,5,0,0
46525,-66.6666666666667,4,2,1,80,0,0
48087,-66.6666666666667,4,2,1,5,0,0
48275,-66.6666666666667,4,2,1,60,0,0
49212,-133.333333333333,4,2,1,60,0,0
49900,-133.333333333333,4,2,1,5,0,0
50025,-133.333333333333,4,2,1,60,0,0
50150,-133.333333333333,4,2,1,5,0,0
50275,-133.333333333333,4,2,1,60,0,0
50400,-133.333333333333,4,2,1,5,0,0
50525,-133.333333333333,4,2,1,60,0,0
51900,-133.333333333333,4,2,1,5,0,0
52025,-133.333333333333,4,2,1,60,0,0
56025,-66.6666666666667,4,2,1,60,0,0
56212,-66.6666666666667,4,2,1,5,0,0
56275,-133.333333333333,4,2,1,60,0,0
59150,-133.333333333333,4,2,1,5,0,0
59275,-133.333333333333,4,2,1,60,0,0
59400,-133.333333333333,4,2,1,5,0,0
59525,-133.333333333333,4,2,1,60,0,0
61150,-133.333333333333,4,2,1,5,0,0
61275,-133.333333333333,4,2,1,60,0,0
63650,-133.333333333333,4,2,1,5,0,0
63775,-133.333333333333,4,2,1,60,0,0
63900,-133.333333333333,4,2,1,5,0,0
64025,-66.6666666666667,4,2,1,70,0,0
64212,-66.6666666666667,4,2,1,5,0,0
64275,-66.6666666666667,4,2,1,70,0,0
64525,-100,4,2,1,70,0,0
64650,-100,4,2,1,5,0,0
64775,-100,4,2,1,70,0,0
65150,-100,4,2,1,5,0,0
65275,-100,4,2,1,70,0,0
65400,-100,4,2,1,5,0,0
65525,-100,4,2,1,70,0,0
65775,-66.6666666666667,4,2,1,70,0,0
65962,-66.6666666666667,4,2,1,5,0,0
66025,-66.6666666666667,4,2,1,70,0,0
66275,-100,4,2,1,70,0,0
66400,-100,4,2,1,5,0,0
66525,-100,4,2,1,70,0,0
66962,-100,4,2,1,5,0,0
67025,-100,4,2,1,70,0,0
67150,-100,4,2,1,5,0,0
67275,-100,4,2,1,70,0,0
67400,-100,4,2,1,5,0,0
67525,-100,4,2,1,70,0,0
67775,-100,4,2,1,80,0,0
68150,-100,4,2,1,5,0,0
68275,-100,4,2,1,80,0,0
68400,-100,4,2,1,5,0,0
68525,-100,4,2,1,80,0,0
68900,-100,4,2,1,5,0,0
69025,-100,4,2,1,80,0,0
69150,-100,4,2,1,5,0,0
69275,-100,4,2,1,80,0,0
69400,-100,4,2,1,5,0,0
69525,-100,4,2,1,80,0,0
70150,-100,4,2,1,5,0,0
70275,-100,4,2,1,80,0,0
70400,-100,4,2,1,5,0,0
70525,-1000,4,2,1,60,0,0
70900,-1000,4,2,1,5,0,0
71025,-1000,4,2,1,40,0,0
71962,-1000,4,2,1,5,0,0
72025,-58.8235294117647,4,2,1,90,0,0
72212,-58.8235294117647,4,2,1,5,0,0
72275,-58.8235294117647,4,2,1,90,0,0
72400,-58.8235294117647,4,2,1,5,0,0
72525,-58.8235294117647,4,2,1,90,0,0
72712,-58.8235294117647,4,2,1,5,0,0
72775,-58.8235294117647,4,2,1,90,0,0
72900,-58.8235294117647,4,2,1,5,0,0
73025,-58.8235294117647,4,2,1,90,0,0
73712,-58.8235294117647,4,2,1,5,0,0
73775,-58.8235294117647,4,2,1,90,0,0
73900,-58.8235294117647,4,2,1,5,0,0
74025,-58.8235294117647,4,2,1,90,0,0
74650,-58.8235294117647,4,2,1,5,0,0
74775,-58.8235294117647,4,2,1,90,0,0
74900,-58.8235294117647,4,2,1,5,0,0
75025,-58.8235294117647,4,2,1,90,0,0
75212,-58.8235294117647,4,2,1,5,0,0
75275,-58.8235294117647,4,2,1,90,0,0
75400,-58.8235294117647,4,2,1,5,0,0
75525,-58.8235294117647,4,2,1,90,0,0
75650,-58.8235294117647,4,2,1,5,0,0
75775,-58.8235294117647,4,2,1,90,0,0
76400,-58.8235294117647,4,2,1,5,0,0
76525,-100,4,2,1,90,0,0
76650,-100,4,2,1,5,0,0
76775,-100,4,2,1,90,0,0
76900,-100,4,2,1,5,0,0
77025,-100,4,2,1,90,0,0
77150,-100,4,2,1,5,0,0
77275,-100,4,2,1,90,0,0
77400,-100,4,2,1,5,0,0
77525,-66.6666666666667,4,2,1,90,0,0
77712,-66.6666666666667,4,2,1,5,0,0
77775,-66.6666666666667,4,2,1,90,0,0
77900,-66.6666666666667,4,2,1,5,0,0
78025,-66.6666666666667,4,2,1,90,0,0
78275,-66.6666666666667,4,2,1,80,0,0
79212,-66.6666666666667,4,2,1,5,0,0
79400,-66.6666666666667,4,2,1,80,0,0
79587,-66.6666666666667,4,2,1,5,0,0
79775,-133.333333333333,4,2,1,80,0,0
79900,-133.333333333333,4,2,1,5,0,0
80025,-133.333333333333,4,2,1,90,0,0
80650,-133.333333333333,4,2,1,5,0,0
80775,-133.333333333333,4,2,1,90,0,0
80900,-133.333333333333,4,2,1,5,0,0
81025,-58.8235294117647,4,2,1,90,0,0
81212,-58.8235294117647,4,2,1,5,0,0
81275,-66.6666666666667,4,2,1,90,0,0
81462,-66.6666666666667,4,2,1,5,0,0
81525,-55.5555555555556,4,2,1,90,0,0
82525,-58.8235294117647,4,2,1,90,0,0
82712,-58.8235294117647,4,2,1,5,0,0
82775,-66.6666666666667,4,2,1,90,0,0
82962,-66.6666666666667,4,2,1,5,0,0
83025,-55.5555555555556,4,2,1,90,0,0
83212,-55.5555555555556,4,2,1,5,0,0
83275,-55.5555555555556,4,2,1,90,0,0
83431,-55.5555555555556,4,2,1,90,0,0
83462,-55.5555555555556,4,2,1,5,0,0
83525,-55.5555555555556,4,2,1,90,0,0
83649,-55.5555555555556,4,2,1,5,0,0
83775,-55.5555555555556,4,2,1,90,0,0
84149,-55.5555555555556,4,2,1,5,0,0
84275,-55.5555555555556,4,2,1,90,0,0
84525,-66.6666666666667,4,2,1,90,0,0
85212,-66.6666666666667,4,2,1,5,0,0
85275,-66.6666666666667,4,2,1,90,0,0
85900,-66.6666666666667,4,2,1,5,0,0
86025,-66.6666666666667,4,2,1,90,0,0
86275,-66.6666666666667,4,2,1,70,0,0
87525,-133.333333333333,4,2,1,70,0,0
87650,-133.333333333333,4,2,1,5,0,0
87775,-133.333333333333,4,2,1,70,0,0
87900,-133.333333333333,4,2,1,5,0,0
88025,-66.6666666666667,4,2,1,80,0,0
88150,-66.6666666666667,4,2,1,5,0,0
88275,-66.6666666666667,4,2,1,80,0,0
88400,-66.6666666666667,4,2,1,5,0,0
88525,-66.6666666666667,4,2,1,80,0,0
88775,-66.6666666666667,4,2,1,5,0,0
88900,-66.6666666666667,4,2,1,80,0,0
89462,-66.6666666666667,4,2,1,5,0,0
89525,-66.6666666666667,4,2,1,90,0,0

[Colours]
Combo1 : 79,81,162
Combo2 : 158,41,12
Combo3 : 255,217,85
Combo4 : 242,170,175

[HitObjects]
463,189,2025,6,0,B|509:137|444:71|444:71|359:104|382:173,1,269.999992847443,14|0,0:2|0:0,0:0:0:0:
190,299,2525,2,0,B|133:283|128:209|191:176|291:202|302:295,1,269.999992847443,14|0,0:2|0:0,0:0:0:0:
232,168,3025,2,0,P|208:116|212:63,1,89.9999976158143,14|0,0:2|0:0,0:0:0:0:
353,358,3275,5,0,3:2:0:0:
353,358,3358,5,0,3:2:0:0:
353,358,3441,5,0,3:2:0:0:
353,358,3525,6,0,B|306:349|306:349|303:351|303:351|265:344,1,89.9999976158143,14|0,3:2|0:0,0:0:0:0:
54,307,3775,2,0,B|91:313|91:313|94:311|94:311|141:320,1,89.9999976158143,14|0,0:2|0:0,0:0:0:0:
174,124,4025,6,0,B|157:128|157:128|193:377,1,270.000003147125,4|0,3:2|3:2,0:0:0:0:
489,42,4525,6,0,L|356:13,1,135.000001573563,10|0,0:2|0:0,0:0:0:0:
198,125,4900,2,0,P|196:155|222:199,1,67.5000007867814,2|0,0:2|0:0,0:0:0:0:
264,66,5150,1,2,0:2:0:0:
264,66,5275,2,0,L|278:0,1,67.5000007867814,0|2,3:2|0:2,0:0:0:0:
414,195,5525,1,8,0:2:0:0:
430,120,5650,2,0,P|400:118|330:194,1,135.000001573563,2|0,3:2|0:0,0:0:0:0:
224,348,6025,6,0,L|145:326,1,67.5000007867814,2|0,3:2|0:0,0:0:0:0:
247,272,6275,2,0,L|168:250,1,67.5000007867814,0|0,3:2|0:0,0:0:0:0:
353,380,6525,2,0,P|428:331|484:350,1,135.000001573563,10|0,0:2|0:0,0:0:0:0:
359,228,6900,2,0,B|370:262|370:262|370:265|370:265|381:307,1,67.5000007867814,2|0,0:2|0:0,0:0:0:0:
512,379,7150,1,2,0:2:0:0:
512,379,7275,2,0,P|472:358|466:329,1,67.5000007867814,0|2,3:2|0:2,0:0:0:0:
254,370,7525,1,8,0:2:0:0:
295,312,7650,2,0,B|227:330|227:330|222:330|222:330|139:356,1,135.000001573563,2|0,3:2|0:0,0:0:0:0:
66,108,8025,6,0,P|97:119|119:151,1,67.5000007867814,2|0,3:2|0:0,0:0:0:0:
186,125,8275,2,0,P|191:157|175:192,1,67.5000007867814,0|0,3:2|0:0,0:0:0:0:
37,375,8525,2,0,B|17:309|66:317|28:242,1,135.000001573563,10|0,0:2|0:0,0:0:0:0:
125,344,8900,2,0,L|191:331,1,67.5000007867814,2|0,0:2|0:0,0:0:0:0:
23,242,9150,1,2,0:2:0:0:
23,242,9275,2,0,L|35:308,1,67.5000007867814,0|2,3:2|0:2,0:0:0:0:
192,220,9525,1,8,0:2:0:0:
231,157,9650,2,0,B|155:184|155:184|189:191|194:235,1,135.000001573563,2|0,3:2|0:0,0:0:0:0:
70,155,10025,6,0,B|-20:124|-24:31|37:-33|117:20|100:77,1,269.999992847443,2|0,3:2|0:0,0:0:0:0:
204,300,10525,2,0,B|210:210|145:177|145:181|92:165|102:61,1,269.999992847443,2|0,3:2|0:0,0:0:0:0:
101,300,11025,6,0,P|77:269|109:291,1,107.999993843079,2|0,3:2|0:0,0:0:0:0:
211,79,11275,2,0,P|187:109|219:87,1,107.999993843079,0|0,3:2|0:0,0:0:0:0:
402,206,11525,5,2,3:2:0:0:
309,253,11650,1,0,3:2:0:0:
330,184,11775,1,0,3:2:0:0:
377,274,11900,1,0,3:2:0:0:
234,322,12025,6,0,B|202:287|202:287|382:261|382:261|356:228,1,270.000003147125,4|0,3:2|3:2,0:0:0:0:
42,132,12525,6,0,P|37:195|96:217,1,135.000001573563,10|0,0:2|0:0,0:0:0:0:
189,130,12900,2,0,L|198:64,1,67.5000007867814,2|0,0:2|0:0,0:0:0:0:
109,213,13150,1,2,0:2:0:0:
109,213,13275,2,0,L|175:222,1,67.5000007867814,0|2,3:2|0:2,0:0:0:0:
104,68,13525,1,8,0:2:0:0:
29,46,13650,2,0,B|80:51|105:19|105:19|91:44|106:74,1,135.000001573563,2|0,3:2|0:0,0:0:0:0:
287,250,14025,6,0,P|273:219|280:187,1,67.5000007867814,2|0,3:2|0:0,0:0:0:0:
361,286,14275,2,0,P|380:258|411:248,1,67.5000007867814,0|0,3:2|0:0,0:0:0:0:
261,378,14525,2,0,L|126:360,1,135.000001573563,10|0,0:2|0:0,0:0:0:0:
8,290,14900,2,0,P|25:325|20:364,1,67.5000007867814,2|0,0:2|0:0,0:0:0:0:
143,240,15150,1,2,0:2:0:0:
143,240,15275,2,0,P|121:272|84:287,1,67.5000007867814,0|2,3:2|0:2,0:0:0:0:
261,378,15525,1,8,0:2:0:0:
286,311,15650,2,0,P|331:262|396:261,1,135.000001573563,2|0,3:2|0:0,0:0:0:0:
426,111,16025,6,0,L|442:46,1,67.5000007867814,2|0,3:2|0:0,0:0:0:0:
411,195,16275,2,0,L|395:260,1,67.5000007867814,0|2,3:2|0:2,0:0:0:0:
240,115,16525,1,10,0:2:0:0:
240,115,16650,2,0,P|198:64|212:0,2,135.000001573563,0|2|0,0:0|0:2|0:0,0:0:0:0:
351,60,17275,2,0,L|285:44,1,67.5000007867814,0|2,3:2|0:2,0:0:0:0:
385,205,17525,1,8,0:2:0:0:
441,157,17650,2,0,L|309:189,1,135.000001573563,0|0,3:2|0:0,0:0:0:0:
146,327,18025,6,0,B|181:332|200:361|200:361|195:325|223:298,1,135.000001573563,2|0,3:2|0:0,0:0:0:0:
165,257,18400,1,2,0:2:0:0:
244,91,18525,6,0,B|288:98|320:38|320:38|312:103|358:129,1,202.500002360344,10|0,0:2|0:0,0:0:0:0:
356,128,18775,1,2,0:2:0:0:
284,171,18900,1,2,0:2:0:0:
142,28,19025,6,0,B|47:58|47:58|13:111|72:133,1,179.999995231629,2|0,3:2|0:0,0:0:0:0:
142,28,19400,1,2,0:2:0:0:
212,212,19525,2,0,P|255:205|283:170,1,89.9999976158143,10|0,2:2|0:0,0:0:0:0:
68,134,19775,2,0,L|84:222,1,89.9999976158143,2|0,0:2|0:0,0:0:0:0:
302,29,20025,6,0,B|374:13|390:63|387:63|414:116|481:95,1,202.500002360344,6|0,0:2|0:0,0:0:0:0:
475,86,20275,1,2,0:2:0:0:
211,212,20525,6,0,P|164:233|146:269,1,89.9999976158143,10|0,0:2|0:0,0:0:0:0:
346,143,20775,1,2,0:2:0:0:
346,143,20900,1,0,0:0:0:0:
364,213,21025,2,0,P|320:212|286:185,1,89.9999976158143,2|0,3:2|0:0,0:0:0:0:
202,43,21275,2,0,P|224:82|217:126,1,89.9999976158143,2|0,3:2|0:0,0:0:0:0:
221,292,21525,1,8,0:2:0:0:
1,123,21775,6,0,B|31:43|119:61|119:61|86:65|75:98,1,202.500002360344,2|0,0:2|0:0,0:0:0:0:
83,97,22025,1,0,3:2:0:0:
125,282,22275,6,0,B|138:279|147:290|147:290|135:253|98:259,1,89.9999976158143,2|0,0:2|0:0,0:0:0:0:
351,375,22525,1,8,0:2:0:0:
332,194,22775,6,0,P|290:246|278:312,1,134.999996423721,2|0,0:2|0:0,0:0:0:0:
285,308,23025,2,0,P|325:281|387:290,1,89.9999976158143,0|0,3:2|0:0,0:0:0:0:
194,384,23275,2,0,P|175:343|137:320,1,89.9999976158143,2|0,3:2|0:0,0:0:0:0:
351,375,23525,5,8,0:2:0:0:
183,231,23775,1,2,0:2:0:0:
237,21,24025,6,0,P|261:54|241:113,1,89.9999976158143,0|0,3:2|0:0,0:0:0:0:
249,107,24275,2,0,P|289:102|330:149,1,89.9999976158143,2|0,0:2|0:0,0:0:0:0:
156,325,24525,2,0,B|74:333|5:252|70:152|146:188|151:237,1,269.999992847443,10|0,0:2|0:0,0:0:0:0:
411,384,25025,6,0,L|298:357,1,89.9999976158143,2|0,3:2|0:0,0:0:0:0:
425,214,25275,2,0,L|512:193,1,89.9999976158143,2|0,3:2|0:0,0:0:0:0:
323,363,25525,5,8,0:2:0:0:
213,37,25775,1,2,0:2:0:0:
323,363,26025,1,8,0:2:0:0:
478,57,26525,6,0,B|442:41|408:48|409:92|449:62,1,98.9999973773957,2|0,0:2|0:0,0:0:0:0:
295,115,28025,6,0,B|307:121|307:121|443:81|443:81|411:110|414:147,1,229.499998297691,6|0,0:2|0:0,0:0:0:0:
430,149,28275,2,0,B|419:129|419:129|291:103,1,152.999998865128,2|0,0:2|0:0,0:0:0:0:
132,326,28525,2,0,B|127:338|127:338|72:324|14:231|113:181|145:239,1,229.499998297691,10|0,0:2|0:0,0:0:0:0:
152,251,28775,2,0,B|156:264|156:264|92:304|39:218,1,152.999998865128,2|0,0:2|0:0,0:0:0:0:
290,103,29025,5,2,3:2:0:0:
315,234,29150,1,2,0:2:0:0:
238,180,29275,1,2,3:2:0:0:
369,155,29400,1,2,0:2:0:0:
261,327,29525,6,0,B|275:338|275:338|192:363|192:363|116:343|145:266,1,229.499998297691,10|0,0:2|0:0,0:0:0:0:
150,262,29775,2,0,P|138:333|69:356,1,152.999998865128,2|0,0:2|0:0,0:0:0:0:
50,95,30025,5,2,3:2:0:0:
66,166,30150,1,2,0:2:0:0:
263,71,30275,5,2,0:2:0:0:
247,0,30400,1,2,0:2:0:0:
128,121,30525,6,0,L|278:150,1,152.999998865128,10|0,0:2|0:0,0:0:0:0:
101,242,30775,2,0,L|251:271,1,152.999998865128,2|0,0:2|0:0,0:0:0:0:
463,69,31025,6,0,B|452:57|452:57|350:149|436:277,1,229.499998297691,2|0,3:2|0:0,0:0:0:0:
418,263,31275,2,0,P|385:194|392:119,1,152.999998865128,2|0,3:2|0:0,0:0:0:0:
395,360,31525,2,0,P|438:297|506:266,1,152.999998865128,10|0,0:2|0:0,0:0:0:0:
399,366,31775,1,2,0:2:0:0:
79,129,32025,6,0,B|22:55|94:-20|241:0|239:163|142:244|142:244|137:214|118:194,1,458.999996595383,2|0,3:2|0:0,0:0:0:0:
262,4,32525,2,0,P|306:9|343:33,1,89.9999976158143,10|0,0:2|0:0,0:0:0:0:
317,108,32775,2,0,P|272:102|235:78,1,89.9999976158143,2|0,0:2|0:0,0:0:0:0:
113,246,33025,6,0,P|68:251|31:275,1,89.9999976158143,2|0,3:2|0:0,0:0:0:0:
58,350,33275,2,0,P|102:344|139:320,1,89.9999976158143,2|0,3:2|0:0,0:0:0:0:
317,108,33525,6,0,B|283:102|266:70|266:70|296:130|280:219,1,202.500002360344,10|0,0:2|0:0,0:0:0:0:
282,203,33775,2,0,P|226:165|155:179,1,135.000001573563,2|0,0:2|0:0,0:0:0:0:
469,383,34025,5,10,0:2:0:0:
440,311,34275,1,2,0:2:0:0:
480,250,34525,1,2,0:2:0:0:
451,178,34775,1,2,3:2:0:0:
488,113,35025,1,2,0:2:0:0:
441,186,35150,6,0,L|462:250,1,67.5000007867814,0|0,3:2|0:0,0:0:0:0:
472,248,35400,1,2,0:2:0:0:
451,319,35525,2,0,L|430:383,1,67.5000007867814,2|0,3:2|0:0,0:0:0:0:
459,320,35775,2,0,L|438:384,1,67.5000007867814,0|0,3:2|0:0,0:0:0:0:
25,208,36025,5,6,0:2:0:0:
156,256,36150,1,2,0:2:0:0:
197,129,36275,1,2,0:2:0:0:
265,154,36400,1,2,0:2:0:0:
150,267,36525,6,0,L|66:291,1,67.5000007867814,10|0,0:2|0:0,0:0:0:0:
154,277,36775,2,0,L|70:301,1,67.5000007867814,2|0,0:2|0:0,0:0:0:0:
365,179,37025,6,0,P|361:85|281:136,1,229.499998297691,2|0,3:2|0:0,0:0:0:0:
286,144,37275,2,0,P|355:96|361:180,1,202.500002360344,2|0,3:2|0:0,0:0:0:0:
453,175,37525,6,0,P|307:106|146:93,1,323.999981529237,10|2,0:2|0:2,0:0:0:0:
64,384,38025,5,2,3:2:0:0:
36,245,38150,1,2,0:2:0:0:
139,341,38275,1,2,0:2:0:0:
0,325,38400,1,2,0:2:0:0:
121,255,38525,6,0,P|125:349|205:298,1,229.499998297691,10|0,0:2|0:0,0:0:0:0:
202,290,38775,2,0,P|133:338|127:254,1,202.500002360344,2|0,0:2|0:0,0:0:0:0:
69,312,39025,6,0,P|215:243|306:238,1,242.999986146927,2|0,3:2|0:0,0:0:0:0:
368,260,39275,2,0,P|235:168|185:91,1,242.999986146927,2|0,3:2|0:0,0:0:0:0:
174,32,39525,2,0,P|160:192|119:274,1,242.999986146927,10|0,0:2|0:0,0:0:0:0:
69,312,39775,1,2,0:2:0:0:
457,69,40025,6,0,B|497:89|497:89|473:178|473:178|495:188,1,161.999990764618,2|0,3:2|0:0,0:0:0:0:
320,24,40275,1,2,0:2:0:0:
393,8,40400,1,0,3:2:0:0:
285,101,40525,5,10,0:2:0:0:
371,83,40650,1,0,3:2:0:0:
457,69,40775,1,2,0:2:0:0:
91,368,41025,6,0,L|124:142,1,202.500002360344,2|0,3:2|0:0,0:0:0:0:
121,161,41275,1,2,3:2:0:0:
151,237,41400,1,2,0:2:0:0:
0,322,41525,1,10,0:2:0:0:
4,327,41650,1,0,0:0:0:0:
19,188,41775,2,0,L|0:322,1,135.000001573563,0|0,3:2|0:0,0:0:0:0:
341,367,42025,5,6,0:2:0:0:
391,314,42275,1,2,0:2:0:0:
387,244,42525,1,2,0:2:0:0:
341,186,42775,1,2,0:2:0:0:
341,367,43025,5,2,0:2:0:0:
391,314,43150,1,2,0:2:0:0:
387,244,43275,1,2,0:2:0:0:
341,186,43400,1,2,0:2:0:0:
268,181,43525,2,0,L|178:198,1,67.5000007867814,2|0,0:2|0:0,0:0:0:0:
203,200,43775,2,0,L|269:187,1,67.5000007867814,2|0,0:2|0:0,0:0:0:0:
120,79,44025,6,0,P|72:123|83:187,1,135.000001573563,6|0,0:2|0:0,0:0:0:0:
278,286,44275,2,0,P|217:262|202:199,1,135.000001573563,2|0,3:2|0:0,0:0:0:0:
395,47,44525,1,10,0:2:0:0:
446,105,44650,2,0,L|247:63,1,202.500002360344,2|0,0:2|0:0,0:0:0:0:
262,74,44900,6,0,L|394:46,1,135.000001573563,2|0,0:2|3:2,0:0:0:0:
286,210,45150,2,0,L|418:182,1,135.000001573563,2|0,0:2|3:2,0:0:0:0:
425,186,45400,1,2,0:2:0:0:
239,358,45525,5,8,0:0:0:0:
75,289,45650,1,2,0:2:0:0:
0,362,45775,1,2,0:0:0:0:
74,384,45900,1,2,0:0:0:0:
204,221,46025,6,0,B|306:137|269:-20|176:-36|71:38|142:121,1,405.000004720688,14|0,0:2|0:0,0:0:0:0:
273,269,46525,2,0,P|180:174|48:163,1,270.000003147125,14|0,0:2|3:2,0:0:0:0:
2,223,46900,1,0,3:2:0:0:
95,362,47025,6,0,B|51:270|115:234|116:238|180:211|138:115,1,270.000003147125,14|0,0:2|3:2,0:0:0:0:
99,60,47400,1,0,3:2:0:0:
2,223,47525,5,14,0:2:0:0:
61,304,47650,1,0,3:2:0:0:
176,349,47775,1,0,3:2:0:0:
296,302,47900,1,0,3:2:0:0:
372,155,48025,6,0,B|350:218,1,67.5000007867814,14|0,3:2|0:0,0:0:0:0:
404,77,48275,1,2,3:2:0:0:
350,218,48525,1,10,0:2:0:0:
404,77,48775,1,2,0:2:0:0:
132,205,49275,5,0,3:2:0:0:
197,375,49525,1,8,0:2:0:0:
197,375,49650,2,0,L|148:247,1,135.000001573563,2|0,3:2|0:0,0:0:0:0:
132,205,50025,6,0,P|170:191|197:164,1,67.5000007867814,2|0,3:2|0:0,0:0:0:0:
61,328,50275,2,0,P|67:288|57:251,1,67.5000007867814,0|0,3:2|0:0,0:0:0:0:
197,375,50525,1,10,0:2:0:0:
197,375,50775,1,2,0:2:0:0:
218,344,50900,1,2,0:2:0:0:
260,355,51025,1,2,0:2:0:0:
396,194,51275,6,0,L|422:277,1,67.5000007867814,2|2,3:2|0:2,0:0:0:0:
247,169,51525,1,10,0:2:0:0:
247,169,51650,1,2,3:2:0:0:
247,169,51775,2,0,P|197:135|171:137,1,67.5000007867814,2|0,2:2|0:0,0:0:0:0:
347,49,52025,5,2,3:2:0:0:
289,258,52275,1,2,3:2:0:0:
200,0,52525,5,10,0:2:0:0:
129,255,52775,2,0,L|158:171,1,67.5000007867814,2|2,0:2|0:2,0:0:0:0:
200,0,53025,1,2,2:2:0:0:
289,258,53275,1,2,3:2:0:0:
347,49,53525,1,10,0:2:0:0:
352,73,53650,1,2,3:2:0:0:
359,101,53775,1,2,2:2:0:0:
129,255,54025,6,0,B|72:324|24:314|9:227|122:213|189:319,1,270.000003147125,2|2,3:2|3:2,0:0:0:0:
45,175,54775,1,2,2:2:0:0:
172,384,55025,6,0,P|247:297|278:294,1,135.000001573563,2|0,3:2|3:2,0:0:0:0:
265,310,55400,1,2,2:2:0:0:
337,316,55525,2,0,P|358:274|353:249,1,67.5000007867814,0|0,3:2|3:2,0:0:0:0:
277,233,55775,2,0,P|256:275|261:300,1,67.5000007867814,2|0,3:2|3:2,0:0:0:0:
375,175,56025,6,0,L|406:389,1,202.500002360344,4|0,3:2|0:0,0:0:0:0:
408,384,56275,1,2,3:2:0:0:
462,370,56400,1,2,2:2:0:0:
483,316,56525,1,10,0:2:0:0:
468,262,56650,1,2,0:2:0:0:
277,134,56900,6,0,L|195:157,1,67.5000007867814,2|0,0:2|0:0,0:0:0:0:
252,61,57150,1,2,0:2:0:0:
252,61,57275,2,0,L|170:84,1,67.5000007867814,0|2,3:2|0:2,0:0:0:0:
302,208,57525,1,8,0:2:0:0:
301,220,57650,1,2,3:2:0:0:
300,231,57775,1,2,2:2:0:0:
55,35,58025,5,2,3:2:0:0:
20,263,58275,1,2,3:2:0:0:
55,35,58525,1,10,0:2:0:0:
192,316,58775,6,0,P|171:278|128:249,1,67.5000007867814,2|2,2:2|0:2,0:0:0:0:
271,171,59025,2,0,P|248:208|244:259,1,67.5000007867814,2|0,2:2|0:0,0:0:0:0:
95,177,59275,2,0,P|138:177|185:155,1,67.5000007867814,2|0,3:2|0:0,0:0:0:0:
290,314,59525,1,10,0:2:0:0:
288,327,59650,1,2,3:2:0:0:
46,364,60025,6,0,P|70:265|63:208,1,135.000001573563,2|0,3:2|3:2,0:0:0:0:
61,228,60400,1,2,0:2:0:0:
23,124,60525,2,0,B|71:114|88:150|87:150|102:182|155:169,1,135.000001573563,10|2,0:2|0:2,0:0:0:0:
145,165,60900,1,2,0:2:0:0:
212,132,61025,6,0,P|221:82|226:67,1,67.5000007867814,2|0,0:2|0:0,0:0:0:0:
142,181,61275,2,0,P|151:213|156:246,1,67.5000007867814,0|2,3:2|0:2,0:0:0:0:
280,374,61525,1,8,0:2:0:0:
297,338,61650,1,0,3:2:0:0:
265,315,61775,1,2,0:2:0:0:
25,384,62025,5,2,3:2:0:0:
265,315,62275,1,2,2:2:0:0:
90,306,62525,5,10,0:2:0:0:
330,375,62775,1,2,0:2:0:0:
338,360,62900,1,2,0:2:0:0:
353,354,63025,1,2,3:2:0:0:
265,315,63275,1,2,2:2:0:0:
408,155,63525,6,0,P|416:188|404:237,1,67.5000007867814,10|0,2:2|0:0,0:0:0:0:
327,159,63775,2,0,P|322:192|330:224,1,67.5000007867814,2|0,0:2|0:0,0:0:0:0:
512,311,64025,6,0,B|428:308|373:357|373:357|393:328|378:292,1,202.500002360344,6|0,0:2|0:0,0:0:0:0:
374,286,64275,1,2,0:2:0:0:
149,275,64525,6,0,P|170:322|206:340,1,89.9999976158143,10|0,0:2|0:0,0:0:0:0:
173,195,64775,1,2,0:2:0:0:
173,195,64900,1,0,0:0:0:0:
126,130,65025,2,0,P|95:171|98:211,1,89.9999976158143,2|0,3:2|0:0,0:0:0:0:
223,256,65275,2,0,P|253:214|250:174,1,89.9999976158143,2|0,3:2|0:0,0:0:0:0:
121,352,65525,1,8,0:2:0:0:
301,66,65775,6,0,B|209:56|186:131|186:131|204:104|246:99,1,202.500002360344,2|0,0:2|0:0,0:0:0:0:
244,104,66025,1,0,3:2:0:0:
392,240,66275,6,0,B|397:193|359:182|359:182|373:191|375:212,1,89.9999976158143,2|0,0:2|0:0,0:0:0:0:
493,384,66525,1,8,0:2:0:0:
233,354,66775,6,0,P|181:312|115:300,1,134.999996423721,2|0,0:2|0:0,0:0:0:0:
110,294,67025,2,0,P|150:267|212:276,1,89.9999976158143,0|0,3:2|0:0,0:0:0:0:
93,384,67275,2,0,P|49:362|26:304,1,89.9999976158143,2|0,3:2|0:0,0:0:0:0:
234,360,67525,5,8,0:2:0:0:
303,140,67775,1,2,0:2:0:0:
115,16,68025,6,0,P|91:49|111:108,1,89.9999976158143,0|0,3:2|0:0,0:0:0:0:
103,102,68275,2,0,P|63:97|22:144,1,89.9999976158143,2|0,0:2|0:0,0:0:0:0:
296,234,68525,2,0,B|378:242|447:161|382:61|306:97|301:146,1,269.999992847443,10|0,0:2|0:0,0:0:0:0:
384,331,69025,6,0,L|411:218,1,89.9999976158143,2|0,3:2|0:0,0:0:0:0:
196,79,69275,2,0,L|223:192,1,89.9999976158143,2|0,3:2|0:0,0:0:0:0:
340,0,69525,5,8,0:2:0:0:
285,370,69775,1,2,0:2:0:0:
340,0,70025,6,0,P|396:3|427:23,1,89.9999976158143,10|0,0:2|0:0,0:0:0:0:
388,168,70275,2,0,P|332:165|301:145,1,89.9999976158143
367,78,70525,5,2,0:2:0:0:
367,78,70650,2,0,L|363:99,1,17.9999995231628,2|0,0:0|0:0,0:0:0:0:
222,49,71025,5,2,0:0:0:0:
213,44,71150,1,2,0:0:0:0:
203,47,71275,1,2,0:0:0:0:
160,111,71525,1,2,0:0:0:0:
152,116,71650,2,0,L|129:110,1,22.4999994039536,2|0,0:0|0:0,0:0:0:0:
83,180,72025,6,0,B|60:168|60:168|176:136|176:136|213:169|198:213,1,229.499998297691,6|0,0:2|0:0,0:0:0:0:
200,228,72275,2,0,P|158:169|185:100,1,152.999998865128,2|0,0:2|0:0,0:0:0:0:
419,270,72525,6,0,B|423:241|423:241|342:254|322:301|322:301|383:336|380:378,1,229.499998297691,10|0,0:2|0:0,0:0:0:0:
366,361,72775,2,0,L|330:204,1,152.999998865128,2|0,0:2|0:0,0:0:0:0:
450,19,73025,5,2,3:2:0:0:
419,176,73150,1,2,0:2:0:0:
264,37,73275,5,2,3:2:0:0:
315,188,73400,1,2,0:2:0:0:
149,79,73525,6,0,B|150:58|150:58|32:114|32:114|39:178|-11:200,1,229.499998297691,10|0,0:2|0:0,0:0:0:0:
0,214,73775,2,0,L|151:145,1,152.999998865128,2|0,0:2|0:0,0:0:0:0:
346,302,74025,5,2,3:2:0:0:
273,281,74150,1,2,0:2:0:0:
358,208,74275,5,2,0:2:0:0:
312,373,74400,1,2,0:2:0:0:
207,237,74525,6,0,L|357:208,1,152.999998865128,10|0,0:2|0:0,0:0:0:0:
339,77,74775,2,0,L|189:106,1,152.999998865128,2|0,0:2|0:0,0:0:0:0:
15,278,75025,6,0,B|95:248|119:318|116:319|129:381|209:359,1,229.499998297691,2|0,3:2|0:0,0:0:0:0:
220,349,75275,2,0,P|103:340|65:363,1,152.999998865128,2|0,3:2|0:0,0:0:0:0:
279,249,75525,2,0,P|228:143|189:121,1,152.999998865128,10|0,0:2|0:0,0:0:0:0:
329,340,75775,1,2,0:2:0:0:
434,144,76025,6,0,B|501:90|445:10|382:8|299:68|283:157|526:181|414:337,1,458.999996595383,2|0,3:2|0:0,0:0:0:0:
312,338,76525,2,0,P|268:333|231:309,1,89.9999976158143,10|0,0:2|0:0,0:0:0:0:
257,234,76775,2,0,P|302:240|339:264,1,89.9999976158143,2|0,0:2|0:0,0:0:0:0:
139,319,77025,6,0,P|102:343|57:349,1,89.9999976158143,2|0,3:2|0:0,0:0:0:0:
31,274,77275,2,0,P|68:250|113:246,1,89.9999976158143,2|0,3:2|0:0,0:0:0:0:
293,16,77525,6,0,B|228:49|228:49|273:205,1,202.500002360344,10|0,0:2|0:0,0:0:0:0:
276,179,77775,2,0,P|220:141|149:155,1,135.000001573563,2|0,0:2|0:0,0:0:0:0:
242,384,78025,5,10,0:2:0:0:
318,355,78275,1,2,0:2:0:0:
399,384,78525,1,2,0:2:0:0:
474,358,78775,1,2,3:2:0:0:
479,350,79025,1,2,0:2:0:0:
392,370,79150,6,0,L|328:349,1,67.5000007867814,0|0,3:2|0:0,0:0:0:0:
404,361,79400,1,2,0:2:0:0:
315,343,79525,6,0,L|251:364,1,67.5000007867814,2|0,3:2|0:0,0:0:0:0:
313,338,79775,2,0,L|249:359,1,67.5000007867814,0|0,3:2|0:0,0:0:0:0:
490,108,80025,5,6,0:2:0:0:
455,253,80150,1,2,0:2:0:0:
490,108,80275,1,2,0:2:0:0:
455,253,80400,1,2,0:2:0:0:
335,153,80525,6,0,L|251:177,1,67.5000007867814,10|0,0:2|0:0,0:0:0:0:
169,195,80775,2,0,L|85:219,1,67.5000007867814,2|0,0:2|0:0,0:0:0:0:
288,137,81025,6,0,B|289:75|365:69|365:69|414:129|369:176,1,229.499998297691,2|0,3:2|0:0,0:0:0:0:
367,174,81275,2,0,B|402:137|358:83|358:83|290:89|289:143,1,202.500002360344,2|0,3:2|0:0,0:0:0:0:
453,98,81525,6,0,B|343:59|323:160|329:161|312:258|201:238,1,323.999981529237,10|2,0:2|0:2,0:0:0:0:
64,0,82025,5,2,3:2:0:0:
36,139,82150,1,2,0:2:0:0:
139,43,82275,1,2,0:2:0:0:
0,59,82400,1,2,0:2:0:0:
149,144,82525,6,0,B|148:82|72:76|72:76|23:136|68:183,1,229.499998297691,10|0,0:2|0:0,0:0:0:0:
70,181,82775,2,0,B|34:144|78:90|78:90|146:96|147:150,1,202.500002360344,2|0,0:2|0:0,0:0:0:0:
0,139,83025,6,0,P|119:155|225:213,1,242.999986146927,2|0,3:2|0:0,0:0:0:0:
256,297,83275,2,0,B|254:363|171:369|171:369|117:303|160:259,1,242.999986146927,2|0,3:2|0:0,0:0:0:0:
169,146,83525,6,0,P|219:80|310:84,1,161.999990764618,10|0,0:2|0:0,0:0:0:0:
365,112,83775,1,2,0:2:0:0:
500,364,84025,6,0,B|421:344|421:344|417:336|417:336|337:317,1,161.999990764618,2|0,3:2|0:0,0:0:0:0:
509,279,84275,1,2,0:2:0:0:
511,272,84400,1,0,3:2:0:0:
340,221,84525,5,10,0:2:0:0:
426,203,84650,1,0,3:2:0:0:
512,189,84775,1,2,0:2:0:0:
134,363,85025,6,0,P|179:286|168:176,1,202.500002360344,2|0,3:2|0:0,0:0:0:0:
159,171,85275,1,2,3:2:0:0:
139,248,85400,1,2,0:2:0:0:
223,341,85525,5,10,0:2:0:0:
307,314,85650,1,0,0:0:0:0:
134,363,85775,2,0,L|-13:330,1,135.000001573563,0|0,3:2|0:0,0:0:0:0:
207,83,86025,5,6,0:2:0:0:
290,58,86275,1,2,0:2:0:0:
315,141,86525,1,2,0:2:0:0:
232,166,86775,1,2,0:2:0:0:
232,166,87025,5,2,0:2:0:0:
315,141,87150,1,2,0:2:0:0:
290,58,87275,1,2,0:2:0:0:
207,83,87400,1,2,0:2:0:0:
232,166,87525,6,0,L|253:229,1,67.5000007867814,2|0,3:2|0:0,0:0:0:0:
281,303,87775,2,0,L|302:366,1,67.5000007867814,2|0,0:2|0:0,0:0:0:0:
432,80,88025,6,0,P|370:90|335:173,1,135.000001573563,6|0,0:2|0:0,0:0:0:0:
388,221,88275,2,0,P|450:211|485:128,1,135.000001573563,2|0,3:2|0:0,0:0:0:0:
210,38,88525,1,10,0:2:0:0:
111,24,88650,2,0,L|82:166,1,135.000001573563,2|0,0:2|0:0,0:0:0:0:
210,38,88900,2,0,L|181:180,1,135.000001573563,2|0,0:2|3:2,0:0:0:0:
181,180,89150,1,2,0:2:0:0:
305,293,89275,6,0,P|205:305|119:358,1,202.500002360344,0|0,3:2|0:0,0:0:0:0:
125,367,89525,1,8,0:0:0:0:
233,249,89650,1,2,0:2:0:0:
68,140,89775,1,2,0:0:0:0:
170,307,89900,1,2,0:0:0:0:
364,205,90025,5,14,0:2:0:0:
