osu file format v14

[General]
AudioFilename: audio.mp3
AudioLeadIn: 0
PreviewTime:26378
Countdown: 0
SampleSet: Soft
StackLeniency: 0.7
Mode: 0
LetterboxInBreaks: 0
WidescreenStoryboard: 1

[Editor]
Bookmarks:5108,9983,19983,27983,34483,43983,47983,63983,71983,87983
DistanceSpacing: 1.1
BeatDivisor: 4
GridSize: 32
TimelineZoom: 1

[Metadata]
Title:CALL ME, BEEP ME! (The KIM POSSIBLE Song) (Cut Ver.)
TitleUnicode:CALL ME, BEEP ME! (The KIM POSSIBLE Song) (Cut Ver.)
Artist:Christina Milian
ArtistUnicode:Christina Milian
Creator:Seolv
Version:Sylas' Expert
Source:Kim Possible
Tags:english pop r&b cartoon disney channel opening theme short version tv size christy carlson romano milan lukas [_l_u_k_a_s_] paradogi sylas thekoala qiyana dylbyl dyl-byl aistre alphabet venax
BeatmapID:2899187
BeatmapSetID:1405908

[Difficulty]
HPDrainRate:5
CircleSize:3.8
OverallDifficulty:8.5
ApproachRate:9
SliderMultiplier:2.59999990463257
SliderTickRate:1

[Events]
//Background and Video events
0,0,"thumb-1920-879128.png",0,0
//Break Periods
//Storyboard Layer 0 (Background)
//Storyboard Layer 1 (Fail)
//Storyboard Layer 2 (Pass)
//Storyboard Layer 3 (Foreground)
//Storyboard Layer 4 (Overlay)
//Storyboard Sound Samples

[TimingPoints]
2025,500,4,2,1,80,1,0
2025,-66.6666666666667,4,2,1,80,0,0
2400,-66.6666666666667,4,2,1,5,0,0
2525,-66.6666666666667,4,2,1,80,0,0
2900,-66.6666666666667,4,2,1,5,0,0
3025,-66.6666666666667,4,2,1,80,0,0
3150,-66.6666666666667,4,2,1,5,0,0
3275,-66.6666666666667,4,2,1,80,0,0
3900,-66.6666666666667,4,2,1,5,0,0
4025,-66.6666666666667,4,2,1,80,0,0
4275,-66.6666666666667,4,2,1,60,0,0
4525,-100,4,2,1,60,0,0
4775,-100,4,2,1,5,0,0
4900,-100,4,2,1,60,0,0
5900,-100,4,2,1,5,0,0
6025,-100,4,2,1,60,0,0
6775,-100,4,2,1,5,0,0
6900,-100,4,2,1,60,0,0
7900,-100,4,2,1,5,0,0
8025,-100,4,2,1,60,0,0
8775,-100,4,2,1,5,0,0
8900,-100,4,2,1,60,0,0
10025,-100,4,2,1,60,0,0
10150,-100,4,2,1,5,0,0
10275,-100,4,2,1,60,0,0
10650,-100,4,2,1,5,0,0
11025,-100,4,2,1,60,0,0
11150,-100,4,2,1,5,0,0
11275,-100,4,2,1,60,0,0
11650,-100,4,2,1,60,0,0
11775,-100,4,2,1,60,0,0
12775,-100,4,2,1,5,0,0
12900,-100,4,2,1,60,0,0
13900,-100,4,2,1,5,0,0
14025,-100,4,2,1,60,0,0
14775,-100,4,2,1,5,0,0
14900,-100,4,2,1,60,0,0
15900,-100,4,2,1,5,0,0
16025,-100,4,2,1,60,0,0
16650,-100,4,2,1,5,0,0
16775,-100,4,2,1,60,0,0
17025,-71.4285714285714,4,2,1,60,0,0
17400,-76.9230769230769,4,2,1,60,0,0
17899,-76.9230769230769,4,2,1,5,0,0
18025,-125,4,2,1,60,0,0
19275,-125,4,2,1,5,0,0
19400,-125,4,2,1,60,0,0
19650,-125,4,2,1,5,0,0
19775,-125,4,2,1,60,0,0
19900,-125,4,2,1,5,0,0
20025,-125,4,2,1,70,0,0
21025,-100,4,2,1,70,0,0
21150,-100,4,2,1,5,0,0
21275,-100,4,2,1,70,0,0
23775,-100,4,2,1,80,0,0
24150,-100,4,2,1,5,0,0
24275,-100,4,2,1,80,0,0
26525,-100,4,2,1,60,0,0
28025,-71.4285714285714,4,2,1,90,0,1
28149,-71.4285714285714,4,2,1,5,0,1
28275,-71.4285714285714,4,2,1,90,0,1
28399,-71.4285714285714,4,2,1,5,0,1
28525,-71.4285714285714,4,2,1,90,0,1
28649,-71.4285714285714,4,2,1,5,0,1
28775,-71.4285714285714,4,2,1,90,0,1
28899,-71.4285714285714,4,2,1,5,0,1
29025,-71.4285714285714,4,2,1,90,0,1
29649,-71.4285714285714,4,2,1,5,0,1
29775,-71.4285714285714,4,2,1,90,0,1
29899,-71.4285714285714,4,2,1,5,0,1
30025,-71.4285714285714,4,2,1,90,0,1
30649,-71.4285714285714,4,2,1,5,0,1
30775,-71.4285714285714,4,2,1,90,0,1
30899,-71.4285714285714,4,2,1,5,0,1
31025,-71.4285714285714,4,2,1,90,0,1
31899,-71.4285714285714,4,2,1,5,0,1
32025,-83.3333333333333,4,2,1,90,0,1
32274,-83.3333333333333,4,2,1,5,0,1
32400,-83.3333333333333,4,2,1,90,0,1
32649,-83.3333333333333,4,2,1,5,0,1
32775,-83.3333333333333,4,2,1,90,0,1
32899,-83.3333333333333,4,2,1,5,0,1
33025,-83.3333333333333,4,2,1,90,0,1
33649,-83.3333333333333,4,2,1,5,0,1
33775,-83.3333333333333,4,2,1,90,0,1
33899,-83.3333333333333,4,2,1,5,0,1
34025,-100,4,2,1,90,0,0
34275,-100,4,2,1,80,0,0
36025,-71.4285714285714,4,2,1,90,0,1
36649,-71.4285714285714,4,2,1,5,0,1
36775,-71.4285714285714,4,2,1,90,0,1
36899,-71.4285714285714,4,2,1,5,0,1
37025,-71.4285714285714,4,2,1,90,0,1
37899,-71.4285714285714,4,2,1,5,0,1
38025,-71.4285714285714,4,2,1,90,0,1
38649,-71.4285714285714,4,2,1,5,0,1
38775,-71.4285714285714,4,2,1,90,0,1
38899,-71.4285714285714,4,2,1,5,0,1
39025,-71.4285714285714,4,2,1,90,0,1
39899,-71.4285714285714,4,2,1,5,0,1
40025,-71.4285714285714,4,2,1,90,0,1
41025,-58.8235294117647,4,2,1,90,0,1
41525,-71.4285714285714,4,2,1,90,0,1
41649,-71.4285714285714,4,2,1,5,0,1
41775,-71.4285714285714,4,2,1,90,0,1
41899,-71.4285714285714,4,2,1,5,0,1
42025,-71.4285714285714,4,2,1,90,0,0
42275,-71.4285714285714,4,2,1,60,0,0
44025,-66.6666666666667,4,2,1,80,0,1
44150,-66.6666666666667,4,2,1,5,0,1
44275,-66.6666666666667,4,2,1,80,0,1
44400,-66.6666666666667,4,2,1,5,0,1
44525,-66.6666666666667,4,2,1,80,0,1
44775,-66.6666666666667,4,2,1,5,0,1
44900,-66.6666666666667,4,2,1,80,0,1
46025,-111.111111111111,4,2,1,80,0,0
46399,-111.111111111111,4,2,1,5,0,0
46525,-83.3333333333333,4,2,1,80,0,0
47025,-66.6666666666667,4,2,1,80,0,0
47150,-66.6666666666667,4,2,1,5,0,0
47275,-66.6666666666667,4,2,1,80,0,0
47525,-55.5555555555556,4,2,1,80,0,0
48025,-62.5,4,2,1,80,0,0
48150,-100,4,2,1,80,0,0
48275,-100,4,2,1,60,0,0
48650,-100,4,2,1,5,0,0
48775,-100,4,2,1,60,0,0
49900,-100,4,2,1,5,0,0
50025,-100,4,2,1,60,0,0
51900,-100,4,2,1,5,0,0
52025,-100,4,2,1,60,0,0
52650,-100,4,2,1,5,0,0
52775,-100,4,2,1,60,0,0
53900,-100,4,2,1,5,0,0
54025,-111.111111111111,4,2,1,60,0,0
54274,-111.111111111111,4,2,1,5,0,0
54525,-111.111111111111,4,2,1,60,0,0
54899,-111.111111111111,4,2,1,5,0,0
55025,-111.111111111111,4,2,1,60,0,0
56025,-90.9090909090909,4,2,1,60,0,0
61900,-90.9090909090909,4,2,1,5,0,0
62025,-111.111111111111,4,2,1,60,0,0
63899,-111.111111111111,4,2,1,5,0,0
64025,-90.9090909090909,4,2,1,70,0,0
65150,-90.9090909090909,4,2,1,5,0,0
65275,-90.9090909090909,4,2,1,70,0,0
66900,-90.9090909090909,4,2,1,5,0,0
67025,-90.9090909090909,4,2,1,70,0,0
67400,-90.9090909090909,4,2,1,5,0,0
67525,-90.9090909090909,4,2,1,70,0,0
67775,-90.9090909090909,4,2,1,80,0,0
67900,-90.9090909090909,4,2,1,5,0,0
68025,-90.9090909090909,4,2,1,80,0,0
70525,-90.9090909090909,4,2,1,60,0,0
71025,-90.9090909090909,4,2,1,40,0,0
72025,-71.4285714285714,4,2,1,90,0,1
72149,-71.4285714285714,4,2,1,5,0,1
72275,-71.4285714285714,4,2,1,90,0,1
72399,-71.4285714285714,4,2,1,5,0,1
72525,-71.4285714285714,4,2,1,90,0,1
72649,-71.4285714285714,4,2,1,5,0,1
72775,-71.4285714285714,4,2,1,90,0,1
72899,-71.4285714285714,4,2,1,5,0,1
73025,-71.4285714285714,4,2,1,90,0,1
73649,-71.4285714285714,4,2,1,5,0,1
73775,-71.4285714285714,4,2,1,90,0,1
73899,-71.4285714285714,4,2,1,5,0,1
74025,-71.4285714285714,4,2,1,90,0,1
74649,-71.4285714285714,4,2,1,5,0,1
74775,-71.4285714285714,4,2,1,90,0,1
74899,-71.4285714285714,4,2,1,5,0,1
75025,-71.4285714285714,4,2,1,90,0,1
75899,-71.4285714285714,4,2,1,5,0,1
76025,-83.3333333333333,4,2,1,90,0,1
76274,-83.3333333333333,4,2,1,5,0,1
76400,-83.3333333333333,4,2,1,90,0,1
76649,-83.3333333333333,4,2,1,5,0,1
76775,-83.3333333333333,4,2,1,90,0,1
76899,-83.3333333333333,4,2,1,5,0,1
77025,-83.3333333333333,4,2,1,90,0,1
77649,-83.3333333333333,4,2,1,5,0,1
77775,-83.3333333333333,4,2,1,90,0,1
77899,-83.3333333333333,4,2,1,5,0,1
78025,-100,4,2,1,90,0,0
78275,-100,4,2,1,80,0,0
80025,-71.4285714285714,4,2,1,90,0,1
80649,-71.4285714285714,4,2,1,5,0,1
80775,-71.4285714285714,4,2,1,90,0,1
80899,-71.4285714285714,4,2,1,5,0,1
81025,-71.4285714285714,4,2,1,90,0,1
81899,-71.4285714285714,4,2,1,5,0,1
82025,-71.4285714285714,4,2,1,90,0,1
82649,-71.4285714285714,4,2,1,5,0,1
82775,-71.4285714285714,4,2,1,90,0,1
82899,-71.4285714285714,4,2,1,5,0,1
83025,-71.4285714285714,4,2,1,90,0,1
83899,-71.4285714285714,4,2,1,5,0,1
84025,-71.4285714285714,4,2,1,90,0,1
85025,-58.8235294117647,4,2,1,90,0,1
85525,-71.4285714285714,4,2,1,90,0,1
85649,-71.4285714285714,4,2,1,5,0,1
85775,-71.4285714285714,4,2,1,90,0,1
85899,-71.4285714285714,4,2,1,5,0,1
86025,-71.4285714285714,4,2,1,90,0,0
86275,-71.4285714285714,4,2,1,70,0,0
87525,-166.666666666667,4,2,1,70,0,0
87899,-166.666666666667,4,2,1,5,0,0
88025,-60.6060606060606,4,2,1,80,0,1
88150,-60.6060606060606,4,2,1,5,0,1
88275,-60.6060606060606,4,2,1,80,0,1
88400,-60.6060606060606,4,2,1,5,0,1
88525,-60.6060606060606,4,2,1,80,0,1
88775,-60.6060606060606,4,2,1,5,0,1
88900,-60.6060606060606,4,2,1,80,0,1
89525,-55.5555555555556,4,2,1,90,0,1
90025,-111.111111111111,4,2,1,90,0,0

[Colours]
Combo1 : 79,81,162
Combo2 : 158,41,12
Combo3 : 255,217,85
Combo4 : 242,170,175

[HitObjects]
261,192,2025,6,0,B|256:164|256:164|242:96|152:114|165:182|165:182|205:354,1,292.500000429154,14|0,0:2|0:0,0:0:0:0:
31,336,2525,2,0,B|-13:322|4:254|32:235|101:241|127:318|97:327|125:390|222:368,1,292.500000429154,14|0,0:2|0:0,0:0:0:0:
320,251,3025,2,0,P|344:181|295:121,1,97.5000001430512,14|0,0:2|0:0,0:0:0:0:
269,106,3275,5,0,3:2:0:0:
260,107,3358,2,0,L|192:116,1,65.0000000953675,0|0,3:2|3:2,0:0:0:0:
340,75,3525,5,14,3:2:0:0:
258,192,3650,1,0,0:0:0:0:
126,146,3775,2,0,P|120:98|144:56,1,97.5000001430512,14|0,0:2|0:0,0:0:0:0:
417,16,4025,5,4,3:2:0:0:
417,16,4525,5,10,0:2:0:0:
417,16,4650,2,0,L|426:94,1,64.9999976158143,2|0,0:2|0:0,0:0:0:0:
383,235,4900,2,0,L|461:244,1,64.9999976158143,2|0,0:2|0:0,0:0:0:0:
461,165,5150,2,0,L|396:158,1,64.9999976158143,2|0,0:2|3:2,0:0:0:0:
233,203,5400,5,2,0:2:0:0:
312,185,5525,1,8,0:2:0:0:
312,185,5650,2,0,L|296:328,1,129.999995231629,2|0,3:2|0:0,0:0:0:0:
376,342,6025,1,2,3:2:0:0:
254,123,6275,1,0,3:2:0:0:
23,192,6525,5,10,0:2:0:0:
23,192,6650,2,0,L|101:201,1,64.9999976158143,2|0,0:2|0:0,0:0:0:0:
164,207,6900,2,0,L|242:216,1,64.9999976158143,2|0,0:2|0:0,0:0:0:0:
125,70,7150,2,0,L|132:135,1,64.9999976158143,2|0,0:2|3:2,0:0:0:0:
154,286,7400,5,2,0:2:0:0:
232,299,7525,1,8,0:2:0:0:
232,299,7650,2,0,P|220:237|164:207,1,129.999995231629,2|0,3:2|0:0,0:0:0:0:
90,230,8025,1,2,3:2:0:0:
264,369,8275,1,0,3:2:0:0:
453,272,8525,5,10,0:2:0:0:
453,272,8650,2,0,P|411:292|406:334,1,64.9999976158143,2|0,0:2|0:0,0:0:0:0:
339,266,8900,2,0,P|323:309|349:343,1,64.9999976158143,2|0,0:2|0:0,0:0:0:0:
394,204,9150,2,0,P|400:172|384:145,1,64.9999976158143,2|0,0:2|3:2,0:0:0:0:
315,107,9400,5,2,0:2:0:0:
311,187,9525,1,8,0:2:0:0:
311,187,9650,1,2,3:2:0:0:
64,25,10025,6,0,L|79:116,1,64.9999976158143,2|0,3:2|0:0,0:0:0:0:
152,123,10525,6,0,L|137:214,1,64.9999976158143,2|0,3:2|0:0,0:0:0:0:
223,211,11025,6,0,L|238:302,1,64.9999976158143,2|0,3:2|0:0,0:0:0:0:
251,352,11275,1,0,3:2:0:0:
320,157,11525,6,0,L|305:248,1,64.9999976158143,2|0,3:2|3:2,0:0:0:0:
251,109,11775,1,0,3:2:0:0:
251,109,11900,1,0,3:2:0:0:
389,45,12025,6,0,L|410:176,1,129.999995231629,4|0,3:2|3:2,0:0:0:0:
292,350,12525,1,10,0:2:0:0:
292,350,12650,2,0,P|258:326|216:329,1,64.9999976158143,2|0,0:2|0:0,0:0:0:0:
355,292,12900,2,0,P|389:268|431:271,1,64.9999976158143,2|0,0:2|0:0,0:0:0:0:
265,186,13150,2,0,P|283:212|286:244,1,64.9999976158143,2|0,0:2|3:2,0:0:0:0:
157,354,13400,5,2,0:2:0:0:
117,285,13525,1,8,0:2:0:0:
159,219,13650,2,0,P|223:226|302:251,1,129.999995231629,2|0,3:2|0:0,0:0:0:0:
355,291,14025,1,2,3:2:0:0:
101,284,14275,1,0,3:2:0:0:
358,94,14525,5,10,0:2:0:0:
358,94,14650,2,0,P|389:99|414:120,1,64.9999976158143,2|0,0:2|0:0,0:0:0:0:
471,176,14900,2,0,P|446:196|414:202,1,64.9999976158143,2|0,0:2|0:0,0:0:0:0:
301,154,15150,2,0,P|280:129|274:97,1,64.9999976158143,2|0,0:2|3:2,0:0:0:0:
470,24,15400,5,2,0:2:0:0:
484,99,15525,1,8,0:2:0:0:
471,176,15650,2,0,P|455:237|427:312,1,129.999995231629,2|0,3:2|0:0,0:0:0:0:
313,357,16025,6,0,B|281:362|251:344|261:341|233:308|182:325,1,129.999995231629,2|0,3:2|3:2,0:0:0:0:
312,282,16400,1,2,0:2:0:0:
138,270,16525,2,0,P|115:312|127:352,1,64.9999976158143,10|0,0:2|0:0,0:0:0:0:
318,265,16775,2,0,P|315:233|295:207,1,64.9999976158143,2|2,0:2|0:2,0:0:0:0:
151,136,17025,6,0,B|123:131|100:149|100:149|140:212|215:193,1,181.999987770081,2|0,0:2|3:2,0:0:0:0:
234,114,17400,1,2,0:2:0:0:
123,56,17525,2,0,P|72:70|37:96,1,84.4999930324558,8|0,0:2|3:2,0:0:0:0:
292,171,17775,2,0,P|343:157|377:130,1,84.4999930324558,2|0,0:2|0:0,0:0:0:0:
200,22,18025,5,2,3:2:0:0:
200,22,18400,1,2,0:2:0:0:
191,101,18525,2,0,L|172:240,1,103.999996185303,10|2,0:2|0:2,0:0:0:0:
396,280,19025,6,0,L|377:141,1,103.999996185303,2|0,3:2|0:0,0:0:0:0:
309,202,19400,1,2,0:2:0:0:
309,202,19525,2,0,L|318:274,1,51.9999980926514,10|0,2:2|0:0,0:0:0:0:
470,310,19775,2,0,L|477:258,1,51.9999980926514,2|0,0:2|0:0,0:0:0:0:
477,32,20025,5,6,0:2:0:0:
384,153,20275,1,2,0:2:0:0:
219,177,20525,1,10,0:2:0:0:
74,86,20775,1,2,0:2:0:0:
121,26,21025,6,0,P|146:51|152:85,1,64.9999976158143,2|0,3:2|0:0,0:0:0:0:
219,177,21275,2,0,P|176:244|96:261,1,129.999995231629,2|8,3:2|0:2,0:0:0:0:
224,26,21775,6,0,P|281:54|311:110,1,129.999995231629,2|0,0:2|3:2,0:0:0:0:
124,333,22275,2,0,P|66:304|36:248,1,129.999995231629,2|8,0:2|0:2,0:0:0:0:
439,45,22775,6,0,P|412:136|408:176,1,129.999995231629,2|0,0:2|3:2,0:0:0:0:
264,376,23275,2,0,P|254:311|233:250,1,129.999995231629,2|8,3:2|0:2,0:0:0:0:
143,18,23775,5,2,0:2:0:0:
59,143,24025,2,0,P|99:156|153:145,1,64.9999976158143,0|0,3:2|0:0,0:0:0:0:
203,123,24275,1,2,0:2:0:0:
12,61,24525,1,10,0:2:0:0:
12,61,25025,5,2,3:2:0:0:
92,230,25275,1,2,3:2:0:0:
288,277,25525,1,8,0:2:0:0:
448,154,25775,1,2,0:2:0:0:
78,137,26025,5,8,0:2:0:0:
78,137,28025,6,0,L|169:148,1,90.9999938850405,6|0,0:2|0:0,0:0:0:0:
319,72,28275,2,0,L|228:83,1,90.9999938850405,2|0,0:2|0:0,0:0:0:0:
19,86,28525,2,0,P|-1:145|21:192,1,90.9999938850405,10|0,0:2|0:0,0:0:0:0:
240,247,28775,2,0,P|260:188|238:141,1,90.9999938850405,2|0,0:2|0:0,0:0:0:0:
98,20,29025,5,2,3:2:0:0:
109,108,29150,1,2,0:2:0:0:
120,196,29275,1,2,3:2:0:0:
131,284,29400,1,2,0:2:0:0:
204,177,29525,6,0,L|215:86,1,90.9999938850405,10|0,0:2|0:0,0:0:0:0:
48,257,29775,2,0,P|41:301|60:341,1,90.9999938850405,2|0,0:2|0:0,0:0:0:0:
301,355,30025,5,2,3:2:0:0:
318,274,30150,1,2,0:2:0:0:
237,257,30275,1,2,0:2:0:0:
220,338,30400,1,2,0:2:0:0:
386,329,30525,6,0,L|477:318,1,90.9999938850405,10|0,0:2|0:0,0:0:0:0:
306,109,30775,2,0,P|286:149|293:193,1,90.9999938850405,2|0,0:2|0:0,0:0:0:0:
504,243,31025,5,2,3:2:0:0:
348,40,31275,1,2,3:2:0:0:
84,96,31525,1,10,0:2:0:0:
375,211,31775,2,0,P|395:170|387:126,1,90.9999938850405,2|0,0:2|0:0,0:0:0:0:
144,1,32025,6,0,P|175:99|189:180,1,155.999989517212,2|0,3:2|0:0,0:0:0:0:
182,242,32400,1,0,0:0:0:0:
61,169,32525,2,0,P|66:130|83:95,1,77.9999947586062,10|0,0:2|0:0,0:0:0:0:
272,237,32775,2,0,P|267:275|250:310,1,77.9999947586062,2|0,0:2|0:0,0:0:0:0:
3,230,33025,5,2,3:2:0:0:
252,100,33275,1,2,3:2:0:0:
95,338,33525,2,0,L|77:240,1,77.9999947586062,10|0,0:2|0:0,0:0:0:0:
61,169,33775,2,0,L|43:71,1,77.9999947586062,2|0,0:2|0:0,0:0:0:0:
386,31,34025,5,10,0:2:0:0:
360,297,34275,1,2,0:2:0:0:
94,271,34525,1,2,0:2:0:0:
120,5,34775,1,2,3:2:0:0:
297,233,35025,5,2,0:2:0:0:
226,266,35150,1,0,3:2:0:0:
164,222,35275,1,0,0:0:0:0:
320,159,35524,2,0,B|357:163|372:197|372:197|388:232|429:233,1,129.999995231629,2|0,3:2|3:2,0:0:0:0:
166,89,36025,5,6,0:2:0:0:
116,155,36150,1,2,0:2:0:0:
164,222,36275,1,2,0:2:0:0:
242,196,36400,1,2,0:2:0:0:
243,115,36525,2,0,P|241:65|206:18,1,90.9999938850405,10|0,0:2|0:0,0:0:0:0:
35,132,36775,2,0,P|36:181|71:228,1,90.9999938850405,2|0,0:2|0:0,0:0:0:0:
173,305,37025,5,2,3:2:0:0:
104,10,37275,1,2,3:2:0:0:
176,322,37525,2,0,B|193:378|244:373|287:350|272:290|272:290|241:151,1,272.999981655122,10|0,0:2|0:0,0:0:0:0:
127,67,38025,5,2,3:2:0:0:
211,84,38150,1,2,0:2:0:0:
297,103,38275,1,2,0:2:0:0:
381,123,38400,1,2,0:2:0:0:
465,142,38525,2,0,L|450:20,1,90.9999938850405,10|0,0:2|0:0,0:0:0:0:
276,277,38775,2,0,L|288:163,1,90.9999938850405,2|0,0:2|0:0,0:0:0:0:
491,305,39025,5,2,3:2:0:0:
300,87,39275,1,2,3:2:0:0:
46,180,39525,1,10,0:2:0:0:
227,300,39775,2,0,P|279:296|319:260,1,90.9999938850405,2|0,0:2|0:0,0:0:0:0:
231,59,40025,6,0,B|184:54|164:3|164:3|179:55|143:108,1,181.999987770081,2|2,3:2|0:2,0:0:0:0:
219,134,40400,1,0,3:2:0:0:
81,224,40525,6,0,B|128:219|148:168|148:168|132:220|168:273,1,181.999987770081,10|2,0:2|0:2,0:0:0:0:
94,300,40900,1,0,0:0:0:0:
323,312,41025,6,0,B|360:318|382:251|349:230|264:206|217:302,1,220.999996109009,2|2,3:2|3:2,0:0:0:0:
167,334,41400,1,2,0:2:0:0:
391,370,41525,6,0,P|433:369|502:347,1,90.9999938850405,10|0,0:2|0:0,0:0:0:0:
248,143,41775,2,0,P|236:186|235:232,1,90.9999938850405,0|0,3:2|0:0,0:0:0:0:
421,20,42025,5,6,0:2:0:0:
292,107,44025,6,0,P|292:158|350:215,1,97.5000001430512,6|0,0:2|0:0,0:0:0:0:
246,235,44275,2,0,P|282:271|362:270,1,97.5000001430512,2|0,3:2|0:0,0:0:0:0:
374,138,44525,5,10,0:2:0:0:
304,359,44650,2,0,P|354:359|411:301,1,97.5000001430512,2|0,0:2|0:0,0:0:0:0:
293,95,44900,6,0,P|252:68|204:69,1,97.5000001430512,2|0,0:2|3:2,0:0:0:0:
459,251,45150,2,0,P|471:200|475:151,1,97.5000001430512,2|0,0:2|3:2,0:0:0:0:
167,336,45400,2,0,P|155:285|151:236,1,97.5000001430512,2|8,0:2|0:0,0:0:0:0:
375,46,45650,5,2,0:2:0:0:
380,139,45775,1,2,0:0:0:0:
375,46,45900,1,2,0:0:0:0:
297,98,46025,6,0,B|264:130|215:100|215:100|162:69|103:128,1,175.499988206864,14|0,0:2|0:0,0:0:0:0:
153,266,46525,6,0,B|158:286|148:324|148:324|215:283|204:204|160:135,1,233.999984275818,14|0,0:2|3:2,0:0:0:0:
66,62,47025,6,0,P|59:128|95:173,1,97.5000001430512,14|0,0:2|0:0,0:0:0:0:
3,191,47275,2,0,P|38:223|85:230,1,97.5000001430512,0|0,3:2|3:2,0:0:0:0:
300,172,47525,5,14,0:2:0:0:
285,86,47650,1,0,3:2:0:0:
204,56,47775,1,0,3:2:0:0:
133,103,47900,1,0,3:2:0:0:
248,239,48025,6,0,B|308:281|396:276|396:276|364:257|358:193,1,207.999992370606,14|2,3:2|3:2,0:0:0:0:
374,159,48400,1,0,0:0:0:0:
374,159,48525,2,0,P|380:124|394:85,1,64.9999976158143,10|0,0:2|0:0,0:0:0:0:
489,277,48775,2,0,P|478:217|453:150,1,129.999995231629,2|2,0:2|0:2,0:0:0:0:
224,23,49275,6,0,P|233:53|239:85,1,64.9999976158143,0|2,3:2|0:2,0:0:0:0:
148,152,49525,2,0,P|157:121|163:89,1,64.9999976158143,8|2,0:2|3:2,0:0:0:0:
68,34,49775,2,0,P|77:64|83:96,1,64.9999976158143,2|0,0:2|0:0,0:0:0:0:
119,227,50025,5,2,3:2:0:0:
268,97,50275,1,0,3:2:0:0:
0,63,50525,1,10,0:2:0:0:
224,202,50775,1,2,0:2:0:0:
0,357,51025,6,0,B|36:371|61:346|61:346|95:313|161:333,1,129.999995231629,2|2,0:2|3:2,0:0:0:0:
303,238,51525,2,0,L|284:360,1,64.9999976158143,10|2,0:2|3:2,0:0:0:0:
216,352,51775,2,0,L|197:230,1,64.9999976158143,2|0,2:2|0:0,0:0:0:0:
282,153,52025,6,0,P|327:119|417:144,1,129.999995231629,2|2,3:2|3:2,0:0:0:0:
462,180,52400,1,0,0:0:0:0:
462,180,52525,2,0,P|453:213|449:243,1,64.9999976158143,10|0,0:2|0:0,0:0:0:0:
363,232,52775,2,0,P|372:265|376:295,1,64.9999976158143,2|2,0:2|0:2,0:0:0:0:
288,178,53025,5,2,2:2:0:0:
452,321,53275,1,2,3:2:0:0:
249,361,53525,2,0,P|203:362|180:344,1,64.9999976158143,10|2,0:2|3:2,0:0:0:0:
112,345,53775,2,0,P|95:302|104:274,1,64.9999976158143,2|0,2:2|0:0,0:0:0:0:
159,223,54025,6,0,L|320:242,1,116.999992137909,2|0,3:2|0:0,0:0:0:0:
138,78,54525,1,2,3:2:0:0:
243,139,54775,2,0,L|137:151,1,58.4999960689546,2|0,2:2|0:0,0:0:0:0:
109,153,55025,5,2,3:2:0:0:
276,58,55275,1,0,3:2:0:0:
413,165,55525,1,0,3:2:0:0:
351,209,55775,2,0,P|336:173|339:138,1,58.4999960689546,2|0,3:2|3:2,0:0:0:0:
480,32,56025,5,4,3:2:0:0:
480,32,56275,2,0,L|488:115,1,71.4999995594025,2|2,3:2|2:2,0:0:0:0:
497,180,56525,1,10,0:2:0:0:
405,89,56650,1,2,0:2:0:0:
405,89,56900,6,0,P|381:73|334:80,1,71.4999995594025,2|0,0:2|0:0,0:0:0:0:
251,30,57150,2,0,P|226:44|212:90,1,71.4999995594025,2|0,0:2|3:2,0:0:0:0:
131,144,57400,2,0,P|133:172|168:204,1,71.4999995594025,2|8,0:2|0:2,0:0:0:0:
239,183,57650,1,2,3:2:0:0:
239,183,57775,1,2,2:2:0:0:
52,64,58025,5,2,3:2:0:0:
120,276,58275,1,2,3:2:0:0:
257,23,58525,1,10,0:2:0:0:
392,276,58775,2,0,L|414:202,1,71.4999995594025,2|2,2:2|0:2,0:0:0:0:
460,64,59025,5,2,2:2:0:0:
256,249,59275,1,2,3:2:0:0:
52,64,59525,1,10,0:2:0:0:
52,64,60025,6,0,P|126:84|176:132,1,142.999999118805,2|0,3:2|3:2,0:0:0:0:
211,57,60400,1,2,0:2:0:0:
241,171,60525,2,0,P|221:245|173:295,1,142.999999118805,10|2,0:2|0:2,0:0:0:0:
248,330,60900,1,2,0:2:0:0:
133,359,61025,6,0,P|97:310|127:251,2,71.4999995594025,2|0|0,0:2|0:0|3:2,0:0:0:0:
133,229,61400,1,2,0:2:0:0:
56,236,61525,2,0,P|29:259|21:294,1,71.4999995594025,8|0,0:2|3:2,0:0:0:0:
211,220,61775,2,0,P|202:185|175:162,1,71.4999995594025,2|0,0:2|0:0,0:0:0:0:
67,118,62025,5,2,3:2:0:0:
180,299,62275,1,2,2:2:0:0:
403,205,62525,1,10,0:2:0:0:
152,29,62775,2,0,L|174:193,1,116.999992137909,2|2,0:2|3:2,0:0:0:0:
265,294,63275,1,2,2:2:0:0:
431,114,63525,2,0,L|221:85,1,175.499988206864,10|0,2:2|0:0,0:0:0:0:
53,64,64025,5,6,0:2:0:0:
311,12,64275,1,2,0:2:0:0:
363,270,64525,1,10,0:2:0:0:
105,322,64775,1,2,0:2:0:0:
127,241,65025,6,0,L|213:255,1,71.4999995594025,2|0,3:2|0:0,0:0:0:0:
307,358,65275,2,0,L|453:334,1,142.999999118805,2|8,3:2|0:2,0:0:0:0:
214,18,65775,6,0,P|198:99|171:174,1,142.999999118805,2|0,0:2|3:2,0:0:0:0:
420,258,66275,2,0,P|397:190|384:119,1,142.999999118805,2|8,0:2|0:2,0:0:0:0:
31,210,66775,6,0,P|92:199|115:183,1,71.4999995594025,2|0,0:2|0:0,0:0:0:0:
185,153,67025,1,0,3:2:0:0:
134,299,67275,2,0,P|169:248|174:220,1,71.4999995594025,2|0,3:2|0:0,0:0:0:0:
112,103,67525,1,8,0:2:0:0:
270,276,67775,2,0,P|259:215|243:192,1,71.4999995594025,2|0,0:2|0:0,0:0:0:0:
28,72,68025,5,0,3:2:0:0:
51,353,68275,1,2,0:2:0:0:
339,320,68525,1,10,0:2:0:0:
339,320,69025,5,2,3:2:0:0:
460,169,69275,1,2,3:2:0:0:
310,15,69525,1,8,0:2:0:0:
128,51,69775,1,2,0:2:0:0:
431,286,70025,5,10,0:2:0:0:
436,280,70275,1,0,0:0:0:0:
442,274,70525,1,2,0:2:0:0:
379,227,70650,5,2,0:0:0:0:
379,227,72025,6,0,P|341:226|288:216,1,90.9999938850405,6|0,0:2|0:0,0:0:0:0:
235,107,72275,2,0,P|279:98|324:96,1,90.9999938850405,2|0,0:2|0:0,0:0:0:0:
435,167,72525,2,0,P|461:204|461:248,1,90.9999938850405,10|0,0:2|0:0,0:0:0:0:
230,280,72775,2,0,P|203:242|203:198,1,90.9999938850405,2|0,0:2|0:0,0:0:0:0:
392,25,73025,5,2,3:2:0:0:
452,84,73150,1,2,0:2:0:0:
371,108,73275,1,2,3:2:0:0:
311,49,73400,1,2,0:2:0:0:
435,167,73525,6,0,L|446:285,1,90.9999938850405,10|0,0:2|0:0,0:0:0:0:
230,280,73775,2,0,L|221:189,1,90.9999938850405,2|0,0:2|0:0,0:0:0:0:
372,381,74025,5,2,3:2:0:0:
318,310,74150,1,2,0:2:0:0:
221,288,74275,1,2,0:2:0:0:
130,325,74400,1,2,0:2:0:0:
201,188,74525,6,0,P|207:129|192:37,1,90.9999938850405,10|0,0:2|0:0,0:0:0:0:
34,286,74775,2,0,P|32:331|38:376,1,90.9999938850405,2|0,0:2|0:0,0:0:0:0:
302,174,75025,5,2,3:2:0:0:
92,26,75275,1,2,3:2:0:0:
17,278,75525,1,10,0:2:0:0:
366,228,75775,2,0,P|386:187|378:143,1,90.9999938850405,2|0,0:2|0:0,0:0:0:0:
208,92,76025,6,0,P|110:123|29:137,1,155.999989517212,2|0,3:2|0:0,0:0:0:0:
0,77,76400,1,0,0:0:0:0:
207,11,76525,2,0,P|268:38|288:71,1,77.9999947586062,10|0,0:2|0:0,0:0:0:0:
207,234,76775,2,0,P|146:207|126:174,1,77.9999947586062,2|0,0:2|0:0,0:0:0:0:
116,9,77025,5,2,3:2:0:0:
335,153,77275,1,2,3:2:0:0:
190,353,77525,2,0,L|102:342,1,77.9999947586062,10|0,0:2|0:0,0:0:0:0:
124,266,77775,2,0,L|201:275,1,77.9999947586062,2|0,0:2|0:0,0:0:0:0:
401,372,78025,5,10,0:2:0:0:
112,343,78275,1,2,0:2:0:0:
140,55,78525,1,2,0:2:0:0:
429,83,78775,1,2,3:2:0:0:
239,282,79025,5,2,0:2:0:0:
317,271,79150,1,0,3:2:0:0:
270,209,79275,1,0,0:0:0:0:
163,303,79525,2,0,P|202:352|265:358,1,129.999995231629,2|0,3:2|3:2,0:0:0:0:
452,96,80025,5,6,0:2:0:0:
391,26,80150,1,2,0:2:0:0:
361,113,80275,1,2,0:2:0:0:
300,43,80400,1,2,0:2:0:0:
270,130,80525,2,0,P|262:181|259:250,1,90.9999938850405,10|0,0:2|0:0,0:0:0:0:
108,94,80775,2,0,P|104:48|97:3,1,90.9999938850405,2|0,0:2|0:0,0:0:0:0:
47,301,81025,5,2,3:2:0:0:
360,203,81275,1,2,3:2:0:0:
62,317,81525,2,0,B|119:273|188:328|188:328|252:377|321:320,1,272.999981655122,10|0,0:2|0:0,0:0:0:0:
360,203,82025,5,2,3:2:0:0:
337,118,82150,1,2,0:2:0:0:
254,97,82275,1,2,0:2:0:0:
192,160,82400,1,2,0:2:0:0:
215,245,82525,2,0,L|242:356,1,90.9999938850405,10|0,0:2|0:0,0:0:0:0:
345,101,82775,2,0,L|371:-4,1,90.9999938850405,2|0,0:2|0:0,0:0:0:0:
117,231,83025,5,2,3:2:0:0:
450,132,83275,1,2,3:2:0:0:
162,25,83525,1,10,0:2:0:0:
329,276,83775,2,0,P|374:285|417:251,1,90.9999938850405,2|0,0:2|0:0,0:0:0:0:
378,45,84025,6,0,B|346:26|334:-2|334:-2|309:64|361:157,1,181.999987770081,2|2,3:2|0:2,0:0:0:0:
381,184,84400,1,0,3:2:0:0:
158,187,84525,6,0,B|139:155|111:143|111:143|177:118|270:170,1,181.999987770081,10|2,0:2|0:2,0:0:0:0:
297,190,84900,1,0,0:0:0:0:
122,281,85025,6,0,P|99:146|89:51,1,220.999996109009,2|2,3:2|3:2,0:0:0:0:
162,22,85400,1,2,0:2:0:0:
211,248,85525,6,0,P|208:293|198:337,1,90.9999938850405,10|0,0:2|0:0,0:0:0:0:
0,196,85775,2,0,P|3:150|13:106,1,90.9999938850405,0|0,3:2|0:0,0:0:0:0:
413,27,86025,5,6,0:2:0:0:
413,27,87525,6,0,B|406:86|406:86|410:90|410:90|403:159,1,116.999992137909,2|0,3:2|0:0,0:0:0:0:
317,237,88025,6,0,P|376:287|440:264,1,107.249997088909,6|0,0:2|0:0,0:0:0:0:
236,154,88275,2,0,P|222:231|273:275,1,107.249997088909,2|0,3:2|0:0,0:0:0:0:
459,227,88525,5,10,0:2:0:0:
267,42,88650,2,0,P|193:68|181:135,1,107.249997088909,2|0,0:2|0:0,0:0:0:0:
469,210,88900,6,0,P|451:150|447:100,1,107.249997088909,2|0,0:2|3:2,0:0:0:0:
248,276,89150,2,0,P|242:329|225:380,1,107.249997088909,2|0,0:2|3:2,0:0:0:0:
98,119,89400,1,2,0:2:0:0:
329,207,89525,6,0,B|355:222|355:222|330:333,1,116.999992137909,8|2,0:0|0:2,0:0:0:0:
112,200,89775,1,2,0:0:0:0:
320,123,89900,1,2,0:0:0:0:
423,330,90025,1,14,0:2:0:0:
