osu file format v14

[General]
AudioFilename: audio.mp3
AudioLeadIn: 0
PreviewTime: 26378
Countdown: 0
SampleSet: Soft
StackLeniency: 0.5
Mode: 0
LetterboxInBreaks: 0
WidescreenStoryboard: 1

[Editor]
Bookmarks: 89983,94858
DistanceSpacing: 1.1
BeatDivisor: 4
GridSize: 4
TimelineZoom: 1.2

[Metadata]
Title:CALL ME, BEEP ME! (The KIM POSSIBLE Song) (Cut Ver.)
TitleUnicode:CALL ME, BEEP ME! (The KIM POSSIBLE Song) (Cut Ver.)
Artist:Christina Milian
ArtistUnicode:Christina Milian
Creator:Seolv
Version:Qiyanolv's Normal
Source:Kim Possible
Tags:english pop r&b cartoon disney channel opening theme short version tv size christy carlson romano milan lukas [_l_u_k_a_s_] paradogi sylas thekoala qiyana dylbyl dyl-byl aistre alphabet venax
BeatmapID:2899186
BeatmapSetID:1405908

[Difficulty]
HPDrainRate:3
CircleSize:3.5
OverallDifficulty:4.5
ApproachRate:5.3
SliderMultiplier:1.59999990463257
SliderTickRate:1

[Events]
//Background and Video events
0,0,"thumb-1920-879128.png",0,0
//Break Periods
//Storyboard Layer 0 (Background)
//Storyboard Layer 1 (Fail)
//Storyboard Layer 2 (Pass)
//Storyboard Layer 3 (Foreground)
//Storyboard Layer 4 (Overlay)
//Storyboard Sound Samples

[TimingPoints]
2025,500,4,2,1,80,1,0
2025,-100,4,2,1,80,0,0
2525,-100,4,2,1,80,0,0
3025,-100,4,2,1,80,0,0
4275,-100,4,2,1,60,0,0
4525,-100,4,2,1,60,0,0
20025,-100,4,2,1,70,0,0
23775,-100,4,2,1,80,0,0
26525,-100,4,2,1,60,0,0
28025,-100,4,2,1,90,0,1
34275,-100,4,2,1,80,0,1
36025,-100,4,2,1,90,0,1
42025,-100,4,2,1,90,0,0
42275,-100,4,2,1,60,0,0
44025,-100,4,2,1,80,0,1
48025,-100,4,2,1,80,0,0
48275,-100,4,2,1,60,0,0
64025,-100,4,2,1,70,0,0
67775,-100,4,2,1,80,0,0
70525,-100,4,2,1,60,0,0
71025,-100,4,2,1,40,0,0
72025,-100,4,2,1,90,0,1
78275,-100,4,2,1,80,0,1
80025,-100,4,2,1,90,0,1
86025,-100,4,2,1,90,0,0
86275,-100,4,2,1,70,0,0
88025,-100,4,2,1,80,0,1
89525,-100,4,2,1,90,0,1
90025,-100,4,2,1,90,0,0
94525,-100,4,2,1,90,0,0

[Colours]
Combo1 : 79,81,162
Combo2 : 158,41,12
Combo3 : 255,217,85
Combo4 : 242,170,175

[HitObjects]
384,361,2025,6,0,P|401:317|386:277,1,79.9999952316285,14|0,0:2|0:0,0:0:0:0:
337,228,2525,2,0,P|329:189|345:153,1,79.9999952316285,14|0,0:2|0:0,0:0:0:0:
407,103,3025,2,0,L|248:125,1,159.999990463257,14|14,0:2|3:2,0:0:0:0:
183,86,3775,1,14,0:2:0:0:
183,86,4025,1,4,3:2:0:0:
26,51,4525,6,0,P|65:81|67:191,1,159.999990463257,10|0,0:2|0:0,0:0:0:0:
35,256,5275,2,0,P|90:235|177:222,2,119.999992847443,0|2|2,3:2|3:2|3:2,0:0:0:0:
158,358,6525,6,0,L|327:386,1,159.999990463257,10|0,0:2|0:0,0:0:0:0:
388,350,7275,2,0,B|419:316|419:316|393:244,1,119.999992847443,0|2,3:2|3:2,0:0:0:0:
350,139,8025,5,2,3:2:0:0:
350,139,8275,1,0,3:2:0:0:
353,59,8525,2,0,P|429:39|484:97,1,159.999990463257,10|0,0:2|0:0,0:0:0:0:
450,164,9275,2,0,L|432:282,1,119.999992847443,0|2,3:2|3:2,0:0:0:0:
348,368,10025,5,2,3:2:0:0:
195,319,10525,1,2,3:2:0:0:
46,358,11025,1,2,3:2:0:0:
46,358,11275,1,0,3:2:0:0:
46,358,11525,2,0,L|36:272,1,79.9999952316285,2|0,3:2|3:2,0:0:0:0:
28,198,12025,1,4,3:2:0:0:
89,50,12525,6,0,P|147:108|226:96,1,159.999990463257,10|0,0:2|0:0,0:0:0:0:
252,27,13275,2,0,L|378:2,2,119.999992847443,0|2|2,3:2|3:2|3:2,0:0:0:0:
137,139,14525,6,0,P|142:202|122:312,1,159.999990463257,10|0,0:2|0:0,0:0:0:0:
71,355,15275,2,0,B|54:330|31:315|31:315|46:284|52:249,1,119.999992847443,0|2,3:2|3:2,0:0:0:0:
125,161,16025,5,2,3:2:0:0:
125,161,16275,1,0,3:2:0:0:
186,109,16525,2,0,B|244:125|244:125|264:162|264:162|330:175,1,159.999990463257,10|2,0:2|0:2,0:0:0:0:
394,142,17275,2,0,P|420:94|385:28,1,119.999992847443,0|0,3:2|3:2,0:0:0:0:
277,21,18025,6,0,B|220:10|202:53|204:53|189:92|121:78,2,159.999990463257,2|10|2,3:2|0:2|3:2,0:0:0:0:
374,148,19525,2,0,L|385:237,1,79.9999952316285,10|2,2:2|0:2,0:0:0:0:
393,306,20025,6,0,P|336:259|246:284,1,159.999990463257,6|10,0:2|0:2,0:0:0:0:
219,347,20775,1,2,0:2:0:0:
219,347,21025,2,0,L|128:333,1,79.9999952316285,2|2,3:2|3:2,0:0:0:0:
65,322,21525,1,8,0:2:0:0:
65,322,21775,2,0,L|94:141,1,159.999990463257,2|2,0:2|0:2,0:0:0:0:
199,47,22775,5,2,0:2:0:0:
199,47,23025,2,0,L|213:141,1,79.9999952316285,0|2,3:2|3:2,0:0:0:0:
225,209,23525,1,8,0:2:0:0:
225,209,23775,6,0,P|287:144|370:153,1,159.999990463257,2|2,0:2|0:2,0:0:0:0:
419,188,24525,1,10,0:2:0:0:
363,337,25025,2,0,L|275:324,2,79.9999952316285,2|2|8,3:2|3:2|0:2,0:0:0:0:
446,351,25775,1,2,0:2:0:0:
446,351,26025,1,8,0:2:0:0:
386,16,28025,6,0,P|405:60|392:104,1,79.9999952316285,6|2,0:2|0:2,0:0:0:0:
345,160,28525,2,0,P|340:199|358:234,1,79.9999952316285,10|2,0:2|0:2,0:0:0:0:
424,301,29025,1,2,3:2:0:0:
424,301,29275,1,2,3:2:0:0:
367,368,29525,2,0,L|279:354,1,79.9999952316285,10|2,0:2|0:2,0:0:0:0:
238,282,30025,6,0,L|150:268,2,79.9999952316285,2|2|10,3:2|0:2|0:2,0:0:0:0:
309,230,30775,1,2,0:2:0:0:
238,177,31025,2,0,P|195:108|237:26,1,159.999990463257,2|10,3:2|0:2,0:0:0:0:
394,16,32025,6,0,P|437:85|395:167,1,159.999990463257,2|10,3:2|0:2,0:0:0:0:
369,231,32775,1,2,0:2:0:0:
286,201,33025,2,0,P|238:202|199:232,1,79.9999952316285,2|2,3:2|3:2,0:0:0:0:
180,300,33525,2,0,P|144:318|105:316,1,79.9999952316285,10|2,0:2|0:2,0:0:0:0:
34,264,34025,6,0,B|4:183|60:163|62:168|117:118|67:40,1,239.999985694885,10|2,0:2|3:2,0:0:0:0:
190,39,35150,2,0,B|249:47|249:47|255:51|255:51|312:60,1,119.999992847443,0|2,3:2|3:2,0:0:0:0:
430,161,36025,6,0,P|449:208|434:246,2,79.9999952316285,6|2|10,0:2|0:2|0:2,0:0:0:0:
354,115,36775,1,2,0:2:0:0:
315,193,37025,2,0,P|308:231|326:266,1,79.9999952316285,2|2,3:2|3:2,0:0:0:0:
398,316,37525,1,10,0:2:0:0:
226,357,38025,6,0,L|143:341,2,79.9999952316285,2|2|10,3:2|0:2|0:2,0:0:0:0:
271,281,38775,1,2,0:2:0:0:
215,212,39025,2,0,L|199:129,1,79.9999952316285,2|2,3:2|3:2,0:0:0:0:
185,50,39525,1,10,0:2:0:0:
185,50,39775,1,2,0:2:0:0:
261,5,40025,6,0,P|329:50|415:31,2,159.999990463257,2|10|2,3:2|0:2|3:2,0:0:0:0:
119,101,41525,2,0,L|106:211,1,79.9999952316285,10|0,0:2|3:2,0:0:0:0:
98,259,42025,1,6,0:2:0:0:
341,329,44025,6,0,P|386:351|478:267,2,159.999990463257,6|10|0,0:2|0:2|3:2,0:0:0:0:
289,264,45275,1,0,3:2:0:0:
289,264,45525,2,0,L|175:288,1,79.9999952316285,8|2,0:0|0:0,0:0:0:0:
140,227,46025,5,14,0:2:0:0:
283,125,46525,1,14,0:2:0:0:
417,246,47025,1,14,0:2:0:0:
417,246,47275,2,0,L|407:331,2,79.9999952316285,0|14|0,3:2|0:2|3:2,0:0:0:0:
427,158,48025,5,14,3:2:0:0:
368,92,48275,2,0,P|330:111|287:102,1,79.9999952316285,2|10,3:2|0:2,0:0:0:0:
242,36,48775,2,0,P|207:105|240:174,1,159.999990463257,2|0,0:2|3:2,0:0:0:0:
310,228,49525,1,8,0:2:0:0:
202,373,50025,6,0,B|160:384|160:384|126:368,1,79.9999952316285,2|0,3:2|3:2,0:0:0:0:
68,302,50526,2,0,L|70:222,1,79.9999952316285,10|2,0:2|0:2,0:0:0:0:
0,169,51025,2,0,P|69:134|138:167,1,159.999990463257,2|10,0:2|0:2,0:0:0:0:
260,295,52025,6,0,P|329:329|398:296,1,159.999990463257,2|10,3:2|0:2,0:0:0:0:
449,223,52775,1,2,0:2:0:0:
387,160,53025,2,0,P|361:124|362:72,1,79.9999952316285,2|2,2:2|3:2,0:0:0:0:
421,29,53525,1,10,0:2:0:0:
421,29,53775,1,2,2:2:0:0:
494,78,54025,6,0,L|492:259,1,159.999990463257,2|2,3:2|3:2,0:0:0:0:
432,302,54775,1,2,2:2:0:0:
432,302,55025,2,0,B|392:286|350:302|361:312|321:332|278:313,1,159.999990463257,2|0,3:2|3:2,0:0:0:0:
126,216,56025,6,0,B|116:178|116:178|130:139,1,79.9999952316285,4|2,3:2|3:2,0:0:0:0:
199,85,56525,2,0,P|130:50|60:83,2,159.999990463257,10|0|8,0:2|0:0|0:2,0:0:0:0:
284,64,57775,1,2,2:2:0:0:
340,131,58025,2,0,L|336:214,1,79.9999952316285,2|2,3:2|3:2,0:0:0:0:
401,277,58525,1,10,0:2:0:0:
401,277,58775,1,2,2:2:0:0:
469,331,59025,2,0,P|399:364|330:329,1,159.999990463257,2|10,2:2|0:2,0:0:0:0:
220,192,60025,6,0,B|162:186|162:186|127:205|127:205|58:195,1,159.999990463257,2|10,3:2|0:2,0:0:0:0:
0,136,60775,1,2,0:2:0:0:
54,67,61025,2,0,B|81:53|88:19|88:19|105:49|141:51,2,119.999992847443,2|2|2,0:2|0:2|0:2,0:0:0:0:
0,136,62025,2,0,P|-25:197|37:286,1,159.999990463257,2|10,3:2|0:2,0:0:0:0:
88,325,62775,1,2,0:2:0:0:
88,325,63025,2,0,B|128:309|170:325|159:335|199:355|242:336,1,159.999990463257,2|10,3:2|2:2,0:0:0:0:
419,310,64025,6,0,B|441:259|441:259|416:156,1,159.999990463257,6|10,0:2|0:2,0:0:0:0:
454,80,64775,1,2,0:2:0:0:
454,80,65025,2,0,P|416:69|377:79,1,79.9999952316285,2|2,3:2|3:2,0:0:0:0:
307,131,65525,1,8,0:2:0:0:
307,131,65775,2,0,P|226:98|255:51,1,159.999990463257,2|2,0:2|0:2,0:0:0:0:
80,1,66775,6,0,L|80:162,1,159.999990463257,2|2,0:2|3:2,0:0:0:0:
7,209,67525,1,8,0:2:0:0:
7,209,67775,2,0,P|62:244|161:198,1,159.999990463257,2|2,0:2|0:2,0:0:0:0:
217,164,68525,1,10,0:2:0:0:
384,217,69025,2,0,L|389:138,2,79.9999952316285,2|2|8,3:2|3:2|0:2,0:0:0:0:
461,261,69775,2,0,L|466:340,1,79.9999952316285,2|10,0:2|0:2,0:0:0:0:
467,341,72025,6,0,P|433:322|390:328,1,79.9999952316285,6|2,0:2|0:2,0:0:0:0:
308,301,72525,2,0,P|274:320|231:314,1,79.9999952316285,10|2,0:2|0:2,0:0:0:0:
157,272,73025,1,2,3:2:0:0:
77,309,73275,1,2,3:2:0:0:
37,230,73525,2,0,L|44:151,1,79.9999952316285,10|2,0:2|0:2,0:0:0:0:
12,70,74025,6,0,B|53:61|67:19|67:19|70:62|114:93,1,159.999990463257,2|10,3:2|0:2,0:0:0:0:
174,143,74775,1,2,0:2:0:0:
233,78,75025,2,0,P|263:148|225:215,1,159.999990463257,2|10,3:2|0:2,0:0:0:0:
382,291,76025,6,0,P|351:220|389:153,1,159.999990463257,2|10,3:2|0:2,0:0:0:0:
439,225,76775,1,2,0:2:0:0:
495,157,77025,2,0,L|495:76,1,79.9999952316285,2|2,3:2|3:2,0:0:0:0:
424,23,77525,2,0,B|385:12|385:12|343:25,1,79.9999952316285,10|2,0:2|0:2,0:0:0:0:
259,13,78025,6,0,B|219:-3|177:13|188:23|147:39|108:24|108:24|152:52|156:98,1,239.999985694885,10|2,0:2|3:2,0:0:0:0:
111,215,79150,2,0,P|55:235|0:217,1,119.999992847443,0|2,3:2|3:2,0:0:0:0:
86,370,80025,6,0,P|158:339|233:377,1,159.999990463257,6|10,0:2|0:2,0:0:0:0:
315,383,80775,1,2,0:2:0:0:
381,325,81025,2,0,L|380:245,1,79.9999952316285,2|2,3:2|3:2,0:0:0:0:
325,175,81525,1,10,0:2:0:0:
385,9,82025,6,0,P|422:32|462:30,1,79.9999952316285,2|2,3:2|0:2,0:0:0:0:
512,101,82525,2,0,L|510:184,1,79.9999952316285,10|2,0:2|0:2,0:0:0:0:
451,246,83025,2,0,L|452:325,1,79.9999952316285,2|2,3:2|3:2,0:0:0:0:
373,366,83525,2,0,B|335:377|335:377|296:365,1,79.9999952316285,10|2,0:2|0:2,0:0:0:0:
218,324,84025,6,0,B|178:308|136:324|147:334|107:354|64:335,2,159.999990463257,2|10|2,3:2|0:2|3:2,0:0:0:0:
296,365,85275,1,2,3:2:0:0:
361,306,85525,2,0,L|359:212,1,79.9999952316285,10|0,0:2|3:2,0:0:0:0:
357,138,86025,1,6,0:2:0:0:
357,138,88025,6,0,B|397:122|439:138|428:148|468:168|511:149,2,159.999990463257,6|10|0,0:2|0:2|3:2,0:0:0:0:
298,203,89275,2,0,P|270:131|308:64,1,159.999990463257,0|2,3:2|0:0,0:0:0:0:
375,8,90025,1,14,0:2:0:0:
