osu file format v14

[General]
AudioFilename: audio.mp3
AudioLeadIn: 0
PreviewTime: 26378
Countdown: 0
SampleSet: Soft
StackLeniency: 0.4
Mode: 0
LetterboxInBreaks: 0
WidescreenStoryboard: 1

[Editor]
Bookmarks: 89983,94858
DistanceSpacing: 0.5
BeatDivisor: 4
GridSize: 32
TimelineZoom: 1.2

[Metadata]
Title:CALL ME, BEEP ME! (The KIM POSSIBLE Song) (Cut Ver.)
TitleUnicode:CALL ME, BEEP ME! (The KIM POSSIBLE Song) (Cut Ver.)
Artist:Christina Milian
ArtistUnicode:Christina Milian
Creator:Seolv
Version:PaRaDogi's Hard
Source:Kim Possible
Tags:english pop r&b cartoon disney channel opening theme short version tv size christy carlson romano milan lukas [_l_u_k_a_s_] paradogi sylas thekoala qiyana dylbyl dyl-byl aistre alphabet venax
BeatmapID:2899185
BeatmapSetID:1405908

[Difficulty]
HPDrainRate:4
CircleSize:4
OverallDifficulty:7
ApproachRate:7.5
SliderMultiplier:2.09999990463257
SliderTickRate:1

[Events]
//Background and Video events
0,0,"thumb-1920-879128.png",0,0
//Break Periods
//Storyboard Layer 0 (Background)
//Storyboard Layer 1 (Fail)
//Storyboard Layer 2 (Pass)
//Storyboard Layer 3 (Foreground)
//Storyboard Layer 4 (Overlay)
//Storyboard Sound Samples

[TimingPoints]
2025,500,4,2,1,80,1,0
2025,-100,4,2,1,80,0,0
4275,-100,4,2,1,60,0,0
4525,-133.333333333333,4,2,1,60,0,0
20025,-100,4,2,1,70,0,0
23775,-100,4,2,1,80,0,0
26525,-100,4,2,1,60,0,0
27525,-100,4,2,1,5,0,0
28025,-90.9090909090909,4,2,1,90,0,1
34275,-90.9090909090909,4,2,1,80,0,1
36025,-90.9090909090909,4,2,1,90,0,1
42025,-117.647058823529,4,2,1,90,0,0
42275,-117.647058823529,4,2,1,60,0,0
44025,-90.9090909090909,4,2,1,80,0,1
48025,-133.333333333333,4,2,1,80,0,0
48275,-133.333333333333,4,2,1,60,0,0
64025,-100,4,2,1,70,0,0
67775,-100,4,2,1,80,0,0
70525,-100,4,2,1,60,0,0
71025,-100,4,2,1,5,0,0
72025,-90.9090909090909,4,2,1,90,0,1
78275,-90.9090909090909,4,2,1,80,0,1
80025,-90.9090909090909,4,2,1,90,0,1
86025,-100,4,2,1,90,0,0
86275,-100,4,2,1,70,0,0
88025,-90.9090909090909,4,2,1,80,0,1
89525,-90.9090909090909,4,2,1,90,0,1
90025,-100,4,2,1,90,0,0
94525,-100,4,2,1,90,0,0

[Colours]
Combo1 : 79,81,162
Combo2 : 158,41,12
Combo3 : 255,217,85
Combo4 : 242,170,175

[HitObjects]
54,69,2025,6,0,P|105:50|200:110,1,157.499992847443,14|0,0:2|0:0,0:0:0:0:
225,134,2525,2,0,P|263:169|367:148,1,157.499992847443,14|0,0:2|0:0,0:0:0:0:
409,133,3025,2,0,L|396:243,1,104.999995231629,14|0,0:2|3:2,0:0:0:0:
363,327,3525,1,14,3:2:0:0:
271,345,3775,1,14,0:2:0:0:
205,281,4025,6,0,P|156:302|67:253,1,157.499992847443,4|0,3:2|0:0,0:0:0:0:
48,208,4525,2,0,L|66:110,1,78.7499994277954,10|0,0:2|0:0,0:0:0:0:
121,56,5025,1,2,0:0:0:0:
207,96,5275,2,0,P|249:107|300:88,1,78.7499994277954,0|8,3:2|0:2,0:0:0:0:
326,83,5650,2,0,P|365:81|407:105,1,78.7499994277954,2|0,3:2|0:0,0:0:0:0:
431,138,6025,6,0,B|414:223,1,78.7499994277954,2|0,3:2|3:2,0:0:0:0:
421,313,6525,2,0,P|387:332|331:321,1,78.7499994277954,10|0,0:2|0:0,0:0:0:0:
307,306,6900,1,2,0:2:0:0:
224,345,7150,1,2,0:2:0:0:
224,345,7275,2,0,L|142:340,1,78.7499994277954,0|8,3:2|0:2,0:0:0:0:
102,309,7650,2,0,P|61:324|20:301,1,78.7499994277954,2|0,3:2|0:0,0:0:0:0:
9,267,8025,6,0,P|-6:226|5:181,1,78.7499994277954,2|0,3:2|3:2,0:0:0:0:
76,133,8525,2,0,P|113:151|154:142,1,78.7499994277954,10|0,0:2|0:0,0:0:0:0:
192,124,8900,2,0,P|225:108|267:113,1,78.7499994277954,2|2,0:2|0:2,0:0:0:0:
311,134,9275,1,0,3:2:0:0:
401,88,9525,1,8,0:2:0:0:
401,88,9650,2,0,P|394:50|356:26,1,78.7499994277954,2|0,3:2|0:0,0:0:0:0:
326,14,10025,6,0,B|268:27|268:27|255:22|255:22|172:46,2,157.499998855591,2|2|2,3:2|3:2|3:2,0:0:0:0:
396,85,11275,1,0,3:2:0:0:
381,177,11525,1,2,3:2:0:0:
411,263,11775,1,0,3:2:0:0:
408,281,11900,1,0,3:2:0:0:
404,300,12025,6,0,L|281:328,1,118.124999141693,4|0,3:2|0:0,0:0:0:0:
255,363,12525,2,0,L|169:352,1,78.7499994277954,10|0,0:2|0:0,0:0:0:0:
133,334,12900,2,0,P|120:298|136:251,1,78.7499994277954,2|2,0:2|0:2,0:0:0:0:
159,223,13275,1,0,3:2:0:0:
104,146,13525,1,8,0:2:0:0:
104,146,13650,2,0,L|181:133,1,78.7499994277954,2|0,3:2|0:0,0:0:0:0:
226,109,14025,6,0,P|268:121|312:100,1,78.7499994277954,2|0,3:2|3:2,0:0:0:0:
364,39,14525,2,0,L|328:201,1,157.499998855591,10|0,0:2|0:0,0:0:0:0:
333,287,15275,1,0,3:2:0:0:
399,358,15525,1,8,0:2:0:0:
399,358,15650,2,0,P|349:380|310:373,1,78.7499994277954,2|0,3:2|0:0,0:0:0:0:
280,368,16025,6,0,P|244:349|199:353,1,78.7499994277954,2|0,3:2|3:2,0:0:0:0:
113,374,16525,2,0,L|123:248,1,118.124999141693,10|2,0:2|0:2,0:0:0:0:
171,171,17150,1,0,0:0:0:0:
171,171,17275,2,0,L|156:87,1,78.7499994277954,0|8,3:2|0:2,0:0:0:0:
147,46,17650,1,0,3:2:0:0:
311,37,18025,6,0,P|319:92|263:138,1,118.124999141693,2|2,3:2|0:2,0:0:0:0:
247,167,18525,2,0,P|223:198|252:283,1,118.124999141693,10|2,0:2|0:2,0:0:0:0:
274,307,19025,1,2,3:2:0:0:
348,363,19275,1,0,3:0:0:0:
439,335,19525,2,0,P|456:296|414:222,1,118.124999141693,10|0,2:2|0:0,0:0:0:0:
386,201,20025,5,6,0:2:0:0:
310,248,20275,1,2,0:2:0:0:
220,217,20525,2,0,P|192:179|215:108,1,104.999995231629,10|2,0:2|0:2,0:0:0:0:
249,46,21025,1,2,3:2:0:0:
325,95,21275,1,2,3:2:0:0:
383,29,21525,1,8,0:2:0:0:
464,68,21775,6,0,P|493:111|470:187,1,104.999995231629,2|0,0:2|3:2,0:0:0:0:
401,201,22275,1,2,0:2:0:0:
394,296,22525,2,0,P|356:327|291:320,1,104.999995231629,8|2,0:2|0:2,0:0:0:0:
221,284,23025,1,0,3:2:0:0:
149,346,23275,1,2,3:2:0:0:
57,324,23525,2,0,P|40:279|71:211,1,104.999995231629,8|2,0:2|0:2,0:0:0:0:
114,152,24025,6,0,P|167:160|220:100,1,104.999995231629,0|2,3:2|0:2,0:0:0:0:
276,71,24525,2,0,P|312:37|413:71,1,157.499992847443,10|0,0:2|0:0,0:0:0:0:
441,104,25025,1,2,3:2:0:0:
378,201,25275,1,2,3:2:0:0:
413,292,25525,2,0,L|300:277,1,104.999995231629,8|2,0:2|0:2,0:0:0:0:
228,327,26024,1,8,0:2:0:0:
256,192,26150,12,2,27525,0:2:0:0:
436,90,28025,6,0,L|307:73,1,115.499998279572,6|2,0:2|0:2,0:0:0:0:
237,148,28525,1,10,0:2:0:0:
125,99,28775,1,2,0:2:0:0:
28,178,29025,1,2,3:2:0:0:
33,200,29150,1,2,0:2:0:0:
38,225,29275,2,0,L|54:287,1,57.7499991397858,2|2,3:2|0:2,0:0:0:0:
98,340,29525,2,0,P|145:359|212:339,1,115.499998279572,10|2,0:2|0:2,0:0:0:0:
305,268,30025,5,2,3:2:0:0:
327,275,30150,1,2,0:2:0:0:
351,282,30275,2,0,L|426:304,1,57.7499991397858,2|2,0:2|0:2,0:0:0:0:
474,264,30525,2,0,P|508:220|499:151,1,115.499998279572,10|2,0:2|0:2,0:0:0:0:
415,76,31025,1,2,3:2:0:0:
309,139,31275,1,2,3:2:0:0:
203,67,31525,2,0,L|186:188,1,115.499998279572,10|2,0:2|0:2,0:0:0:0:
148,298,32025,6,0,P|93:328|7:262,1,173.249997419357,2|0,3:2|0:0,0:0:0:0:
2,198,32525,1,10,0:2:0:0:
97,116,32775,1,2,0:2:0:0:
119,120,32900,1,0,0:0:0:0:
143,124,33025,2,0,L|256:145,1,115.499998279572,2|2,3:2|3:2,0:0:0:0:
322,251,33525,2,0,P|379:265|435:225,1,115.499998279572,10|2,0:2|0:2,0:0:0:0:
505,139,34025,6,0,P|503:76|407:49,1,173.249997419357,10|0,0:2|0:0,0:0:0:0:
334,30,34525,2,0,L|215:19,1,115.499998279572,2|2,0:2|3:2,0:0:0:0:
110,87,35025,1,2,0:2:0:0:
96,103,35150,2,0,L|123:223,1,115.499998279572,0|2,3:2|0:2,0:0:0:0:
100,289,35525,2,0,P|136:333|197:333,1,115.499998279572,2|0,3:2|3:2,0:0:0:0:
309,377,36025,5,6,0:2:0:0:
334,372,36150,1,2,0:2:0:0:
358,367,36275,2,0,L|421:353,1,57.7499991397858,2|2,0:2|0:2,0:0:0:0:
459,298,36525,1,10,0:2:0:0:
405,176,36775,1,2,0:2:0:0:
455,44,37025,2,0,P|392:18|337:42,1,115.499998279572,2|2,3:2|3:2,0:0:0:0:
279,138,37525,2,0,L|158:174,1,115.499998279572,10|2,0:2|0:2,0:0:0:0:
64,93,38025,5,2,3:2:0:0:
61,118,38150,1,2,0:2:0:0:
58,146,38275,2,0,L|52:209,1,57.7499991397858,2|2,0:2|0:2,0:0:0:0:
47,278,38525,1,10,0:2:0:0:
146,362,38775,1,2,0:2:0:0:
229,266,39025,2,0,P|283:244|340:264,1,115.499998279572,2|2,3:2|3:2,0:0:0:0:
449,317,39525,2,0,L|468:194,1,115.499998279572,10|2,0:2|0:2,0:0:0:0:
436,77,40025,6,0,P|386:35|332:40,1,115.499998279572,2|2,3:2|0:2,0:0:0:0:
276,77,40400,1,0,3:2:0:0:
261,88,40525,2,0,L|140:72,1,115.499998279572,10|2,0:2|0:2,0:0:0:0:
32,138,41025,2,0,P|10:202|32:249,1,115.499998279572,2|2,3:2|3:2,0:0:0:0:
83,294,41400,1,2,0:2:0:0:
94,306,41525,2,0,L|209:280,1,115.499998279572,10|0,0:2|3:2,0:0:0:0:
277,173,42025,6,0,P|325:169|361:195,1,89.2499976491928,6|2,0:2|0:2,0:0:0:0:
455,202,42525,2,0,P|476:246|468:289,1,89.2499976491928,2|2,0:2|0:2,0:0:0:0:
413,362,43025,1,2,0:2:0:0:
395,359,43150,1,2,0:2:0:0:
376,354,43275,2,0,L|320:342,1,44.6249988245964,2|2,0:2|0:2,0:0:0:0:
300,297,43525,2,0,L|197:322,1,89.2499976491928,2|2,0:2|0:2,0:0:0:0:
128,277,44025,5,6,0:2:0:0:
154,187,44275,1,2,3:2:0:0:
102,102,44525,1,10,0:2:0:0:
119,81,44650,2,0,L|241:102,1,115.499998279572,2|2,0:2|0:2,0:0:0:0:
279,122,45025,1,0,3:2:0:0:
295,132,45150,2,0,L|416:112,1,115.499998279572,2|2,0:2|0:2,0:0:0:0:
423,70,45525,2,0,L|414:11,2,57.7499991397858,8|2|2,0:0|0:2|0:0,0:0:0:0:
499,135,46025,6,0,L|472:249,1,115.499998279572,14|0,0:2|0:0,0:0:0:0:
414,323,46525,2,0,P|343:324|308:273,1,115.499998279572,14|0,0:2|3:2,0:0:0:0:
245,219,47025,2,0,L|264:101,1,115.499998279572,14|0,0:2|3:2,0:0:0:0:
280,78,47400,1,0,3:2:0:0:
298,58,47525,2,0,L|470:97,1,173.249997419357,14|0,0:2|3:2,0:0:0:0:
505,135,48025,5,14,3:2:0:0:
504,231,48275,1,2,3:2:0:0:
448,300,48525,1,10,0:2:0:0:
356,313,48775,2,0,B|307:320|307:320|297:329|297:329|232:337,1,118.124999141693,2|0,0:2|0:0,0:0:0:0:
190,339,49275,1,0,3:2:0:0:
149,253,49525,1,8,0:2:0:0:
153,229,49650,1,2,3:2:0:0:
156,210,49775,1,2,0:2:0:0:
201,128,50025,6,0,P|245:127|288:169,1,78.7499994277954,2|0,3:2|3:2,0:0:0:0:
317,229,50525,2,0,B|298:326,1,78.7499994277954,10|2,0:2|0:2,0:0:0:0:
250,384,51025,1,2,0:2:0:0:
191,311,51275,1,2,3:2:0:0:
115,362,51525,2,0,P|53:371|6:327,1,118.124999141693,10|0,0:2|0:0,0:0:0:0:
0,284,52025,5,2,3:2:0:0:
79,234,52275,1,2,3:2:0:0:
8,175,52525,2,0,P|3:125|28:98,1,78.7499994277954,10|2,0:2|0:2,0:0:0:0:
105,66,53025,1,2,2:2:0:0:
171,131,53275,1,2,3:2:0:0:
253,76,53525,1,10,0:2:0:0:
264,93,53650,2,0,P|271:148|317:170,1,78.7499994277954,2|0,3:2|0:0,0:0:0:0:
327,189,54025,6,0,B|370:177|370:177|384:182|384:182|443:169,1,118.124999141693,2|0,3:2|0:0,0:0:0:0:
479,139,54525,2,0,P|491:109|472:56,1,78.7499994277954,2|2,3:2|2:2,0:0:0:0:
392,18,55025,1,2,3:2:0:0:
314,75,55275,1,0,3:2:0:0:
219,64,55525,2,0,P|201:111|232:187,1,118.124999141693,0|0,3:2|3:2,0:0:0:0:
251,213,56025,5,4,3:2:0:0:
287,309,56275,1,2,3:2:0:0:
215,378,56525,2,0,P|172:373|145:336,1,78.7499994277954,10|0,0:2|0:0,0:0:0:0:
137,297,56900,2,0,P|147:260|135:216,1,78.7499994277954,2|2,0:2|0:2,0:0:0:0:
111,179,57275,1,0,3:2:0:0:
155,94,57525,1,8,0:2:0:0:
166,109,57650,2,0,L|252:102,1,78.7499994277954,2|0,3:2|0:0,0:0:0:0:
302,83,58025,5,2,3:2:0:0:
382,130,58275,1,2,3:2:0:0:
316,200,58525,2,0,B|297:232|297:232|306:277,1,78.7499994277954,10|2,0:2|2:2,0:0:0:0:
365,342,59025,1,2,2:2:0:0:
458,329,59275,1,2,3:2:0:0:
489,244,59525,1,10,0:2:0:0:
504,240,59650,2,0,B|521:208|521:208|508:162,1,78.7499994277954,2|0,3:2|0:0,0:0:0:0:
510,73,60025,5,2,3:2:0:0:
429,121,60275,1,0,3:2:0:0:
342,88,60525,2,0,P|320:118|337:199,1,118.124999141693,10|2,0:2|0:2,0:0:0:0:
367,231,61025,1,2,0:2:0:0:
317,307,61275,1,0,3:2:0:0:
230,342,61525,1,8,0:2:0:0:
220,360,61650,2,0,L|139:370,1,78.7499994277954,0|0,3:2|0:0,0:0:0:0:
94,354,62025,6,0,P|75:320|93:260,1,78.7499994277954,2|2,3:2|2:2,0:0:0:0:
147,211,62525,2,0,B|195:215|195:215|204:222|204:222|265:227,1,118.124999141693,10|2,0:2|0:2,0:0:0:0:
316,215,63025,2,0,B|360:204|360:204|374:207|374:207|437:193,1,118.124999141693,2|0,3:2|0:0,0:0:0:0:
467,168,63525,2,0,P|480:126|432:65,1,118.124999141693,10|0,2:2|0:0,0:0:0:0:
355,19,64025,5,6,0:2:0:0:
281,79,64275,1,2,0:2:0:0:
188,74,64525,2,0,P|168:114|187:171,1,104.999995231629,10|2,0:2|0:2,0:0:0:0:
172,263,65025,1,2,3:2:0:0:
77,282,65275,1,2,3:2:0:0:
24,210,65525,1,8,0:2:0:0:
63,123,65775,6,0,L|174:151,1,104.999995231629,2|0,0:2|3:2,0:0:0:0:
253,202,66275,1,2,0:2:0:0:
336,157,66525,2,0,P|365:109|356:57,1,104.999995231629,8|2,0:2|0:2,0:0:0:0:
277,11,67025,2,0,L|170:37,1,104.999995231629,0|2,3:2|3:2,0:0:0:0:
106,104,67525,1,8,0:2:0:0:
165,182,67775,1,2,0:2:0:0:
160,277,68025,6,0,B|212:292|212:292|213:297|213:297|282:315,1,104.999995231629,0|2,3:2|0:2,0:0:0:0:
347,274,68525,2,0,P|379:202|338:131,1,157.499992847443,10|0,0:2|0:0,0:0:0:0:
304,104,69025,1,2,3:2:0:0:
220,149,69275,1,2,3:2:0:0:
151,88,69525,1,8,0:2:0:0:
70,130,69775,1,2,0:2:0:0:
82,221,70025,5,10,0:2:0:0:
256,192,70150,12,2,71525,0:0:0:0:
66,96,72025,6,0,L|84:214,1,115.499998279572,6|2,0:2|0:2,0:0:0:0:
158,315,72525,1,10,0:2:0:0:
266,253,72775,1,2,0:2:0:0:
381,311,73025,1,2,3:2:0:0:
385,290,73150,1,2,0:2:0:0:
389,268,73275,2,0,L|403:212,1,57.7499991397858,2|2,3:2|0:2,0:0:0:0:
390,137,73525,2,0,P|335:97|291:106,1,115.499998279572,10|2,0:2|0:2,0:0:0:0:
219,211,74025,5,2,3:2:0:0:
194,205,74150,1,2,0:2:0:0:
167,197,74275,2,0,L|99:207,1,57.7499991397858,2|2,0:2|0:2,0:0:0:0:
57,257,74525,2,0,P|30:313|49:368,1,115.499998279572,10|2,0:2|0:2,0:0:0:0:
167,329,75025,1,2,3:2:0:0:
286,373,75275,1,2,3:2:0:0:
370,274,75525,2,0,P|363:215|319:180,1,115.499998279572,10|2,0:2|0:2,0:0:0:0:
228,90,76025,6,0,B|313:77|313:77|322:82|322:82|408:73,1,173.249997419357,2|0,3:2|0:0,0:0:0:0:
470,97,76525,1,10,0:2:0:0:
406,202,76775,1,2,0:2:0:0:
472,315,77025,2,0,P|422:358|356:348,1,115.499998279572,2|2,3:2|3:2,0:0:0:0:
268,284,77525,1,10,0:2:0:0:
150,342,77775,1,2,0:2:0:0:
50,265,78025,6,0,P|20:192|77:120,1,173.249997419357,10|0,0:2|0:0,0:0:0:0:
123,64,78525,2,0,L|241:89,1,115.499998279572,2|2,0:2|3:2,0:0:0:0:
362,124,79025,2,0,L|419:109,2,57.7499991397858,2|0|0,0:2|3:2|0:0,0:0:0:0:
277,222,79525,1,2,3:2:0:0:
172,153,79775,1,0,3:2:0:0:
63,229,80025,5,6,0:2:0:0:
68,251,80150,1,2,0:2:0:0:
75,275,80275,2,0,L|88:333,1,57.7499991397858,2|2,0:2|0:2,0:0:0:0:
152,374,80525,2,0,P|217:366|251:328,1,115.499998279572,10|2,0:2|0:2,0:0:0:0:
309,217,81025,1,2,3:2:0:0:
432,256,81275,1,2,3:2:0:0:
503,149,81525,2,0,P|502:84|460:48,1,115.499998279572,10|2,0:2|0:2,0:0:0:0:
355,10,82025,5,2,3:2:0:0:
326,12,82150,1,2,0:2:0:0:
295,16,82275,2,0,L|213:26,1,57.7499991397858,2|2,0:2|0:2,0:0:0:0:
197,88,82525,2,0,P|179:149|201:198,1,115.499998279572,10|2,0:2|0:2,0:0:0:0:
174,322,83025,2,0,P|117:359|55:339,1,115.499998279572,2|2,3:2|3:2,0:0:0:0:
2,248,83525,1,10,0:2:0:0:
71,137,83775,1,2,0:2:0:0:
23,16,84025,6,0,B|104:35|104:35|106:29|106:29|209:52,1,173.249997419357,2|0,3:2|3:2,0:0:0:0:
252,87,84525,2,0,P|285:138|231:224,1,173.249997419357,10|0,0:2|0:0,0:0:0:0:
159,200,85025,1,2,3:2:0:0:
48,265,85275,1,2,3:2:0:0:
54,286,85400,1,2,0:2:0:0:
61,309,85525,1,10,0:2:0:0:
168,380,85775,1,0,3:2:0:0:
258,286,86025,6,0,L|371:308,1,104.999995231629,6|2,0:2|0:2,0:0:0:0:
455,276,86525,2,0,P|482:213|459:164,1,104.999995231629,2|2,0:2|0:2,0:0:0:0:
419,100,87025,2,0,L|358:91,1,52.4999976158143,2|2,0:2|0:2,0:0:0:0:
323,109,87275,2,0,L|262:100,1,52.4999976158143,2|2,0:2|0:2,0:0:0:0:
220,122,87525,2,0,P|184:173|196:222,1,104.999995231629,2|2,3:2|0:2,0:0:0:0:
252,291,88025,5,6,0:2:0:0:
334,243,88275,1,2,3:2:0:0:
417,291,88525,1,10,0:2:0:0:
437,281,88650,2,0,L|456:161,1,115.499998279572,2|2,0:2|0:2,0:0:0:0:
430,119,89025,1,0,3:2:0:0:
346,166,89275,1,0,3:2:0:0:
321,160,89400,1,2,0:2:0:0:
290,151,89525,2,0,B|238:131|238:131|233:133|233:133|173:112,1,115.499998279572,8|2,0:0|0:0,0:0:0:0:
90,151,90025,5,14,0:2:0:0:
