osu file format v14

[General]
AudioFilename: audio.mp3
AudioLeadIn: 0
PreviewTime: 26378
Countdown: 0
SampleSet: Soft
StackLeniency: 0.9
Mode: 0
LetterboxInBreaks: 0
WidescreenStoryboard: 1

[Editor]
Bookmarks: 71983
DistanceSpacing: 0.5
BeatDivisor: 4
GridSize: 16
TimelineZoom: 2.2

[Metadata]
Title:CALL ME, BEEP ME! (The KIM POSSIBLE Song) (Cut Ver.)
TitleUnicode:CALL ME, BEEP ME! (The KIM POSSIBLE Song) (Cut Ver.)
Artist:Christina Milian
ArtistUnicode:Christina Milian
Creator:Seolv
Version:Aistre's Insane
Source:Kim Possible
Tags:english pop r&b cartoon disney channel opening theme short version tv size christy carlson romano milan lukas [_l_u_k_a_s_] paradogi sylas thekoala qiyana dylbyl dyl-byl aistre alphabet venax
BeatmapID:2899183
BeatmapSetID:1405908

[Difficulty]
HPDrainRate:5
CircleSize:4
OverallDifficulty:7.6
ApproachRate:8.5
SliderMultiplier:2.79999990463257
SliderTickRate:1

[Events]
//Background and Video events
0,0,"thumb-1920-879128.png",0,0
//Break Periods
//Storyboard Layer 0 (Background)
//Storyboard Layer 1 (Fail)
//Storyboard Layer 2 (Pass)
//Storyboard Layer 3 (Foreground)
//Storyboard Layer 4 (Overlay)
//Storyboard Sound Samples

[TimingPoints]
2025,500,4,2,1,80,1,0
2025,-100,4,2,1,80,0,0
2399,-100,4,2,1,5,0,0
2525,-100,4,2,1,80,0,0
2899,-100,4,2,1,5,0,0
3025,-80,4,2,1,80,0,0
3650,-80,4,2,1,5,0,0
3775,-80,4,2,1,80,0,0
3900,-80,4,2,1,5,0,0
4025,-111.111111111111,4,2,1,80,0,0
4275,-111.111111111111,4,2,1,60,0,0
4774,-111.111111111111,4,2,1,5,0,0
4900,-111.111111111111,4,2,1,60,0,0
5024,-111.111111111111,4,2,1,5,0,0
5150,-111.111111111111,4,2,1,60,0,0
5899,-111.111111111111,4,2,1,5,0,0
6025,-111.111111111111,4,2,1,60,0,0
6774,-111.111111111111,4,2,1,5,0,0
6900,-111.111111111111,4,2,1,60,0,0
7024,-111.111111111111,4,2,1,5,0,0
7150,-111.111111111111,4,2,1,60,0,0
7899,-111.111111111111,4,2,1,5,0,0
8025,-111.111111111111,4,2,1,60,0,0
8774,-111.111111111111,4,2,1,5,0,0
8900,-111.111111111111,4,2,1,60,0,0
9024,-111.111111111111,4,2,1,5,0,0
9150,-111.111111111111,4,2,1,60,0,0
9899,-111.111111111111,4,2,1,5,0,0
10025,-111.111111111111,4,2,1,60,0,0
12025,-66.6666666666667,4,2,1,60,0,0
12525,-111.111111111111,4,2,1,60,0,0
12774,-111.111111111111,4,2,1,5,0,0
12900,-111.111111111111,4,2,1,60,0,0
13024,-111.111111111111,4,2,1,5,0,0
13150,-111.111111111111,4,2,1,60,0,0
13899,-111.111111111111,4,2,1,5,0,0
14025,-111.111111111111,4,2,1,60,0,0
14774,-111.111111111111,4,2,1,5,0,0
14900,-111.111111111111,4,2,1,60,0,0
15024,-111.111111111111,4,2,1,5,0,0
15150,-111.111111111111,4,2,1,60,0,0
15899,-111.111111111111,4,2,1,5,0,0
16025,-83.3333333333333,4,2,1,60,0,0
17025,-111.111111111111,4,2,1,60,0,0
17149,-111.111111111111,4,2,1,5,0,0
17275,-111.111111111111,4,2,1,60,0,0
17899,-111.111111111111,4,2,1,5,0,0
18025,-111.111111111111,4,2,1,60,0,0
18274,-111.111111111111,4,2,1,5,0,0
18525,-111.111111111111,4,2,1,60,0,0
18649,-111.111111111111,4,2,1,5,0,0
18775,-111.111111111111,4,2,1,60,0,0
19274,-111.111111111111,4,2,1,5,0,0
19525,-111.111111111111,4,2,1,60,0,0
20025,-86.9565217391304,4,2,1,70,0,0
20525,-105.263157894737,4,2,1,70,0,0
20650,-105.263157894737,4,2,1,5,0,0
20775,-105.263157894737,4,2,1,70,0,0
20900,-105.263157894737,4,2,1,5,0,0
21025,-105.263157894737,4,2,1,70,0,0
21775,-117.647058823529,4,2,1,70,0,0
22900,-117.647058823529,4,2,1,5,0,0
23025,-117.647058823529,4,2,1,70,0,0
23775,-117.647058823529,4,2,1,80,0,0
24400,-117.647058823529,4,2,1,5,0,0
24525,-117.647058823529,4,2,1,80,0,0
24900,-117.647058823529,4,2,1,5,0,0
25025,-117.647058823529,4,2,1,80,0,0
26525,-117.647058823529,4,2,1,60,0,0
28025,-80,4,2,1,90,0,1
28650,-80,4,2,1,5,0,1
28775,-80,4,2,1,90,0,1
28900,-80,4,2,1,5,0,1
29025,-80,4,2,1,90,0,1
29650,-80,4,2,1,5,0,1
29775,-80,4,2,1,90,0,1
29900,-80,4,2,1,5,0,1
30025,-80,4,2,1,90,0,1
31150,-80,4,2,1,5,0,1
31275,-80,4,2,1,90,0,1
31400,-80,4,2,1,5,0,1
31525,-80,4,2,1,90,0,1
32400,-80,4,2,1,5,0,1
32525,-80,4,2,1,90,0,1
32650,-80,4,2,1,5,0,1
32775,-80,4,2,1,90,0,1
32900,-80,4,2,1,5,0,1
33025,-80,4,2,1,90,0,1
33650,-80,4,2,1,5,0,1
33775,-80,4,2,1,90,0,1
33900,-80,4,2,1,5,0,1
34025,-111.111111111111,4,2,1,90,0,0
34275,-111.111111111111,4,2,1,80,0,0
34649,-111.111111111111,4,2,1,5,0,0
34775,-111.111111111111,4,2,1,80,0,0
34899,-111.111111111111,4,2,1,5,0,0
35025,-111.111111111111,4,2,1,80,0,0
35649,-111.111111111111,4,2,1,5,0,0
35775,-111.111111111111,4,2,1,80,0,0
35899,-111.111111111111,4,2,1,5,0,0
36025,-83.3333333333333,4,2,1,90,0,1
37149,-83.3333333333333,4,2,1,5,0,1
37275,-83.3333333333333,4,2,1,90,0,1
37399,-83.3333333333333,4,2,1,5,0,1
37525,-83.3333333333333,4,2,1,90,0,1
39149,-83.3333333333333,4,2,1,5,0,1
39275,-83.3333333333333,4,2,1,90,0,1
39399,-83.3333333333333,4,2,1,5,0,1
39525,-83.3333333333333,4,2,1,90,0,1
39649,-83.3333333333333,4,2,1,5,0,1
39775,-83.3333333333333,4,2,1,90,0,1
39899,-83.3333333333333,4,2,1,5,0,1
40025,-83.3333333333333,4,2,1,90,0,1
42025,-83.3333333333333,4,2,1,90,0,0
42275,-83.3333333333333,4,2,1,60,0,0
44025,-100,4,2,1,80,0,0
44150,-100,4,2,1,5,0,0
44275,-100,4,2,1,80,0,0
44400,-100,4,2,1,5,0,0
44525,-100,4,2,1,80,0,0
44775,-100,4,2,1,5,0,0
44900,-100,4,2,1,80,0,0
48025,-111.111111111111,4,2,1,80,0,0
48275,-111.111111111111,4,2,1,60,0,0
48399,-111.111111111111,4,2,1,5,0,0
48525,-111.111111111111,4,2,1,60,0,0
48649,-111.111111111111,4,2,1,5,0,0
48775,-111.111111111111,4,2,1,60,0,0
49899,-111.111111111111,4,2,1,5,0,0
50025,-111.111111111111,4,2,1,60,0,0
50649,-111.111111111111,4,2,1,5,0,0
50775,-111.111111111111,4,2,1,60,0,0
51899,-111.111111111111,4,2,1,5,0,0
52025,-111.111111111111,4,2,1,60,0,0
52649,-111.111111111111,4,2,1,5,0,0
52775,-111.111111111111,4,2,1,60,0,0
53899,-111.111111111111,4,2,1,5,0,0
54025,-111.111111111111,4,2,1,60,0,0
54274,-111.111111111111,4,2,1,5,0,0
54525,-111.111111111111,4,2,1,60,0,0
55149,-111.111111111111,4,2,1,5,0,0
55275,-111.111111111111,4,2,1,60,0,0
57024,-111.111111111111,4,2,1,5,0,0
57150,-111.111111111111,4,2,1,60,0,0
57899,-111.111111111111,4,2,1,5,0,0
58025,-111.111111111111,4,2,1,60,0,0
58649,-111.111111111111,4,2,1,5,0,0
58775,-111.111111111111,4,2,1,60,0,0
59899,-111.111111111111,4,2,1,5,0,0
60025,-111.111111111111,4,2,1,60,0,0
60649,-111.111111111111,4,2,1,5,0,0
60775,-111.111111111111,4,2,1,60,0,0
61899,-111.111111111111,4,2,1,5,0,0
62025,-111.111111111111,4,2,1,60,0,0
62649,-111.111111111111,4,2,1,5,0,0
62775,-111.111111111111,4,2,1,60,0,0
64025,-86.9565217391304,4,2,1,70,0,0
64525,-117.647058823529,4,2,1,70,0,0
64650,-105.263157894737,4,2,1,5,0,0
64775,-105.263157894737,4,2,1,70,0,0
64900,-105.263157894737,4,2,1,5,0,0
65025,-105.263157894737,4,2,1,70,0,0
65775,-117.647058823529,4,2,1,70,0,0
66900,-117.647058823529,4,2,1,5,0,0
67025,-117.647058823529,4,2,1,70,0,0
67775,-117.647058823529,4,2,1,80,0,0
68400,-117.647058823529,4,2,1,5,0,0
68525,-117.647058823529,4,2,1,80,0,0
68900,-117.647058823529,4,2,1,5,0,0
69025,-117.647058823529,4,2,1,80,0,0
70525,-117.647058823529,4,2,1,60,0,0
71025,-117.647058823529,4,2,1,40,0,0
72025,-80,4,2,1,90,0,1
72650,-80,4,2,1,5,0,1
72775,-80,4,2,1,90,0,1
72900,-80,4,2,1,5,0,1
73025,-80,4,2,1,90,0,1
75150,-80,4,2,1,5,0,1
75275,-80,4,2,1,90,0,1
75400,-80,4,2,1,5,0,1
75525,-80,4,2,1,90,0,1
75900,-80,4,2,1,5,0,1
76025,-80,4,2,1,90,0,1
76275,-80,4,2,1,5,0,1
76525,-80,4,2,1,90,0,1
76650,-80,4,2,1,5,0,1
76775,-80,4,2,1,90,0,1
76900,-80,4,2,1,5,0,1
77025,-80,4,2,1,90,0,1
77400,-80,4,2,1,5,0,1
77525,-80,4,2,1,90,0,1
77650,-80,4,2,1,5,0,1
77775,-80,4,2,1,90,0,1
77900,-80,4,2,1,5,0,1
78025,-111.111111111111,4,2,1,90,0,0
78275,-111.111111111111,4,2,1,80,0,0
79649,-111.111111111111,4,2,1,5,0,0
79775,-111.111111111111,4,2,1,80,0,0
80025,-83.3333333333333,4,2,1,90,0,1
81149,-83.3333333333333,4,2,1,5,0,1
81275,-83.3333333333333,4,2,1,90,0,1
81399,-83.3333333333333,4,2,1,5,0,1
81525,-83.3333333333333,4,2,1,90,0,1
83149,-83.3333333333333,4,2,1,5,0,1
83275,-83.3333333333333,4,2,1,90,0,1
83399,-83.3333333333333,4,2,1,5,0,1
83525,-83.3333333333333,4,2,1,90,0,1
86025,-83.3333333333333,4,2,1,90,0,0
86275,-83.3333333333333,4,2,1,70,0,0
88025,-83.3333333333333,4,2,1,80,0,0
88149,-83.3333333333333,4,2,1,5,0,0
88275,-83.3333333333333,4,2,1,80,0,0
88399,-83.3333333333333,4,2,1,5,0,0
88525,-83.3333333333333,4,2,1,80,0,0
88774,-83.3333333333333,4,2,1,5,0,0
88900,-83.3333333333333,4,2,1,80,0,0
89525,-83.3333333333333,4,2,1,90,0,0
90025,-333.333333333333,4,2,1,90,0,0

[Colours]
Combo1 : 79,81,162
Combo2 : 158,41,12
Combo3 : 255,217,85
Combo4 : 242,170,175

[HitObjects]
362,143,2025,6,0,B|345:112|393:76|435:98|441:172|357:220,1,209.999992847443,14|0,0:2|0:0,0:0:0:0:
378,298,2525,2,0,P|298:225|195:209,1,209.999992847443,14|0,0:2|0:0,0:0:0:0:
134,241,3025,1,14,0:2:0:0:
161,36,3275,5,0,3:2:0:0:
161,36,3358,1,0,3:2:0:0:
161,36,3441,1,0,3:2:0:0:
161,36,3525,2,0,P|120:62|115:119,1,87.4999970197678,14|0,3:2|0:0,0:0:0:0:
228,80,3775,2,0,P|219:127|178:153,1,87.4999970197678,14|0,0:2|0:0,0:0:0:0:
52,254,4025,5,4,3:2:0:0:
361,372,4525,1,10,0:2:0:0:
361,372,4650,2,0,P|351:330|342:299,1,62.9999959316255,2|0,0:2|0:0,0:0:0:0:
422,294,4900,2,0,P|430:329|439:363,1,62.9999959316255,2|0,0:2|0:0,0:0:0:0:
273,208,5150,5,2,0:2:0:0:
282,214,5400,2,0,P|317:213|354:231,1,62.9999959316255,2|8,0:2|0:2,0:0:0:0:
486,101,5650,2,0,B|490:137|461:164|456:150|421:167|416:211,1,125.999991863251,2|0,3:2|0:0,0:0:0:0:
419,200,6025,5,2,3:2:0:0:
198,100,6275,1,0,3:2:0:0:
322,9,6525,1,10,0:2:0:0:
322,9,6650,2,0,P|312:51|303:82,1,62.9999959316255,2|0,0:2|0:0,0:0:0:0:
381,91,6900,2,0,P|389:55|398:21,1,62.9999959316255,2|0,0:2|0:0,0:0:0:0:
258,203,7150,5,2,0:2:0:0:
264,213,7400,2,0,P|286:189|291:149,1,62.9999959316255,2|8,0:2|0:2,0:0:0:0:
132,214,7650,2,0,B|98:229|62:205|81:188|49:169|16:172,1,125.999991863251,2|0,3:2|0:0,0:0:0:0:
22,173,8025,5,2,3:2:0:0:
183,74,8275,1,0,3:2:0:0:
217,269,8525,1,10,0:2:0:0:
217,269,8650,2,0,P|206:302|195:345,1,62.9999959316255,2|0,0:2|0:0,0:0:0:0:
123,313,8900,2,0,P|134:280|145:237,1,62.9999959316255,2|0,0:2|0:0,0:0:0:0:
268,201,9150,6,0,P|296:229|302:264,1,62.9999959316255,2|0,0:2|3:2,0:0:0:0:
349,362,9400,2,0,P|359:323|386:301,1,62.9999959316255,2|8,0:2|0:2,0:0:0:0:
488,176,9650,2,0,B|454:161|420:183|439:201|407:219|375:216,1,125.999991863251,2|0,3:2|0:0,0:0:0:0:
378,217,10025,5,2,3:2:0:0:
139,110,10525,5,2,3:2:0:0:
377,22,11025,5,2,3:2:0:0:
308,190,11275,1,0,3:2:0:0:
282,60,11525,5,2,3:2:0:0:
260,93,11650,1,0,3:2:0:0:
240,58,11775,1,0,3:2:0:0:
230,71,11900,1,0,3:2:0:0:
218,60,12025,6,0,B|121:40|121:40|73:31|59:98|108:108|108:108|127:111,1,210.000000858307,4|0,3:2|3:2,0:0:0:0:
179,292,12525,1,10,0:2:0:0:
179,292,12650,2,0,P|212:278|230:241,1,62.9999959316255,2|0,0:2|0:0,0:0:0:0:
299,215,12900,2,0,P|295:179|266:150,1,62.9999959316255,2|0,0:2|0:0,0:0:0:0:
156,216,13150,6,0,P|68:194|-4:183,1,125.999991863251,2|2,0:2|0:2,0:0:0:0:
247,91,13650,2,0,B|277:86|316:109|293:121|316:142|359:143,1,125.999991863251,2|0,3:2|0:0,0:0:0:0:
356,144,14025,5,2,3:2:0:0:
507,271,14275,1,0,3:2:0:0:
497,127,14525,1,10,0:2:0:0:
497,127,14650,2,0,P|467:141|447:174,1,62.9999959316255,2|0,0:2|0:0,0:0:0:0:
396,219,14900,2,0,P|400:251|425:281,1,62.9999959316255,2|0,0:2|0:0,0:0:0:0:
460,363,15150,6,0,P|415:354|383:350,1,62.9999959316255,2|0,0:2|3:2,0:0:0:0:
250,268,15400,2,0,P|285:275|320:280,1,62.9999959316255,2|8,0:2|0:2,0:0:0:0:
451,378,15650,2,0,P|366:361|306:353,1,125.999991863251,2|0,3:2|0:0,0:0:0:0:
217,340,16025,6,0,B|203:298|227:248|244:273|273:233|262:186,1,167.999989151001,2|0,3:2|3:2,0:0:0:0:
351,182,16400,1,2,0:2:0:0:
351,182,16525,2,0,B|352:138|317:96|307:125|269:93|268:46,1,167.999989151001,10|2,0:2|0:2,0:0:0:0:
36,118,17025,6,0,P|76:122|102:146,1,62.9999959316255,2|0,0:2|0:0,0:0:0:0:
172,138,17275,2,0,P|180:177|165:209,1,62.9999959316255,0|2,3:2|0:2,0:0:0:0:
117,318,17525,1,8,0:2:0:0:
136,308,17650,2,0,P|226:337|293:375,1,125.999991863251,0|0,3:2|0:0,0:0:0:0:
253,350,18025,6,0,P|267:278|212:226,1,125.999991863251,2|0,3:2|0:0,0:0:0:0:
436,115,18525,2,0,P|432:158|429:193,1,62.9999959316255,10|0,0:2|0:0,0:0:0:0:
339,64,18775,2,0,P|343:107|346:142,1,62.9999959316255,2|2,0:2|0:2,0:0:0:0:
413,28,19025,2,0,P|320:13|263:-1,1,125.999991863251,2|0,3:2|0:0,0:0:0:0:
59,108,19525,2,0,P|129:91|200:81,1,125.999991863251,10|2,2:2|0:2,0:0:0:0:
252,134,19900,5,0,0:0:0:0:
243,125,20025,2,0,P|146:101|57:86,1,160.999997587204,6|2,0:2|0:2,0:0:0:0:
26,314,20525,2,0,P|64:303|97:256,1,66.4999959592821,10|0,0:2|0:0,0:0:0:0:
117,267,20775,2,0,P|111:230|88:201,1,66.4999959592821,2|0,0:2|0:0,0:0:0:0:
15,333,21025,1,2,3:2:0:0:
146,371,21275,2,0,B|174:388|216:366|204:351|241:328|281:347,1,132.999991918564,2|8,3:2|0:2,0:0:0:0:
430,307,21775,6,0,P|445:230|478:150,1,118.999998216629,2|0,0:2|3:2,0:0:0:0:
328,76,22275,2,0,P|352:135|365:214,1,118.999998216629,2|8,0:2|0:2,0:0:0:0:
363,189,22775,2,0,P|360:227|345:272,1,59.4999991083145,2|0,0:2|0:0,0:0:0:0:
247,287,23025,6,0,P|156:257|77:245,1,118.999998216629,0|2,3:2|3:2,0:0:0:0:
56,169,23525,2,0,P|134:154|210:128,1,118.999998216629,8|2,0:2|0:2,0:0:0:0:
395,145,24025,6,0,B|359:128|303:152|327:177|276:212|233:192,1,178.499997324944,0|0,3:2|0:0,0:0:0:0:
236,194,24525,1,10,0:2:0:0:
316,271,24775,2,0,P|304:319|294:370,1,59.4999991083145
287,350,25025,1,2,3:2:0:0:
428,308,25275,1,2,3:2:0:0:
232,181,25525,2,0,P|153:166|63:150,1,118.999998216629,8|2,0:2|0:2,0:0:0:0:
324,52,26025,5,8,0:2:0:0:
461,48,28025,6,0,B|435:87|377:79|394:61|339:49|301:90,1,174.999994039536,6|2,0:2|0:2,0:0:0:0:
302,88,28525,2,0,P|287:119|306:185,1,87.4999970197678,10|0,0:2|0:0,0:0:0:0:
234,216,28775,2,0,P|214:187|147:170,1,87.4999970197678,2|0,0:2|0:0,0:0:0:0:
55,117,29025,1,2,3:2:0:0:
29,93,29150,1,2,0:2:0:0:
23,58,29275,1,2,3:2:0:0:
44,30,29400,1,2,0:2:0:0:
113,6,29525,2,0,P|148:43|153:98,1,87.4999970197678,10|0,0:2|0:0,0:0:0:0:
82,214,29775,2,0,P|28:193|-22:183,1,87.4999970197678,2|0,0:2|0:0,0:0:0:0:
100,361,30025,5,2,3:2:0:0:
132,355,30150,1,2,0:2:0:0:
165,350,30275,1,2,0:2:0:0:
199,346,30400,1,2,0:2:0:0:
263,307,30525,2,0,B|334:328|334:328|349:343|349:343|428:364,1,174.999994039536,10|2,0:2|0:2,0:0:0:0:
487,154,31025,2,0,B|447:172|447:172|436:217,1,87.4999970197678,2|0,3:2|0:0,0:0:0:0:
389,278,31275,2,0,B|392:235|392:235|359:204,1,87.4999970197678,2|0,3:2|0:0,0:0:0:0:
319,125,31525,2,0,L|528:165,1,174.999994039536,10|2,0:2|0:2,0:0:0:0:
268,19,32025,6,0,B|215:-6|142:39|174:71|95:124|33:94,1,262.499991059303,2|0,3:2|0:0,0:0:0:0:
67,7,32525,2,0,P|111:11|148:50,1,87.4999970197678,10|0,0:2|0:0,0:0:0:0:
237,95,32775,2,0,P|247:142|219:194,1,87.4999970197678,2|0,0:2|0:0,0:0:0:0:
193,271,33025,2,0,P|93:240|-32:218,1,174.999994039536,2|2,3:2|3:2,0:0:0:0:
66,152,33400,1,0,0:0:0:0:
66,152,33525,2,0,P|114:168|167:180,1,87.4999970197678,10|0,0:2|0:0,0:0:0:0:
125,329,33775,2,0,P|77:313|24:301,1,87.4999970197678,2|0,0:2|0:0,0:0:0:0:
233,177,34025,5,10,0:2:0:0:
233,177,34275,1,2,0:2:0:0:
361,366,34525,2,0,P|401:362|451:362,1,62.9999959316255,2|0,0:2|0:0,0:0:0:0:
405,280,34775,2,0,P|445:284|495:284,1,62.9999959316255,2|0,3:2|0:0,0:0:0:0:
358,203,35025,5,2,0:2:0:0:
377,194,35150,1,0,3:2:0:0:
383,173,35275,2,0,P|347:172|311:168,1,62.9999959316255,0|2,0:0|0:2,0:0:0:0:
439,92,35525,2,0,P|456:123|470:156,1,62.9999959316255,2|0,3:2|0:0,0:0:0:0:
340,84,35775,2,0,P|358:53|380:24,1,62.9999959316255,0|0,3:2|0:0,0:0:0:0:
247,260,36025,5,6,0:2:0:0:
204,235,36150,1,2,0:2:0:0:
187,192,36275,1,2,0:2:0:0:
198,146,36400,1,2,0:2:0:0:
260,104,36525,2,0,P|177:90|50:68,1,167.999989151001,10|2,0:2|0:2,0:0:0:0:
10,222,36900,5,0,0:0:0:0:
19,227,37025,2,0,P|61:200|63:151,1,83.9999945755007,2|0,3:2|0:0,0:0:0:0:
48,11,37275,2,0,P|6:38|4:87,1,83.9999945755007,2|0,3:2|0:0,0:0:0:0:
156,187,37525,2,0,B|200:205|243:167|225:150|265:120|307:130,1,167.999989151001,10|2,0:2|0:2,0:0:0:0:
470,372,38025,5,2,3:2:0:0:
430,378,38150,1,2,0:2:0:0:
395,364,38275,1,2,0:2:0:0:
373,331,38400,1,2,0:2:0:0:
419,268,38525,2,0,P|468:190|431:102,1,167.999989151001,10|2,0:2|0:2,0:0:0:0:
325,101,38900,5,0,0:0:0:0:
314,95,39025,2,0,P|280:119|267:170,1,83.9999945755007,2|0,3:2|0:0,0:0:0:0:
213,232,39275,2,0,P|225:271|269:299,1,83.9999945755007,2|0,3:2|0:0,0:0:0:0:
489,341,39525,6,0,P|476:301|432:273,1,83.9999945755007,10|0,0:2|0:0,0:0:0:0:
401,199,39775,2,0,P|359:198|318:232,1,83.9999945755007,2|0,0:2|0:0,0:0:0:0:
86,365,40025,6,0,P|24:276|69:211,1,167.999989151001,2|2,3:2|0:2,0:0:0:0:
106,189,40400,1,0,3:2:0:0:
121,197,40525,2,0,P|157:114|96:47,1,167.999989151001,10|2,0:2|0:2,0:0:0:0:
474,47,41025,6,0,P|386:64|275:99,1,167.999989151001,2|2,3:2|3:2,0:0:0:0:
262,150,41400,1,2,0:2:0:0:
277,168,41525,2,0,P|371:186|462:214,1,167.999989151001,10|0,0:2|3:2,0:0:0:0:
138,33,42025,5,6,0:2:0:0:
432,353,44025,6,0,P|425:306|421:265,1,69.9999976158143,6|0,0:2|0:0,0:0:0:0:
323,318,44275,2,0,P|330:271|334:230,1,69.9999976158143,2|0,3:2|0:0,0:0:0:0:
224,363,44525,1,10,0:2:0:0:
215,350,44650,2,0,P|208:303|204:262,1,69.9999976158143,2|0,0:2|0:0,0:0:0:0:
84,126,44900,6,0,P|77:173|73:214,1,69.9999976158143,2|0,0:2|3:2,0:0:0:0:
195,75,45150,2,0,P|201:114|205:154,1,69.9999976158143,2|0,0:2|3:2,0:0:0:0:
11,13,45400,2,0,P|4:52|0:92,1,69.9999976158143,2|8,0:2|0:0,0:0:0:0:
305,95,45650,5,2,0:2:0:0:
316,119,45775,1,2,0:0:0:0:
298,154,45900,1,2,0:0:0:0:
322,186,46025,5,14,0:2:0:0:
5,237,46525,5,14,0:2:0:0:
462,304,47025,5,14,0:2:0:0:
282,370,47275,1,0,3:2:0:0:
273,339,47400,1,0,3:2:0:0:
261,309,47525,1,14,0:2:0:0:
244,281,47650,1,0,3:2:0:0:
223,256,47775,1,0,3:2:0:0:
197,236,47900,1,0,3:2:0:0:
169,219,48025,1,14,3:2:0:0:
465,22,48275,6,0,P|438:58|433:88,1,62.9999959316255,2|0,3:2|0:0,0:0:0:0:
375,130,48525,2,0,P|400:166|427:180,1,62.9999959316255,10|0,0:2|0:0,0:0:0:0:
492,244,48775,2,0,B|501:276|478:309|470:294|437:319|446:358,1,125.999991863251,2|2,0:2|0:2,0:0:0:0:
367,360,49150,1,0,0:0:0:0:
359,350,49275,2,0,P|359:310|379:286,1,62.9999959316255,0|2,3:2|0:2,0:0:0:0:
223,208,49525,6,0,P|254:225|267:258,1,62.9999959316255,8|2,0:2|3:2,0:0:0:0:
402,167,49775,2,0,P|379:182|341:183,1,62.9999959316255,2|0,0:2|0:0,0:0:0:0:
213,350,50025,5,2,3:2:0:0:
204,359,50275,1,0,3:2:0:0:
141,297,50525,2,0,P|93:289|55:284,1,62.9999959316255,10|0,0:2|0:0,0:0:0:0:
196,217,50775,2,0,P|160:212|125:206,1,62.9999959316255,2|2,0:2|0:2,0:0:0:0:
285,382,51025,1,2,0:2:0:0:
306,363,51150,1,2,0:2:0:0:
333,353,51275,1,2,3:2:0:0:
361,351,51400,1,2,0:2:0:0:
388,359,51525,5,10,0:2:0:0:
410,374,51650,2,0,B|395:341|412:303|422:323|444:283|423:242,1,125.999991863251,2|0,3:2|0:0,0:0:0:0:
439,243,52025,1,2,3:2:0:0:
232,96,52275,1,2,3:2:0:0:
392,15,52525,2,0,P|398:53|407:92,1,62.9999959316255,10|0,0:2|0:0,0:0:0:0:
338,168,52775,2,0,P|332:130|323:91,1,62.9999959316255,2|2,0:2|0:2,0:0:0:0:
113,32,53025,6,0,P|75:25|38:16,2,62.9999959316255,2|2|2,2:2|0:2|3:2,0:0:0:0:
155,95,53400,1,2,0:2:0:0:
90,133,53525,1,10,0:2:0:0:
80,140,53650,2,0,B|55:164|70:198|70:198|105:216|110:259,1,125.999991863251,2|0,3:2|0:0,0:0:0:0:
64,318,54025,6,0,B|39:315|19:337|19:337|3:285|59:248,1,125.999991863251,2|0,3:2|0:0,0:0:0:0:
328,315,54525,2,0,P|290:323|191:357,1,125.999991863251,2|2,3:2|2:2,0:0:0:0:
288,128,55025,2,0,P|312:148|350:168,1,62.9999959316255,2|0,3:2|0:0,0:0:0:0:
252,221,55275,2,0,P|220:238|192:261,1,62.9999959316255,0|2,3:2|2:2,0:0:0:0:
156,31,55525,1,0,3:2:0:0:
211,16,55650,1,0,3:2:0:0:
266,30,55775,1,2,3:2:0:0:
300,75,55900,1,0,3:2:0:0:
316,62,56025,6,0,P|406:36|497:23,1,125.999991863251,4|2,3:2|3:2,0:0:0:0:
474,166,56400,1,2,2:2:0:0:
458,169,56525,2,0,P|428:138|426:102,2,62.9999959316255,10|2|0,0:2|0:2|0:0,0:0:0:0:
503,253,56900,6,0,P|464:271|429:262,1,62.9999959316255,2|0,0:2|0:0,0:0:0:0:
375,311,57150,2,0,P|345:280|343:244,1,62.9999959316255,2|0,0:2|3:2,0:0:0:0:
342,86,57400,5,2,0:2:0:0:
357,74,57525,2,0,P|386:104|389:140,1,62.9999959316255,8|2,0:2|3:2,0:0:0:0:
341,261,57775,2,0,P|299:271|266:255,1,62.9999959316255,2|0,2:2|0:0,0:0:0:0:
213,202,58025,5,2,3:2:0:0:
98,36,58275,1,2,3:2:0:0:
1,163,58525,2,0,P|10:205|16:242,1,62.9999959316255,10|0,0:2|0:0,0:0:0:0:
89,219,58775,2,0,P|80:177|74:140,1,62.9999959316255,2|2,2:2|0:2,0:0:0:0:
228,13,59025,5,2,2:2:0:0:
238,39,59150,1,0,0:0:0:0:
236,67,59275,1,2,3:2:0:0:
221,92,59400,1,0,0:0:0:0:
194,104,59525,5,10,0:2:0:0:
168,101,59650,2,0,B|201:92|237:109|218:124|254:145|290:132,1,125.999991863251,2|0,3:2|0:0,0:0:0:0:
297,150,60025,5,2,3:2:0:0:
83,291,60275,1,0,3:2:0:0:
159,316,60525,2,0,P|195:321|230:328,1,62.9999959316255,10|0,0:2|0:0,0:0:0:0:
146,232,60775,2,0,P|181:226|216:219,1,62.9999959316255,2|2,0:2|0:2,0:0:0:0:
368,375,61025,5,2,0:2:0:0:
368,375,61150,1,0,0:0:0:0:
368,375,61275,2,0,P|332:368|297:362,1,62.9999959316255,0|2,3:2|0:2,0:0:0:0:
245,204,61525,1,8,0:2:0:0:
306,159,61650,2,0,P|359:170|385:259,1,125.999991863251,0|0,3:2|0:0,0:0:0:0:
390,229,62025,6,0,B|376:193|401:151|411:174|432:128|410:85,1,125.999991863251,2|2,3:2|2:2,0:0:0:0:
279,33,62525,2,0,P|242:52|231:86,1,62.9999959316255,10|0,0:2|0:0,0:0:0:0:
291,144,62775,2,0,P|328:125|339:91,1,62.9999959316255,2|2,0:2|0:2,0:0:0:0:
156,36,63025,2,0,B|116:25|90:47|102:68|72:89|33:81,1,125.999991863251,2|2,3:2|2:2,0:0:0:0:
176,207,63525,2,0,B|213:197|236:218|226:237|253:256|290:249,1,125.999991863251,10|2,2:2|0:2,0:0:0:0:
376,274,63900,5,0,0:0:0:0:
365,260,64025,2,0,P|243:299|182:325,1,160.999997587204,6|2,0:2|0:2,0:0:0:0:
45,227,64525,2,0,P|56:186|108:167,1,59.4999991083145,10|0,0:2|0:0,0:0:0:0:
103,108,64775,2,0,P|145:105|179:152,1,66.4999959592821,2|0,0:2|0:0,0:0:0:0:
239,133,65025,1,2,3:2:0:0:
172,335,65275,2,0,P|157:254|137:197,1,132.999991918564,2|8,3:2|0:2,0:0:0:0:
241,35,65775,6,0,P|303:37|302:113,1,118.999998216629,2|0,0:2|3:2,0:0:0:0:
460,142,66275,2,0,P|404:143|405:211,1,118.999998216629,2|8,0:2|0:2,0:0:0:0:
394,197,66775,2,0,P|424:224|432:270,1,59.4999991083145,2|0,0:2|0:0,0:0:0:0:
349,268,67025,2,0,P|265:251|184:235,1,118.999998216629,0|2,3:2|3:2,0:0:0:0:
203,133,67525,2,0,P|287:150|368:166,1,118.999998216629,8|2,0:2|0:2,0:0:0:0:
109,368,68025,6,0,B|80:336|102:289|102:289|150:258|133:197,1,178.499997324944,0|0,3:2|0:0,0:0:0:0:
135,208,68525,1,10,0:2:0:0:
27,76,68775,2,0,P|39:108|48:158,1,59.4999991083145
57,149,69025,1,2,3:2:0:0:
301,38,69275,1,2,3:2:0:0:
127,6,69525,1,8,0:2:0:0:
264,212,69775,1,2,0:2:0:0:
468,50,70025,5,10,0:2:0:0:
70,369,72025,6,0,P|64:246|40:158,1,174.999994039536,6|2,0:2|0:2,0:0:0:0:
152,15,72525,2,0,P|101:39|95:83,1,87.4999970197678,10|0,0:2|0:0,0:0:0:0:
152,127,72775,2,0,P|203:103|209:59,1,87.4999970197678,2|0,0:2|0:0,0:0:0:0:
359,14,73025,5,2,3:2:0:0:
315,18,73150,1,2,0:2:0:0:
288,52,73275,1,2,3:2:0:0:
294,94,73400,1,2,0:2:0:0:
342,153,73525,2,0,P|447:124|549:118,1,174.999994039536,10|2,0:2|0:2,0:0:0:0:
258,364,74025,5,2,3:2:0:0:
250,322,74150,1,2,0:2:0:0:
239,281,74275,1,2,0:2:0:0:
223,242,74400,1,2,0:2:0:0:
246,171,74525,2,0,P|174:91|80:107,1,174.999994039536,10|2,0:2|0:2,0:0:0:0:
112,90,75025,2,0,P|106:133|90:194,1,87.4999970197678,2|0,3:2|0:0,0:0:0:0:
112,330,75275,2,0,P|118:287|134:226,1,87.4999970197678,2|0,3:2|0:0,0:0:0:0:
176,184,75525,1,10,0:2:0:0:
429,355,75775,6,0,P|376:342|311:333,1,87.4999970197678,2|0,0:2|0:0,0:0:0:0:
298,273,76025,2,0,P|341:184|444:204,1,174.999994039536,2|0,3:2|0:0,0:0:0:0:
408,179,76525,2,0,P|389:233|383:295,1,87.4999970197678,10|0,0:2|0:0,0:0:0:0:
301,158,76775,2,0,P|293:108|276:61,1,87.4999970197678,2|0,0:2|0:0,0:0:0:0:
438,0,77025,5,2,3:2:0:0:
474,34,77150,1,0,0:0:0:0:
456,81,77275,2,0,P|416:76|358:59,1,87.4999970197678,2|0,3:2|0:0,0:0:0:0:
216,179,77525,2,0,P|263:164|313:157,1,87.4999970197678,10|0,0:2|0:0,0:0:0:0:
79,20,77775,2,0,P|126:34|176:41,1,87.4999970197678,2|0,0:2|0:0,0:0:0:0:
14,224,78025,5,10,0:2:0:0:
296,332,78275,1,2,0:2:0:0:
216,371,78525,1,2,0:2:0:0:
216,371,78775,1,2,3:2:0:0:
142,328,79025,5,2,0:2:0:0:
142,328,79150,1,0,3:2:0:0:
142,328,79275,2,0,P|137:269|132:240,1,62.9999959316255,0|2,0:0|0:2,0:0:0:0:
192,190,79525,2,0,P|197:131|202:102,1,62.9999959316255,2|0,3:2|0:0,0:0:0:0:
151,53,79775,1,0,3:2:0:0:
357,11,80025,5,6,0:2:0:0:
313,31,80150,1,2,0:2:0:0:
304,78,80275,1,2,0:2:0:0:
331,117,80400,1,2,0:2:0:0:
407,115,80525,2,0,B|448:92|486:121|486:121|497:175|445:195,1,167.999989151001,10|2,0:2|0:2,0:0:0:0:
346,252,80900,5,0,0:0:0:0:
323,261,81025,2,0,P|291:219|299:175,1,83.9999945755007,2|0,3:2|0:0,0:0:0:0:
246,129,81275,2,0,P|276:85|320:79,1,83.9999945755007,2|0,3:2|0:0,0:0:0:0:
220,263,81525,2,0,B|185:284|129:269|156:244|102:217|61:236,1,167.999989151001,10|2,0:2|0:2,0:0:0:0:
64,95,82025,5,2,3:2:0:0:
67,51,82150,1,2,0:2:0:0:
104,25,82275,1,2,0:2:0:0:
147,33,82400,1,2,0:2:0:0:
190,92,82525,2,0,P|156:201|145:287,1,167.999989151001,10|2,0:2|0:2,0:0:0:0:
100,344,82900,1,0,0:0:0:0:
87,345,83025,2,0,P|55:311|69:261,1,83.9999945755007,2|0,3:2|0:0,0:0:0:0:
101,187,83275,2,0,P|146:176|182:213,1,83.9999945755007,2|0,3:2|0:0,0:0:0:0:
287,324,83525,6,0,P|332:335|368:298,1,83.9999945755007,10|0,0:2|0:0,0:0:0:0:
318,150,83775,1,2,0:2:0:0:
304,160,83900,1,0,0:0:0:0:
292,171,84025,6,0,P|393:190|492:212,1,167.999989151001,2|2,3:2|0:2,0:0:0:0:
300,78,84400,1,0,3:2:0:0:
311,90,84525,2,0,P|404:110|499:128,1,167.999989151001,10|2,0:2|0:2,0:0:0:0:
206,296,85025,6,0,P|105:315|6:337,1,167.999989151001,2|2,3:2|3:2,0:0:0:0:
200,202,85400,1,2,0:2:0:0:
189,214,85525,2,0,P|95:234|0:252,1,167.999989151001,10|0,0:2|3:2,0:0:0:0:
408,362,86025,5,6,0:2:0:0:
93,28,88025,6,0,P|89:77|74:134,1,83.9999945755007,6|0,0:2|0:0,0:0:0:0:
224,88,88275,2,0,P|228:137|243:194,1,83.9999945755007,2|0,3:2|0:0,0:0:0:0:
367,25,88525,1,10,0:2:0:0:
376,33,88650,2,0,P|372:82|357:139,1,83.9999945755007,2|0,0:2|0:0,0:0:0:0:
410,366,88900,6,0,P|414:317|429:260,1,83.9999945755007,2|0,0:2|3:2,0:0:0:0:
274,303,89150,1,2,0:2:0:0:
261,313,89275,2,0,P|208:297|161:292,1,83.9999945755007,0|2,3:2|0:2,0:0:0:0:
30,216,89525,5,8,0:0:0:0:
30,216,89650,1,2,0:2:0:0:
30,216,89775,1,2,0:0:0:0:
225,86,90025,5,14,0:2:0:0:
