osu file format v14

[General]
AudioFilename: audio.mp3
AudioLeadIn: 0
PreviewTime: 26378
Countdown: 0
SampleSet: Soft
StackLeniency: 0.5
Mode: 0
LetterboxInBreaks: 0
WidescreenStoryboard: 1

[Editor]
Bookmarks: 89983,94858
DistanceSpacing: 1.05
BeatDivisor: 4
GridSize: 4
TimelineZoom: 1.2

[Metadata]
Title:CALL ME, BEEP ME! (The KIM POSSIBLE Song) (Cut Ver.)
TitleUnicode:CALL ME, BEEP ME! (The KIM POSSIBLE Song) (Cut Ver.)
Artist:Christina Milian
ArtistUnicode:Christina Milian
Creator:Seolv
Version:Advanced
Source:Kim Possible
Tags:english pop r&b cartoon disney channel opening theme short version tv size christy carlson romano milan lukas [_l_u_k_a_s_] paradogi sylas thekoala qiyana dylbyl dyl-byl aistre alphabet venax
BeatmapID:2917737
BeatmapSetID:1405908

[Difficulty]
HPDrainRate:3.5
CircleSize:3.8
OverallDifficulty:5.6
ApproachRate:6.5
SliderMultiplier:1.84999990463257
SliderTickRate:1

[Events]
//Background and Video events
0,0,"thumb-1920-879128.png",0,0
//Break Periods
//Storyboard Layer 0 (Background)
//Storyboard Layer 1 (Fail)
//Storyboard Layer 2 (Pass)
//Storyboard Layer 3 (Foreground)
//Storyboard Layer 4 (Overlay)
//Storyboard Sound Samples

[TimingPoints]
2025,500,4,2,1,80,1,0
2025,-90.9090909090909,4,2,1,80,0,0
2525,-90.9090909090909,4,2,1,80,0,0
3025,-90.9090909090909,4,2,1,80,0,0
4275,-100,4,2,1,60,0,0
4525,-111.111111111111,4,2,1,60,0,0
20025,-100,4,2,1,70,0,0
23775,-100,4,2,1,80,0,0
26525,-100,4,2,1,60,0,0
28025,-90.9090909090909,4,2,1,90,0,1
34025,-100,4,2,1,80,0,1
36025,-90.9090909090909,4,2,1,90,0,1
42025,-100,4,2,1,90,0,0
42275,-100,4,2,1,60,0,0
44025,-90.9090909090909,4,2,1,80,0,1
48025,-100,4,2,1,80,0,0
48275,-111.111111111111,4,2,1,60,0,0
64025,-100,4,2,1,70,0,0
67775,-100,4,2,1,80,0,0
70025,-125,4,2,1,80,0,0
70525,-100,4,2,1,60,0,0
71025,-100,4,2,1,40,0,0
72025,-90.9090909090909,4,2,1,90,0,1
78025,-100,4,2,1,80,0,1
80025,-90.9090909090909,4,2,1,90,0,1
86025,-100,4,2,1,90,0,0
86275,-100,4,2,1,70,0,0
88025,-90.9090909090909,4,2,1,80,0,1
89525,-90.9090909090909,4,2,1,90,0,1
90025,-90.9090909090909,4,2,1,90,0,0
94525,-90.9090909090909,4,2,1,90,0,0

[Colours]
Combo1 : 79,81,162
Combo2 : 158,41,12
Combo3 : 255,217,85
Combo4 : 242,170,175

[HitObjects]
4,359,2025,6,0,P|41:330|115:335,1,101.749997859955,14|0,0:2|0:0,0:0:0:0:
110,225,2525,2,0,P|153:242|186:309,1,101.749997859955,14|0,0:2|0:0,0:0:0:0:
215,383,3025,2,0,P|218:273|242:176,1,203.49999571991,14|14,0:2|3:2,0:0:0:0:
270,85,3775,1,14,0:2:0:0:
351,23,4025,1,4,3:2:0:0:
435,172,4525,5,10,0:2:0:0:
435,172,4650,2,0,P|378:189|353:224,2,83.2499931678775,2|2|2,0:2|0:2|0:2,0:0:0:0:
466,248,5400,2,0,P|434:274|393:281,1,83.2499931678775,2|2,0:2|3:2,0:0:0:0:
292,354,6025,6,0,L|199:332,1,83.2499931678775,2|0,3:2|3:2,0:0:0:0:
153,281,6525,1,10,0:2:0:0:
153,281,6650,2,0,B|124:243|124:243|134:191,2,83.2499931678775,2|2|2,0:2|0:2|0:2,0:0:0:0:
232,257,7400,2,0,B|238:222|238:222|209:184,1,83.2499931678775,2|2,0:2|3:2,0:0:0:0:
126,89,8025,5,2,3:2:0:0:
195,42,8275,1,0,3:2:0:0:
263,97,8525,1,10,0:2:0:0:
263,97,8650,2,0,P|309:120|352:112,2,83.2499931678775,2|2|2,0:2|0:2|0:2,0:0:0:0:
195,42,9400,1,2,0:2:0:0:
126,89,9650,2,0,P|90:110|49:109,1,83.2499931678775,2|0,3:2|0:0,0:0:0:0:
28,74,10025,5,2,3:2:0:0:
132,203,10525,1,2,3:2:0:0:
213,57,11025,1,2,3:2:0:0:
153,114,11275,1,0,3:2:0:0:
230,144,11525,2,0,L|288:141,3,41.6249965839387,2|0|0|0,3:2|3:2|3:2|3:2,0:0:0:0:
310,158,12025,1,4,3:2:0:0:
463,88,12525,5,10,0:2:0:0:
463,88,12650,2,0,P|446:31|411:-3,2,83.2499931678775,2|2|2,0:2|0:2|0:2,0:0:0:0:
388,124,13400,2,0,P|359:87|348:40,1,83.2499931678775,2|2,0:2|3:2,0:0:0:0:
227,23,14025,6,0,L|134:45,1,83.2499931678775,2|0,3:2|3:2,0:0:0:0:
67,60,14525,1,10,0:2:0:0:
67,60,14650,2,0,P|31:82|25:144,2,83.2499931678775,2|2|2,0:2|0:2|0:2,0:0:0:0:
150,66,15400,2,0,P|176:96|177:137,1,83.2499931678775,2|2,0:2|3:2,0:0:0:0:
80,240,16025,6,0,P|60:297|86:352,1,124.874989751816,2|2,3:2|0:2,0:0:0:0:
120,377,16525,2,0,P|166:354|203:361,1,83.2499931678775,10|2,0:2|0:2,0:0:0:0:
273,325,17025,2,0,L|404:358,1,124.874989751816,2|2,0:2|0:2,0:0:0:0:
425,328,17525,2,0,B|434:286|434:286|416:248,1,83.2499931678775,8|2,0:2|0:2,0:0:0:0:
342,210,18025,6,0,L|373:68,1,124.874989751816,2|2,3:2|0:2,0:0:0:0:
376,47,18525,1,10,0:2:0:0:
301,10,18775,2,0,L|237:29,2,41.6249965839387,2|2|2,0:2|0:2|3:2,0:0:0:0:
240,120,19400,1,2,0:2:0:0:
240,120,19525,2,0,L|158:103,1,83.2499931678775,10|2,2:2|0:2,0:0:0:0:
75,61,20025,6,0,P|130:73|144:112,1,92.4999952316285,6|2,0:2|0:2,0:0:0:0:
229,138,20525,2,0,P|246:191|219:223,1,92.4999952316285,10|2,0:2|0:2,0:0:0:0:
161,283,21025,1,2,3:2:0:0:
161,283,21275,2,0,P|198:241|239:248,1,92.4999952316285,2|8,3:2|0:2,0:0:0:0:
318,214,21775,2,0,P|373:226|402:349,1,184.999990463257,2|2,0:2|0:2,0:0:0:0:
324,377,22525,1,8,0:2:0:0:
239,354,22775,5,2,0:2:0:0:
239,354,23025,2,0,L|140:373,1,92.4999952316285,0|2,3:2|3:2,0:0:0:0:
67,325,23525,1,8,0:2:0:0:
67,325,23775,1,2,0:2:0:0:
112,244,24025,6,0,P|124:192|109:151,1,92.4999952316285,0|2,3:2|0:2,0:0:0:0:
53,83,24525,2,0,P|139:116|197:119,1,138.749992847443,10|0,0:2|0:0,0:0:0:0:
206,96,25025,1,2,3:2:0:0:
270,42,25275,1,2,3:2:0:0:
360,28,25525,1,8,0:2:0:0:
437,87,25775,1,2,0:2:0:0:
472,172,26025,1,8,0:2:0:0:
83,356,28025,5,6,0:2:0:0:
159,289,28275,1,2,0:2:0:0:
236,355,28525,2,0,P|286:364|329:339,1,101.749997859955,10|2,0:2|0:2,0:0:0:0:
384,254,29025,2,0,L|397:205,3,50.8749989299774,2|2|2|2,3:2|0:2|3:2|0:2,0:0:0:0:
379,156,29525,2,0,L|255:137,1,101.749997859955,10|2,0:2|0:2,0:0:0:0:
191,177,30025,5,2,3:2:0:0:
191,177,30150,1,2,0:2:0:0:
191,177,30275,2,0,L|178:226,2,50.8749989299774,2|2|10,0:2|0:2|0:2,0:0:0:0:
99,222,30775,1,2,0:2:0:0:
146,311,31025,2,0,P|203:314|249:273,1,101.749997859955,2|2,3:2|3:2,0:0:0:0:
323,234,31525,1,10,0:2:0:0:
391,309,31775,1,2,0:2:0:0:
473,250,32025,6,0,P|496:180|453:119,1,152.624996789932,2|0,3:2|0:0,0:0:0:0:
421,96,32525,1,10,0:2:0:0:
350,169,32775,1,2,0:2:0:0:
289,87,33025,2,0,L|173:62,1,101.749997859955,2|2,3:2|3:2,0:0:0:0:
111,130,33525,1,10,0:2:0:0:
163,202,33775,1,2,0:2:0:0:
99,281,34025,6,0,L|79:379,2,92.4999952316285,10|2|2,0:2|0:2|0:2,0:0:0:0:
157,209,34775,1,2,3:2:0:0:
232,271,35025,1,2,0:2:0:0:
232,271,35150,2,0,P|291:239|324:243,1,92.4999952316285,0|2,3:2|0:2,0:0:0:0:
356,259,35525,2,0,L|371:374,1,92.4999952316285,2|0,3:2|3:2,0:0:0:0:
275,377,36025,5,6,0:2:0:0:
275,377,36150,1,2,0:2:0:0:
275,377,36275,2,0,L|219:368,2,50.8749989299774,2|2|10,0:2|0:2|0:2,0:0:0:0:
367,350,36775,1,2,0:2:0:0:
466,326,37025,2,0,P|478:278|453:235,1,101.749997859955,2|2,3:2|3:2,0:0:0:0:
376,168,37525,2,0,P|351:125|363:77,1,101.749997859955,10|2,0:2|0:2,0:0:0:0:
281,17,38025,6,0,L|231:6,3,50.8749989299774,2|2|2|2,3:2|0:2|0:2|0:2,0:0:0:0:
201,40,38525,2,0,L|99:49,1,101.749997859955,10|2,0:2|0:2,0:0:0:0:
85,150,39025,2,0,L|186:140,1,101.749997859955,2|2,3:2|3:2,0:0:0:0:
282,174,39525,1,10,0:2:0:0:
303,273,39775,1,2,0:2:0:0:
236,350,40025,6,0,P|208:324|204:245,1,101.749997859955,2|2,3:2|0:2,0:0:0:0:
213,217,40400,1,0,3:2:0:0:
213,217,40525,2,0,L|189:144,2,50.8749989299774,10|0|2,0:2|3:2|0:2,0:0:0:0:
121,261,41025,1,2,3:2:0:0:
27,221,41275,1,2,3:2:0:0:
27,221,41400,1,2,0:2:0:0:
27,221,41525,2,0,B|32:174|32:174|35:169|35:169|41:104,1,101.749997859955,10|0,0:2|3:2,0:0:0:0:
53,28,42025,5,6,0:2:0:0:
448,34,44025,5,6,0:2:0:0:
368,97,44275,1,2,3:2:0:0:
286,44,44525,1,10,0:2:0:0:
286,44,44650,2,0,P|222:25|185:35,2,101.749997859955,2|2|2,0:2|0:2|0:2,0:0:0:0:
373,105,45400,1,2,0:2:0:0:
373,105,45525,2,0,L|383:158,2,50.8749989299774,8|2|2,0:0|0:2|0:0,0:0:0:0:
294,170,46025,5,14,0:2:0:0:
477,81,46525,1,14,0:2:0:0:
512,233,46900,1,0,3:2:0:0:
512,233,47025,2,0,L|500:369,1,101.749997859955,14|0,0:2|3:2,0:0:0:0:
458,355,47400,1,0,3:2:0:0:
458,355,47525,2,0,L|399:358,3,50.8749989299774,14|0|0|0,0:2|3:2|3:2|3:2,0:0:0:0:
360,358,48025,5,14,3:2:0:0:
306,294,48275,2,0,P|264:275|212:278,1,83.2499931678775,2|10,3:2|0:2,0:0:0:0:
182,344,48775,1,2,0:2:0:0:
42,252,49275,2,0,P|17:207|38:151,2,83.2499931678775,0|8|2,3:2|0:2|0:2,0:0:0:0:
114,293,50025,5,2,3:2:0:0:
114,293,50275,1,0,3:2:0:0:
174,236,50525,2,0,L|276:211,1,83.2499931678775,10|2,0:2|0:2,0:0:0:0:
308,279,51025,2,0,P|342:214|286:137,1,166.499986335755,2|10,0:2|0:2,0:0:0:0:
222,103,51775,1,2,2:2:0:0:
274,38,52025,6,0,L|355:55,1,83.2499931678775,2|2,3:2|3:2,0:0:0:0:
435,80,52525,2,0,L|417:162,1,83.2499931678775,10|2,0:2|0:2,0:0:0:0:
400,245,53025,1,2,2:2:0:0:
400,245,53275,1,2,3:2:0:0:
325,206,53525,2,0,P|284:211|243:240,1,83.2499931678775,10|2,0:2|2:2,0:0:0:0:
209,306,54025,6,0,B|151:321|137:281|140:285|120:236|45:264,1,166.499986335755,2|2,3:2|3:2,0:0:0:0:
14,189,54775,1,2,2:2:0:0:
76,133,55025,2,0,L|91:49,1,83.2499931678775,2|0,3:2|3:2,0:0:0:0:
158,2,55525,1,0,3:2:0:0:
232,38,55775,2,0,L|284:48,1,41.6249965839387,2|0,3:2|3:2,0:0:0:0:
314,49,56025,1,4,3:2:0:0:
315,132,56275,6,0,L|326:205,1,41.6249965839387,2|2,3:2|2:2,0:0:0:0:
294,205,56525,2,0,L|305:278,1,41.6249965839387,10|2,0:2|0:2,0:0:0:0:
272,324,56900,1,2,0:2:0:0:
272,324,57150,1,2,0:2:0:0:
349,354,57400,2,0,P|396:344|445:343,1,83.2499931678775,2|2,0:2|3:2,0:0:0:0:
470,356,57775,1,2,2:2:0:0:
502,279,58025,6,0,L|489:182,1,83.2499931678775,2|2,3:2|3:2,0:0:0:0:
418,155,58525,2,0,L|406:237,1,83.2499931678775,10|2,0:2|2:2,0:0:0:0:
327,264,59025,1,2,2:2:0:0:
327,264,59275,1,2,3:2:0:0:
268,204,59525,2,0,L|226:208,1,41.6249965839387,10|2,0:2|3:2,0:0:0:0:
188,328,60025,6,0,P|101:308|59:345,1,124.874989751816,2|2,3:2|0:2,0:0:0:0:
41,348,60525,2,0,L|55:222,1,124.874989751816,10|2,0:2|0:2,0:0:0:0:
91,203,61025,2,0,L|77:77,1,124.874989751816,2|2,0:2|0:2,0:0:0:0:
70,37,61525,1,8,0:2:0:0:
149,61,61775,1,2,0:2:0:0:
223,23,62025,6,0,P|268:19|312:42,1,83.2499931678775,2|2,3:2|2:2,0:0:0:0:
316,116,62525,2,0,P|341:152|344:202,1,83.2499931678775,10|2,0:2|0:2,0:0:0:0:
303,261,63025,1,2,3:2:0:0:
303,261,63275,1,2,2:2:0:0:
224,233,63525,2,0,L|141:218,1,83.2499931678775,10|2,2:2|0:2,0:0:0:0:
68,275,64025,6,0,P|92:312|146:327,1,92.4999952316285,6|2,0:2|0:2,0:0:0:0:
209,383,64525,2,0,P|253:380|293:341,1,92.4999952316285,10|2,0:2|0:2,0:0:0:0:
352,282,65025,1,2,3:2:0:0:
352,282,65275,2,0,P|314:257|300:204,1,92.4999952316285,2|8,3:2|0:2,0:0:0:0:
244,141,65775,2,0,P|246:96|285:56,1,92.4999952316285,2|0,0:2|3:2,0:0:0:0:
360,21,66275,1,2,0:2:0:0:
448,46,66525,1,8,0:2:0:0:
479,138,66775,5,2,0:2:0:0:
479,138,67025,2,0,L|492:241,1,92.4999952316285,0|2,3:2|3:2,0:0:0:0:
437,305,67525,1,8,0:2:0:0:
437,305,67775,1,2,0:2:0:0:
346,285,68025,6,0,P|321:247|277:243,1,92.4999952316285,0|2,3:2|0:2,0:0:0:0:
204,301,68525,2,0,P|237:215|240:157,1,138.749992847443,10|0,0:2|0:0,0:0:0:0:
236,151,69025,1,2,3:2:0:0:
197,66,69275,1,2,3:2:0:0:
104,57,69525,1,8,0:2:0:0:
38,122,69775,1,2,0:2:0:0:
74,202,70025,6,0,P|110:199|143:215,1,73.9999961853028,10|0,0:2|0:0,0:0:0:0:
192,287,70525,2,0,L|201:332,1,46.2499976158142,2|2,0:2|0:0,0:0:0:0:
466,345,72025,5,6,0:2:0:0:
387,280,72275,1,2,0:2:0:0:
472,224,72525,2,0,P|477:185|429:136,1,101.749997859955,10|2,0:2|0:2,0:0:0:0:
359,76,73025,2,0,L|310:89,3,50.8749989299774,2|2|2|2,3:2|0:2|3:2|0:2,0:0:0:0:
281,131,73525,2,0,L|157:112,1,101.749997859955,10|2,0:2|0:2,0:0:0:0:
80,94,74025,5,2,3:2:0:0:
80,94,74150,1,2,0:2:0:0:
80,94,74275,2,0,L|67:45,2,50.8749989299774,2|2|10,0:2|0:2|0:2,0:0:0:0:
109,191,74775,1,2,0:2:0:0:
51,274,75025,2,0,P|105:270|146:305,1,101.749997859955,2|2,3:2|3:2,0:0:0:0:
186,372,75525,1,10,0:2:0:0:
273,320,75775,1,2,0:2:0:0:
360,371,76025,6,0,B|314:349|314:349|291:288|348:252,1,152.624996789932,2|0,3:2|0:0,0:0:0:0:
375,255,76525,1,10,0:2:0:0:
460,199,76775,1,2,0:2:0:0:
443,98,77025,2,0,P|404:58|329:56,1,101.749997859955,2|2,3:2|3:2,0:0:0:0:
268,4,77525,2,0,P|213:17|174:81,1,101.749997859955,10|2,0:2|0:2,0:0:0:0:
142,143,78025,6,0,L|125:255,2,92.4999952316285,10|2|2,0:2|0:2|0:2,0:0:0:0:
234,143,78775,1,2,3:2:0:0:
302,213,79025,1,2,0:2:0:0:
302,213,79150,2,0,P|306:257|276:291,1,92.4999952316285,0|2,3:2|0:2,0:0:0:0:
269,337,79525,2,0,L|360:348,1,92.4999952316285,2|0,3:2|3:2,0:0:0:0:
458,331,80025,5,6,0:2:0:0:
458,331,80150,1,2,0:2:0:0:
458,331,80275,2,0,L|467:387,2,50.8749989299774,2|2|10,0:2|0:2|0:2,0:0:0:0:
387,257,80775,1,2,0:2:0:0:
461,187,81025,2,0,P|473:139|448:96,1,101.749997859955,2|2,3:2|3:2,0:0:0:0:
348,114,81525,2,0,P|335:161|360:204,1,101.749997859955,10|2,0:2|0:2,0:0:0:0:
281,270,82025,6,0,L|218:257,3,50.8749989299774,2|2|2|2,3:2|0:2|0:2|0:2,0:0:0:0:
204,216,82525,2,0,L|102:225,1,101.749997859955,10|2,0:2|0:2,0:0:0:0:
33,150,83025,2,0,L|45:18,1,101.749997859955,2|2,3:2|3:2,0:0:0:0:
134,6,83525,1,10,0:2:0:0:
213,70,83775,1,2,0:2:0:0:
288,1,84025,6,0,P|345:42|397:31,1,101.749997859955,2|2,3:2|0:2,0:0:0:0:
396,18,84400,1,0,3:2:0:0:
396,18,84525,2,0,L|469:42,2,50.8749989299774,10|0|2,0:2|3:2|0:2,0:0:0:0:
309,87,85025,1,2,3:2:0:0:
379,160,85275,2,0,L|404:232,2,50.8749989299774,2|2|10,3:2|0:2|0:2,0:0:0:0:
311,236,85775,1,0,3:2:0:0:
367,309,86025,5,6,0:2:0:0:
45,150,88025,5,6,0:2:0:0:
141,183,88275,1,2,3:2:0:0:
244,205,88525,1,10,0:2:0:0:
244,205,88650,2,0,P|225:141|235:104,2,101.749997859955,2|2|2,0:2|0:2|0:2,0:0:0:0:
285,233,89275,1,0,3:2:0:0:
351,309,89525,5,8,0:0:0:0:
351,309,89650,1,2,0:2:0:0:
351,309,89775,2,0,L|414:293,1,50.8749989299774,2|2,0:0|0:0,0:0:0:0:
434,290,90025,1,14,0:0:0:0:
