osu file format v14

[General]
AudioFilename: audio.mp3
AudioLeadIn: 0
PreviewTime: 37847
Countdown: 0
SampleSet: None
StackLeniency: 0.7
Mode: 0
LetterboxInBreaks: 0
EpilepsyWarning: 1
WidescreenStoryboard: 0

[Editor]
Bookmarks: 23785,38081,38783,66901,76276,90572,91274,104399,106274,122914,123146,138256,145630,159926,160628,175628
DistanceSpacing: 1.1
BeatDivisor: 8
GridSize: 8
TimelineZoom: 1.9

[Metadata]
Title:The Gummy Bear Song
TitleUnicode:The Gummy Bear Song
Artist:Christian P. Schneider Tonekind, Papabar, Rene Rennefeld
ArtistUnicode:Christian P. Schneider Tonekind, Papabar, Rene Rennefeld
Creator:Busyarik321
Version:The Gummy Bear!
Source:(Unknown)
Tags:#cartoon #art #pop #drawing #illustration #digitalart #artist #anime #sketch #artwork #animation #cartoons #comic #cartoonart #draw #fanart #comics #love #cartoonnetwork #artistsoninstagram #funny #disney #doodle #characterdesign #design #memes #illustrator #s #cute #cartoonist #sketchbook #manga #painting #instaart #digitaldrawing #instagram #like #procreate #d #meme #arte #drawings #bhfyp #instagood #artoftheday #digitalillustration #follow #digital #graphicdesign #comicart #character #caricature #ink #inktober #humor #oc #photoshop #portrait #vector #comicstrip #comedy Gummy Gummy Bear Gummy Bear song
BeatmapID:4550739
BeatmapSetID:2158530

[Difficulty]
HPDrainRate:5.5
CircleSize:3.5
OverallDifficulty:6
ApproachRate:9.5
SliderMultiplier:2.55
SliderTickRate:2

[Events]
//Background and Video events
0,0,"maxresdefault (45).jpg",0,0
//Break Periods
2,145830,151592
//Storyboard Layer 0 (Background)
//Storyboard Layer 1 (Fail)
//Storyboard Layer 2 (Pass)
//Storyboard Layer 3 (Foreground)
//Storyboard Layer 4 (Overlay)
//Storyboard Sound Samples

[TimingPoints]
1287,468.75,4,1,0,100,1,0
1287,-100,4,1,0,80,0,0
3103,-100,4,1,0,5,0,0
3162,-83.3333333333333,4,1,0,100,0,0
4568,-83.3333333333333,4,1,0,70,0,0
5037,-100,4,1,0,70,0,0
5974,-100,4,1,0,80,0,0
6912,-83.3333333333333,4,1,0,100,0,0
8787,-100,4,1,0,80,0,0
10662,-83.3333333333333,4,1,0,100,0,0
12478,-83.3333333333333,4,1,0,5,0,0
12537,-100,4,1,0,80,0,0
12654,-100,4,1,0,5,0,0
12771,-100,4,1,0,80,0,0
12888,-100,4,1,0,5,0,0
13005,-100,4,1,0,80,0,0
13122,-100,4,1,0,5,0,0
13239,-100,4,1,0,80,0,0
13357,-100,4,1,0,5,0,0
13474,-100,4,1,0,80,0,0
13591,-100,4,1,0,5,0,0
13708,-100,4,1,0,80,0,0
13826,-100,4,1,0,5,0,0
13943,-100,4,1,0,80,0,0
14412,-83.3333333333333,4,1,0,100,0,0
16287,-133.333333333333,4,1,0,80,0,0
16404,-133.333333333333,4,1,0,5,0,0
16521,-133.333333333333,4,1,0,80,0,0
17341,-133.333333333333,4,1,0,5,0,0
17458,-133.333333333333,4,1,0,80,0,0
20037,-100,4,1,0,90,0,0
20154,-100,4,1,0,5,0,0
20271,-100,4,1,0,90,0,0
21091,-100,4,1,0,5,0,0
21208,-100,4,1,0,90,0,0
22380,-100,4,1,0,50,0,0
23201,-100,4,1,0,30,0,0
23318,468.75,4,1,0,100,1,0
23551,468.75,4,1,0,75,1,0
23785,468.75,4,1,0,100,1,0
23785,-80,4,1,0,100,0,0
35210,-80,4,1,0,5,0,0
35269,-80,4,1,0,100,0,0
38081,468.75,4,1,0,75,1,0
38256,-100,4,1,0,5,0,0
38315,468.75,4,1,0,100,1,0
38490,-100,4,1,0,5,0,0
38549,468.75,4,1,0,75,1,0
38724,-100,4,1,0,5,0,0
38783,468.75,4,1,0,100,1,1
38783,-66.6666666666667,4,1,0,100,0,1
40599,-66.6666666666667,4,1,0,5,0,1
40658,-66.6666666666667,4,1,0,100,0,1
41068,-66.6666666666667,4,1,0,5,0,1
41126,-66.6666666666667,4,1,0,100,0,1
42064,-133.333333333333,4,1,0,100,0,1
42533,-66.6666666666667,4,1,0,75,0,1
44408,-66.6666666666667,4,1,0,100,0,1
44818,-66.6666666666667,4,1,0,5,0,1
44876,-66.6666666666667,4,1,0,100,0,1
45990,-66.6666666666667,4,1,0,5,0,1
46048,-66.6666666666667,4,1,0,100,0,1
49564,-133.333333333333,4,1,0,100,0,1
50033,-66.6666666666667,4,1,0,100,0,1
50501,-100,4,1,0,100,0,1
50970,-133.333333333333,4,1,0,100,0,1
51439,-100,4,1,0,100,0,1
51908,-66.6666666666667,4,1,0,100,0,1
53783,468.75,4,1,0,80,1,1
54251,468.75,4,1,0,100,1,1
54778,-100,4,1,0,5,0,1
54836,-100,4,1,0,100,0,1
54895,-100,4,1,0,5,0,1
54953,-100,4,1,0,100,0,1
55012,-100,4,1,0,5,0,1
55070,-100,4,1,0,100,0,1
55129,-100,4,1,0,5,0,1
55187,-100,4,1,0,100,0,1
55657,468.75,4,1,0,80,1,1
55774,-100,4,1,0,5,0,1
55891,-100,4,1,0,80,0,1
56125,468.75,4,1,0,100,1,1
57531,468.75,4,1,0,80,1,1
57999,468.75,4,1,0,100,1,1
59405,468.75,4,1,0,80,1,1
59463,-100,4,1,0,5,0,1
59522,-100,4,1,0,80,0,1
59580,-100,4,1,0,5,0,1
59639,-100,4,1,0,80,0,1
59697,-100,4,1,0,5,0,1
59756,-100,4,1,0,80,0,1
59814,-100,4,1,0,5,0,1
59873,468.75,4,1,0,100,1,1
61162,-100,4,1,0,5,0,1
61279,468.75,4,1,0,80,1,1
61688,-100,4,1,0,5,0,1
61747,468.75,4,1,0,100,1,1
63036,-100,4,1,0,5,0,1
63153,468.75,4,1,0,80,1,1
63562,-100,4,1,0,5,0,1
63621,468.75,4,1,0,100,1,1
64910,-100,4,1,0,5,0,1
65027,468.75,4,1,0,80,1,1
65436,-100,4,1,0,5,0,1
65495,468.75,4,1,0,100,1,1
66784,-100,4,1,0,5,0,1
66901,468.75,4,1,0,100,1,0
66901,-200,4,1,0,100,0,0
68776,-133.333333333333,4,1,0,80,0,0
68951,-133.333333333333,4,1,0,5,0,0
69010,-133.333333333333,4,1,0,80,0,0
70358,-133.333333333333,4,1,0,5,0,0
70416,-133.333333333333,4,1,0,80,0,0
71002,-133.333333333333,4,1,0,5,0,0
71119,-133.333333333333,4,1,0,80,0,0
72526,-100,4,1,0,90,0,0
76276,-100,4,1,0,100,0,0
90572,468.75,4,1,0,75,1,0
90572,-100,4,1,0,5,0,0
90689,-100,4,1,0,100,0,0
90806,468.75,4,1,0,100,1,0
91040,468.75,4,1,0,75,1,0
91274,468.75,4,1,0,100,1,1
91274,-66.6666666666667,4,1,0,100,0,1
104399,468.75,4,1,0,75,1,0
104399,-133.333333333333,4,1,0,75,0,0
104574,-133.333333333333,4,1,0,5,0,0
104633,-133.333333333333,4,1,0,75,0,0
104809,-133.333333333333,4,1,0,5,0,0
104868,-133.333333333333,4,1,0,75,0,0
105102,-133.333333333333,4,1,0,5,0,0
105570,-133.333333333333,4,1,0,75,0,0
106274,-100,4,1,0,100,0,0
121274,-666.666666666667,4,1,0,100,0,0
121449,-666.666666666667,4,1,0,5,0,0
121508,-666.666666666667,4,1,0,100,0,0
121918,-666.666666666667,4,1,0,5,0,0
121977,-666.666666666667,4,1,0,100,0,0
122914,468.75,4,1,0,100,1,0
122972,468.75,4,1,0,75,1,0
123030,468.75,4,1,0,100,1,0
123088,468.75,4,1,0,75,1,0
123146,468.75,4,1,0,80,1,1
123147,-66.6666666666667,4,1,0,100,0,1
123614,468.75,4,1,0,100,1,1
125020,468.75,4,1,0,80,1,1
125488,468.75,4,1,0,100,1,1
126894,468.75,4,1,0,80,1,1
127362,468.75,4,1,0,100,1,1
127830,-50,4,1,0,100,0,1
128065,-100,4,1,0,100,0,1
128768,468.75,4,1,0,80,1,1
129236,468.75,4,1,0,100,1,1
130642,468.75,4,1,0,80,1,1
131110,468.75,4,1,0,100,1,1
131637,-100,4,1,0,5,0,1
131695,-100,4,1,0,100,0,1
132516,468.75,4,1,0,80,1,1
132984,468.75,4,1,0,100,1,1
134390,468.75,4,1,0,80,1,1
134858,468.75,4,1,0,100,1,1
136733,-133.333333333333,4,1,0,70,0,1
136908,-133.333333333333,4,1,0,5,0,1
136967,-133.333333333333,4,1,0,70,0,1
137143,-133.333333333333,4,1,0,5,0,1
137201,-100,4,1,0,80,0,1
137670,-83.3333333333333,4,1,0,90,0,1
138139,468.75,4,1,0,75,1,0
138373,468.75,4,1,0,100,1,0
138607,468.75,4,1,0,75,1,0
138841,468.75,4,1,0,100,1,0
139075,468.75,4,1,0,75,1,0
139309,468.75,4,1,0,100,1,0
139543,468.75,4,1,0,75,1,0
139777,468.75,4,1,0,100,1,0
140011,468.75,4,1,0,75,1,0
140245,468.75,4,1,0,100,1,0
140420,-100,4,1,0,5,0,0
140479,468.75,4,1,0,75,1,0
140479,-400,4,1,0,75,0,0
141885,468.75,4,1,0,75,1,0
142119,468.75,4,1,0,100,1,0
142353,468.75,4,1,0,75,1,0
142587,468.75,4,1,0,100,1,0
142821,468.75,4,1,0,75,1,0
143055,468.75,4,1,0,100,1,0
143289,468.75,4,1,0,75,1,0
143523,468.75,4,1,0,100,1,0
143757,468.75,4,1,0,75,1,0
143991,468.75,4,1,0,100,1,0
144225,468.75,4,1,0,75,1,0
144225,-400,4,1,0,100,0,0
144928,468.75,4,1,0,75,1,0
145103,-100,4,1,0,5,0,0
145162,468.75,4,1,0,100,1,0
145337,-100,4,1,0,5,0,0
145396,468.75,4,1,0,75,1,0
145571,-100,4,1,0,5,0,0
145630,468.75,4,1,0,80,1,0
145630,-83.3333333333333,4,1,0,80,0,0
152192,-83.3333333333333,4,1,0,75,0,0
153130,-83.3333333333333,4,1,0,80,0,0
156880,-100,4,1,0,90,0,0
159223,-400,4,1,0,100,0,0
159926,468.75,4,1,0,75,1,0
160101,-100,4,1,0,5,0,0
160160,468.75,4,1,0,100,1,0
160394,468.75,4,1,0,75,1,0
160628,468.75,4,1,0,100,1,1
162444,-100,4,1,0,5,0,1
162503,-100,4,1,0,100,0,1
174456,-100,4,1,0,5,0,1
174924,-100,4,1,0,100,0,1
175628,468.75,4,1,0,100,1,0
175628,-100,4,1,0,80,0,0
175745,-100,4,1,0,5,0,0
175862,-100,4,1,0,80,0,0
175979,-100,4,1,0,5,0,0
176096,-100,4,1,0,80,0,0
176682,-100,4,1,0,5,0,0
176799,-100,4,1,0,80,0,0
176917,-100,4,1,0,5,0,0
177034,-100,4,1,0,80,0,0
178909,-100,4,1,0,50,0,0
179378,-100,4,1,0,80,0,0
179495,-100,4,1,0,5,0,0
179612,-100,4,1,0,80,0,0
179729,-100,4,1,0,5,0,0
179846,-100,4,1,0,80,0,0
180432,-100,4,1,0,5,0,0
180549,-100,4,1,0,80,0,0
180667,-100,4,1,0,5,0,0
180784,-100,4,1,0,80,0,0
182659,-100,4,1,0,50,0,0
183128,-100,4,1,0,80,0,0
183245,-100,4,1,0,5,0,0
183362,-100,4,1,0,80,0,0
183479,-100,4,1,0,5,0,0
183596,-100,4,1,0,80,0,0
184182,-100,4,1,0,5,0,0
184299,-100,4,1,0,80,0,0
184417,-100,4,1,0,5,0,0
184534,-100,4,1,0,80,0,0
186409,-100,4,1,0,50,0,0
186878,-100,4,1,0,80,0,0
186995,-100,4,1,0,5,0,0
187112,-100,4,1,0,80,0,0
187229,-100,4,1,0,5,0,0
187346,-100,4,1,0,80,0,0
187932,-100,4,1,0,5,0,0
188049,-100,4,1,0,80,0,0
188167,-100,4,1,0,5,0,0
188284,-100,4,1,0,80,0,0

[Colours]
Combo1 : 255,255,255
Combo2 : 128,255,128
Combo3 : 247,213,99

[HitObjects]
320,304,583,5,0,0:0:0:0:
192,320,818,1,0,0:0:0:0:
112,64,1052,1,0,0:0:0:0:
160,128,1169,1,0,0:0:0:0:
128,192,1287,2,0,B|64:176|64:176|160:144|256:160,1,255
368,272,1990,1,0,0:0:0:0:
368,96,2224,1,0,0:0:0:0:
416,336,2458,2,0,B|368:336|368:272|288:272,1,127.5
416,224,2927,2,0,B|464:224|464:160|512:160,1,95.625
496,160,3162,6,0,B|480:80|480:80|400:96,1,152.999995330811
240,80,3630,2,0,P|295:115|314:207,1,152.999995330811
240,272,4099,2,0,P|184:236|165:144,1,152.999995330811
224,64,4568,1,0,0:0:0:0:
320,80,4685,1,0,0:0:0:0:
384,144,4802,1,0,0:0:0:0:
384,240,4919,1,0,0:0:0:0:
384,336,5037,6,0,P|336:336|304:320,1,63.75
256,288,5271,1,0,0:0:0:0:
464,288,5388,1,0,0:0:0:0:
448,272,5505,2,0,P|406:247|387:217,1,63.75
320,56,5739,1,0,0:0:0:0:
363,164,5857,1,0,0:0:0:0:
240,144,5974,6,0,L|96:128,1,127.5
0,208,6443,2,0,L|144:224,1,127.5
256,192,6794,1,0,0:0:0:0:
288,272,6912,2,0,P|352:304|416:240,1,152.999995330811
480,176,7380,2,0,P|416:144|352:208,1,152.999995330811
96,112,8318,1,0,0:0:0:0:
224,48,8552,1,0,0:0:0:0:
224,288,8787,6,0,B|192:240|192:240|272:192,1,127.5
348,237,9256,2,0,B|389:197|389:197|450:267,1,127.5
512,96,9607,1,0,0:0:0:0:
512,96,9724,2,0,B|464:112|464:112|368:96,1,127.5
336,208,10193,2,0,B|384:192|384:192|480:208,1,127.5
144,304,10662,6,0,P|192:240|144:160,1,152.999995330811
288,224,11130,2,0,P|292:144|207:104,1,152.999995330811
208,96,11482,1,0,0:0:0:0:
144,48,11599,2,0,P|112:64|64:64,1,76.4999976654054
0,32,11833,1,0,0:0:0:0:
224,96,12068,2,0,P|224:144|400:128,1,267.749991828919
416,80,12537,6,0,P|416:112|432:160,1,63.75
496,192,12771,2,0,P|496:224|512:272,1,63.75
336,144,13005,2,0,P|336:176|352:224,1,63.75
416,256,13239,2,0,P|416:288|432:336,1,63.75
288,368,13474,2,0,P|320:368|352:336,1,63.75
288,272,13708,2,0,P|256:272|224:304,1,63.75
176,352,13943,2,0,B|144:368|144:368|32:336,2,127.5
208,208,14646,5,0,0:0:0:0:
256,304,14880,2,0,B|288:336|288:336|560:288,1,305.999990661621
448,64,15583,1,0,0:0:0:0:
384,128,15818,1,0,0:0:0:0:
288,112,16052,1,0,0:0:0:0:
48,96,16287,6,0,L|64:144,1,47.8125018239022
96,208,16521,1,0,0:0:0:0:
224,304,16755,2,0,L|208:256,1,47.8125018239022
176,192,16989,1,0,0:0:0:0:
208,48,17224,2,0,L|224:96,1,47.8125018239022
256,160,17458,1,0,0:0:0:0:
384,240,17693,2,0,L|368:192,1,47.8125018239022
336,128,17927,1,0,0:0:0:0:
352,48,18162,6,0,B|400:32|400:32|448:48,2,95.6250036478044
304,112,18865,2,0,P|256:144|128:96,1,191.250007295609
96,16,19568,2,0,P|128:48|144:112,1,95.6250036478044
64,240,20037,6,0,P|38:214|25:163,1,63.75
16,112,20271,1,0,0:0:0:0:
144,208,20505,2,0,P|169:233|182:284,1,63.75
192,336,20739,1,0,0:0:0:0:
224,160,20974,6,0,P|198:134|185:83,1,63.75
176,32,21208,1,0,0:0:0:0:
304,128,21442,2,0,P|329:153|342:204,1,63.75
352,256,21676,1,0,0:0:0:0:
448,304,21912,6,0,B|496:272|496:272|448:64,1,255
128,64,22849,1,0,0:0:0:0:
128,256,23201,1,0,0:0:0:0:
128,224,23318,1,0,0:0:0:0:
320,224,23551,1,0,0:0:0:0:
128,272,23785,6,0,P|64:256|0:160,1,159.375
240,272,24253,2,0,P|304:288|368:384,1,159.375
448,320,24605,1,0,0:0:0:0:
448,320,24722,2,0,B|480:288|480:288|464:144,1,159.375
400,64,25191,2,0,B|368:96|368:96|384:240,1,159.375
208,288,25660,6,0,P|288:320|368:272,1,159.375
288,208,26128,2,0,P|208:176|128:224,1,159.375
64,304,26480,1,0,0:0:0:0:
64,304,26597,2,0,B|48:240|48:240|64:240|64:240|36:149,1,159.375
128,96,27066,2,0,P|176:80|256:144,1,159.375
48,160,27535,6,0,B|16:208|16:208|128:224,1,159.375
272,288,28003,2,0,B|304:240|304:240|192:224,1,159.375
384,320,28355,1,0,0:0:0:0:
384,320,28472,2,0,B|448:304|448:304|432:192,1,159.375
288,112,28941,2,0,P|336:112|384:16,1,159.375
152,160,29410,1,0,0:0:0:0:
8,128,29644,1,0,0:0:0:0:
288,112,29878,1,0,0:0:0:0:
96,304,31285,6,0,B|176:336|192:288|272:320,1,159.375
224,208,31753,2,0,B|304:240|320:192|400:224,1,159.375
496,304,32105,1,0,0:0:0:0:
496,304,32222,2,0,B|400:320|400:320|320:304,1,159.375
272,224,32691,2,0,B|368:208|368:208|448:224,1,159.375
496,304,33160,6,0,P|416:320|320:304,1,159.375
272,224,33628,2,0,P|352:208|448:224,1,159.375
416,96,33980,1,0,0:0:0:0:
416,96,34097,2,0,B|352:80|352:80|320:80|320:80|240:64,1,159.375
144,128,34566,2,0,B|208:144|208:144|240:144|240:144|320:160,1,159.375
400,176,35035,6,0,P|368:256|336:288,1,119.53125
304,304,35269,1,0,0:0:0:0:
112,144,35503,2,0,P|144:176|160:304,1,159.375
96,352,35972,2,0,P|64:320|48:192,1,159.375
112,144,36441,2,0,B|160:144|160:144|272:96,1,159.375
368,192,36910,2,0,B|320:192|320:192|208:240,1,159.375
128,288,37378,5,0,0:0:0:0:
352,48,38081,6,0,L|448:32,1,95.625
368,128,38315,2,0,L|272:144,1,95.625
384,208,38549,2,0,L|496:192,1,95.625
240,288,38783,6,0,B|304:320|304:320|528:288,1,286.875010943413
176,240,39251,2,0,L|80:192,1,95.6250036478044
16,160,39486,1,0,0:0:0:0:
128,112,39603,1,0,0:0:0:0:
16,160,39720,1,0,0:0:0:0:
96,272,39954,2,0,B|144:256|144:256|128:96,1,191.250007295609
272,96,40423,2,0,B|224:112|224:112|240:240,1,143.437505471707
256,288,40658,6,0,B|304:256|304:256|448:352,1,191.250007295609
432,240,41009,2,0,L|480:272,2,47.8125018239022
304,80,41361,1,0,0:0:0:0:
368,144,41478,1,0,0:0:0:0:
256,224,41595,1,0,0:0:0:0:
48,96,41829,1,0,0:0:0:0:
176,128,41947,1,0,0:0:0:0:
48,128,42064,2,0,L|64:176,1,47.8125018239022
176,96,42298,2,0,L|160:48,1,47.8125018239022
256,112,42533,6,0,B|304:128|304:128|352:112,1,95.6250036478044
384,16,42767,2,0,B|426:1|426:1|474:17,1,95.6250036478044
480,144,43001,2,0,P|448:208|432:224,1,95.6250036478044
288,320,43236,2,0,P|320:256|336:240,1,95.6250036478044
192,176,43470,2,0,B|256:160|256:160|240:112,1,95.6250036478044
128,80,43704,2,0,B|64:96|64:96|80:144,1,95.6250036478044
96,224,43939,2,0,L|128:320,1,95.6250036478044
112,192,44173,2,0,L|144:288,1,95.6250036478044
272,352,44408,6,0,B|336:336|336:336|320:256,1,143.437505471707
288,224,44642,2,0,B|224:240|224:240|256:352,1,143.437505471707
256,352,44876,1,0,0:0:0:0:
352,80,45111,1,0,0:0:0:0:
288,224,45228,1,0,0:0:0:0:
352,80,45345,1,0,0:0:0:0:
416,128,45579,6,0,L|512:96,1,95.6250036478044
432,208,45814,2,0,B|384:224|384:224|288:208,1,143.437505471707
272,208,46048,1,0,0:0:0:0:
64,288,46283,6,0,B|144:272|144:272|96:64,1,286.875010943413
176,32,46751,2,0,L|272:64,1,95.6250036478044
352,96,46986,1,0,0:0:0:0:
320,192,47103,1,0,0:0:0:0:
352,96,47220,1,0,0:0:0:0:
208,288,47454,2,0,B|224:336|224:336|368:320,1,191.250007295609
448,272,47923,2,0,B|432:224|432:224|304:240,1,143.437505471707
256,192,48158,6,0,P|304:128|448:128,1,191.250007295609
480,80,48509,2,0,L|464:32,2,47.8125018239022
96,96,48861,1,0,0:0:0:0:
176,128,48978,1,0,0:0:0:0:
240,64,49095,1,0,0:0:0:0:
112,288,49329,1,0,0:0:0:0:
80,256,49447,1,0,0:0:0:0:
112,320,49564,2,0,L|160:304,1,47.8125018239022
80,224,49798,2,0,L|32:240,1,47.8125018239022
240,272,50033,6,0,L|352:224,1,95.6250036478044
400,192,50267,2,0,L|512:144,1,95.6250036478044
464,48,50501,6,0,L|388:80,1,63.75
336,112,50735,2,0,L|260:144,1,63.75
80,176,50970,6,0,P|68:154|77:121,1,47.8125018239022
177,149,51204,2,0,P|188:170|179:203,1,47.8125018239022
48,192,51439,6,0,P|31:162|44:116,1,63.75
208,128,51673,2,0,P|224:157|211:203,1,63.75
208,272,51908,2,0,B|192:320|192:320|352:304,2,191.250007295609
192,192,53079,1,0,0:0:0:0:
432,32,53314,1,0,0:0:0:0:
320,112,53548,1,0,0:0:0:0:
512,96,53783,6,0,B|448:128|448:128|320:112,1,191.25
198,101,54251,2,0,P|217:131|220:163,1,63.75
112,207,54485,2,0,P|93:176|90:145,1,63.75
208,80,54719,2,0,P|240:64|240:64,3,31.875
80,144,54954,2,0,P|48:160|48:160,3,31.875
176,256,55188,2,0,B|208:240|208:240|160:144,1,127.5
304,128,55657,2,0,B|272:144|272:144|304:176,1,63.75
368,208,55891,2,0,B|400:192|400:192|368:160,1,63.75
288,112,56125,6,0,B|224:96|224:96|352:64,1,191.25
432,96,56593,2,0,P|432:128|448:160,1,63.75
496,224,56828,2,0,P|496:272|512:288,1,63.75
416,328,57062,2,0,B|352:328|352:304|352:280|384:280|416:280|416:304|416:328|384:304|384:304,1,127.5
312,224,57531,2,0,B|344:176|352:128|344:80|288:64|272:104|288:160,1,223.125
272,168,57999,6,0,P|224:176|144:64,1,191.25
248,72,58467,1,0,0:0:0:0:
352,48,58584,1,0,0:0:0:0:
368,152,58702,2,0,L|448:144,1,63.75
512,216,58936,2,0,L|432:224,1,63.75
384,272,59170,1,0,0:0:0:0:
288,200,59288,1,0,0:0:0:0:
168,272,59405,2,0,L|152:216,3,31.875
240,328,59639,2,0,L|256:272,3,31.875
272,216,59873,6,0,B|248:184|248:184|336:152|416:184,1,191.25
464,288,60341,2,0,P|456:312|416:328,1,63.75
320,288,60576,2,0,P|328:264|368:248,1,63.75
442,338,60810,2,0,P|420:350|380:333,1,63.75
341,237,61045,2,0,P|363:225|403:242,1,63.75
432,224,61279,2,0,B|480:208|480:208|304:144,1,223.125
240,192,61747,6,0,B|240:240|240:240|96:192,1,191.25
48,96,62215,2,0,L|112:64,1,63.75
176,112,62450,2,0,L|240:80,1,63.75
256,64,62684,2,0,L|320:32,1,63.75
384,80,62919,2,0,L|448:48,1,63.75
480,160,63153,2,0,B|448:192|448:192|256:160,1,223.125
240,160,63621,6,0,B|256:192|256:192|176:224|80:192,1,191.25
80,144,64089,2,0,P|96:176|96:224,1,63.75
16,240,64324,2,0,P|32:272|32:320,1,63.75
192,192,64558,2,0,P|208:224|208:272,1,63.75
128,288,64793,2,0,P|144:320|144:368,1,63.75
96,208,65027,2,0,B|64:176|64:176|256:128,1,223.125
304,96,65495,6,0,B|320:64|320:64|480:128,1,191.25
416,192,65963,2,0,P|416:240|400:240,1,63.75
320,272,66198,2,0,P|320:224|336:224,1,63.75
336,144,66432,2,0,B|304:112|304:112|464:80,1,191.25
464,160,66901,6,0,P|464:192|448:224,1,63.75
344,304,67369,2,0,P|344:272|360:240,2,63.75
248,328,68072,2,0,B|216:336|216:336|176:320,1,63.75
120,280,68541,5,0,0:0:0:0:
48,184,68717,1,0,0:0:0:0:
48,184,68776,2,0,B|88:168|88:168|136:168,1,71.7187527358533
200,168,69010,1,0,0:0:0:0:
296,80,69244,2,0,P|259:95|243:119,1,47.8125018239022
200,168,69479,1,0,0:0:0:0:
264,240,69713,2,0,P|300:224|316:200,1,47.8125018239022
352,152,69947,1,0,0:0:0:0:
424,56,70182,6,0,B|408:80|408:80|456:104,1,71.7187527358533
512,144,70416,1,0,0:0:0:0:
472,272,70651,6,0,B|480:240|472:232|472:232|368:288,1,143.437505471707
320,320,71119,1,0,0:0:0:0:
264,72,72526,6,0,P|288:112|288:136,1,63.75
280,208,72760,1,0,0:0:0:0:
192,224,72877,1,0,0:0:0:0:
176,136,72994,2,0,P|152:96|152:72,1,63.75
160,0,73228,1,0,0:0:0:0:
80,32,73346,1,0,0:0:0:0:
48,112,73463,2,0,B|56:144|56:144|96:136,1,63.75
112,248,73697,2,0,B|104:216|104:216|64:224,1,63.75
24,288,73932,2,0,P|56:320|88:328,1,63.75
152,328,74166,2,0,P|184:312|208:288,1,63.75
240,224,74401,6,0,B|280:232|280:232|376:208,2,127.5
32,32,75338,1,0,0:0:0:0:
80,112,75690,1,0,0:0:0:0:
208,64,76041,1,0,0:0:0:0:
112,208,76276,6,0,B|32:224|-32:176,1,127.5
208,208,76744,2,0,B|288:192|352:240,1,127.5
126,174,77213,2,0,B|58:128|46:49,1,127.5
193,241,77681,2,0,B|261:287|273:366,1,127.5
400,176,78151,2,0,B|480:160|544:208,1,127.5
304,176,78619,2,0,B|224:192|160:144,1,127.5
385,209,79088,2,0,B|453:255|465:334,1,127.5
318,142,79556,2,0,B|250:96|238:17,1,127.5
96,192,80026,6,0,L|48:64,1,127.5
192,192,80494,2,0,L|240:320,1,127.5
115,230,80963,2,0,L|-15:191,1,127.5
172,153,81431,2,0,L|303:192,1,127.5
416,192,81901,6,0,L|464:320,1,127.5
320,192,82369,2,0,L|272:64,1,127.5
396,153,82838,2,0,L|527:192,1,127.5
339,230,83306,2,0,L|208:191,1,127.5
48,128,83776,6,0,B|112:128|112:64|176:64,1,127.5
240,144,84244,2,0,B|176:144|176:208|112:208,1,127.5
156,231,84713,2,0,B|142:168|80:182|66:119,1,127.5
131,40,85181,2,0,B|145:103|207:89|221:152,1,127.5
464,256,85533,1,0,0:0:0:0:
464,256,85651,6,0,B|400:256|400:320|336:320,1,127.5
272,240,86119,2,0,B|336:240|336:176|400:176,1,127.5
355,152,86588,2,0,B|369:215|431:201|445:264,1,127.5
380,343,86940,1,0,0:0:0:0:
380,343,87056,2,0,B|366:280|304:294|290:231,1,127.5
96,224,87526,6,0,P|144:224|192:144,1,127.5
96,112,87994,2,0,P|48:112|0:192,1,127.5
151,170,88463,2,0,P|154:122|77:70,1,127.5
40,165,88931,2,0,P|37:213|114:265,1,127.5
416,160,89401,6,0,P|368:160|320:240,1,127.5
416,272,89869,2,0,P|464:272|512:192,1,127.5
360,213,90338,2,0,P|357:261|434:313,1,127.5
352,176,90689,1,0,0:0:0:0:
336,144,90806,1,0,0:0:0:0:
288,64,91040,2,0,P|320:96|320:128,1,63.75
192,208,91274,6,0,B|240:224|240:224|384:192,1,191.250007295609
512,16,91742,2,0,B|464:0|464:0|320:32,1,191.250007295609
80,160,92211,1,0,0:0:0:0:
368,64,92445,1,0,0:0:0:0:
160,0,92680,1,0,0:0:0:0:
128,288,92914,1,0,0:0:0:0:
336,176,93149,6,0,B|384:208|384:208|528:160,1,191.250007295609
176,96,93617,2,0,B|128:64|128:64|-16:112,1,191.250007295609
48,192,94086,1,0,0:0:0:0:
368,80,94321,1,0,0:0:0:0:
112,0,94555,1,0,0:0:0:0:
272,336,94789,1,0,0:0:0:0:
160,160,94906,1,0,0:0:0:0:
112,0,95024,6,0,B|160:48|160:48|304:16,1,191.250007295609
224,288,95375,1,0,0:0:0:0:
224,288,95492,2,0,B|176:240|176:240|32:272,1,191.250007295609
32,160,95844,1,0,0:0:0:0:
32,160,95961,2,0,B|93:131|93:131|112:-14,1,191.250007295609
288,128,96313,1,0,0:0:0:0:
288,128,96429,2,0,B|227:157|227:157|208:303,1,191.250007295609
240,368,96781,1,0,0:0:0:0:
240,368,96899,2,0,L|432:304,1,191.250007295609
496,272,97367,1,0,0:0:0:0:
208,176,97602,1,0,0:0:0:0:
384,48,97836,1,0,0:0:0:0:
96,256,98070,1,0,0:0:0:0:
288,112,98305,2,0,P|336:128|384:256,1,191.250007295609
208,176,98656,1,0,0:0:0:0:
208,176,98774,6,0,P|160:160|112:32,1,191.250007295609
128,256,99242,1,0,0:0:0:0:
416,160,99477,1,0,0:0:0:0:
160,64,99711,1,0,0:0:0:0:
272,352,99945,1,0,0:0:0:0:
160,64,100180,2,0,B|240:48|240:48|352:80,1,191.250007295609
272,352,100649,6,0,B|192:368|192:368|80:336,1,191.250007295609
16,208,101117,1,0,0:0:0:0:
320,160,101352,1,0,0:0:0:0:
112,48,101586,1,0,0:0:0:0:
240,272,101820,1,0,0:0:0:0:
424,224,102055,1,0,0:0:0:0:
440,160,102172,1,0,0:0:0:0:
456,96,102289,1,0,0:0:0:0:
472,40,102406,1,0,0:0:0:0:
376,48,102524,6,0,L|272:64,1,95.6250036478044
200,128,102758,2,0,L|96:144,1,95.6250036478044
216,144,102992,6,0,L|320:128,1,95.6250036478044
392,64,103226,2,0,L|496:48,1,95.6250036478044
512,192,103461,6,0,B|456:208|456:208|392:184,1,95.6250036478044
224,48,103695,2,0,B|288:32|288:32|352:56,1,95.6250036478044
473,249,103930,6,0,B|408:235|408:235|361:186,1,95.6250036478044
270,0,104164,2,0,B|335:4|335:4|382:53,1,95.6250036478044
393,228,104399,6,0,B|352:219|352:219|323:188,1,71.7187527358533
265,64,104633,2,0,B|306:73|306:73|335:104,1,71.7187527358533
400,128,104867,2,0,L|456:32,1,95.6250036478044
128,160,105570,1,0,0:0:0:0:
336,64,105805,1,0,0:0:0:0:
144,136,106039,1,0,0:0:0:0:
360,40,106274,6,0,P|400:32|488:72,1,127.5
496,144,106742,2,0,P|468:174|374:195,1,127.5
240,96,107211,2,0,P|272:152|272:224,1,127.5
168,296,107680,2,0,P|136:240|136:168,1,127.5
256,336,108149,2,0,B|296:352|296:352|408:328,1,127.5
488,216,108617,2,0,B|448:200|448:200|336:224,1,127.5
376,72,109086,2,0,B|400:112|400:112|312:128,1,127.5
232,72,109555,2,0,B|208:32|208:32|296:16,1,127.5
208,152,110024,2,0,P|192:200|120:216,1,127.5
288,96,110492,2,0,P|304:48|376:32,1,127.5
239,172,110961,2,0,P|262:217|222:279,1,127.5
256,75,111429,2,0,P|233:30|273:-31,1,127.5
239,172,111899,2,0,B|207:188|207:188|95:164,1,127.5
336,96,112367,2,0,B|368:80|368:80|480:104,1,127.5
464,272,112836,2,0,B|472:192|472:192|400:216,1,127.5
336,288,113305,6,0,B|328:368|328:368|400:344,1,127.5
280,224,113774,6,0,P|240:216|144:248,1,127.5
0,176,114242,2,0,P|40:184|136:152,1,127.5
280,224,114711,2,0,P|240:248|144:248,1,127.5
352,160,115180,2,0,P|392:136|488:136,1,127.5
496,232,115649,2,0,B|416:256|416:256|368:240,1,127.5
352,160,116117,2,0,B|432:136|432:136|480:152,1,127.5
496,232,116586,2,0,B|488:304|488:304|520:296|520:296|512:408,1,191.25
416,368,117055,2,0,B|432:376|440:336|296:368,1,127.5
240,216,117524,2,0,P|256:248|184:312,1,127.5
112,256,117992,2,0,P|96:224|168:160,1,127.5
192,88,118461,2,0,B|200:48|200:48|96:72,3,127.5
192,200,119399,2,0,B|192:248|192:248|288:232,1,127.5
432,160,119867,2,0,B|432:112|432:112|336:128,1,127.5
255,287,120336,2,0,B|294:316|294:316|339:230,1,127.5
368,72,120804,2,0,B|329:43|329:43|284:129,1,127.5
256,184,121274,6,0,L|248:200,1,14.3437495622635
208,264,121508,1,0,0:0:0:0:
328,224,121742,2,0,L|336:208,1,14.3437495622635
376,144,121976,1,0,0:0:0:0:
376,56,122211,2,0,L|356:48|356:48,1,19.1249994163513
256,76,122680,2,0,L|280:84|280:84,1,23.9062492704392
376,136,123030,1,0,0:0:0:0:
380,152,123088,1,0,0:0:0:0:
372,168,123146,6,0,B|336:188|336:188|176:180,1,191.25
60,212,123614,2,0,P|68:252|100:280,1,63.75
224,344,123848,2,0,P|216:304|184:276,1,63.75
184,184,124082,2,0,B|148:140|148:140|152:56,1,127.5
280,96,124434,1,0,0:0:0:0:
280,96,124551,2,0,B|316:140|316:140|312:224,1,127.5
384,296,124903,1,0,0:0:0:0:
392,280,124961,1,0,0:0:0:0:
400,264,125020,2,0,L|424:200,1,63.75
424,28,125254,2,0,L|400:92,1,63.75
200,152,125488,2,0,B|228:172|228:172|344:160,1,127.5
160,68,125956,6,0,P|120:64|96:88,1,63.75
60,144,126191,1,0,0:0:0:0:
248,80,126308,1,0,0:0:0:0:
244,0,126425,2,0,P|284:-4|308:20,1,63.75
376,72,126660,1,0,0:0:0:0:
408,72,126777,1,0,0:0:0:0:
428,48,126894,2,0,B|476:32|476:32|444:196,1,191.25
272,224,127362,6,2,P|316:256|400:248,1,127.5
276,132,127713,1,0,0:0:0:0:
276,132,127830,2,0,P|232:100|148:108,2,127.5
112,168,128182,2,0,P|132:208|136:248,2,63.75
152,308,128533,1,0,0:0:0:0:
224,208,128651,1,0,0:0:0:0:
232,304,128768,6,0,B|244:336|244:336|412:280,1,191.25
464,256,129236,2,0,B|472:224|472:224|376:196,1,127.5
309,209,129587,1,0,0:0:0:0:
288,336,129704,1,0,0:0:0:0:
320,112,129939,1,0,0:0:0:0:
309,209,130056,1,0,0:0:0:0:
291,341,130173,2,0,P|259:320|255:277,1,63.75
216,176,130407,1,0,0:0:0:0:
224,160,130525,2,0,L|216:104,1,31.875
208,0,130642,2,0,P|176:0|32:96,1,191.25
96,176,131110,6,0,P|112:208|112:256,1,63.75
32,304,131344,2,0,P|16:272|16:224,1,63.75
0,112,131578,2,0,L|0:160,2,31.875
32,16,131813,2,0,B|80:0|80:0|160:48,1,127.5
272,32,132281,1,0,0:0:0:0:
240,144,132516,2,0,P|256:192|400:208,1,191.25
372,159,132984,6,0,P|372:191|388:239,1,63.75
512,288,133218,2,0,P|512:256|496:208,1,63.75
338,103,133452,2,0,P|354:131|393:164,1,63.75
512,142,133686,2,0,P|508:115|469:82,1,63.75
384,16,133921,2,0,B|336:0|336:-16|464:16,1,127.5
256,112,134273,1,0,0:0:0:0:
272,32,134390,2,0,P|240:32|192:176,1,191.25
112,224,134858,6,0,L|32:208,1,63.75
240,256,135092,2,0,L|320:272,1,63.75
121,202,135326,6,0,L|53:158,1,63.75
230,277,135560,2,0,L|298:321,1,63.75
160,175,135795,6,0,L|136:97,1,63.75
191,304,136029,2,0,L|215:382,1,63.75
184,174,136263,6,0,L|190:93,1,63.75
167,305,136497,2,0,L|161:386,1,63.75
304,96,136733,6,0,L|320:16,1,71.7187527358533
287,226,136967,2,0,L|272:304,1,71.7187527358533
352,352,137201,2,0,B|416:368|464:336|464:336|432:240,1,191.25
480,144,137670,2,0,B|512:176|512:176|368:160,1,152.999995330811
304,144,138139,6,0,P|320:176|320:208,1,63.75
192,256,138373,2,0,P|176:224|176:192,1,63.75
320,320,138607,2,0,P|287:334|255:333,1,63.75
256,32,138841,2,0,P|288:17|320:18,1,63.75
368,112,139075,2,0,P|384:144|384:176,1,63.75
256,224,139309,2,0,P|240:192|240:160,1,63.75
384,288,139543,2,0,P|351:302|319:301,1,63.75
256,32,139777,2,0,P|288:17|320:18,1,63.75
400,32,140011,2,0,L|400:80,3,31.875
336,128,140245,2,0,B|288:128|288:128|288:192,1,95.625
288,256,140479,2,0,B|288:304|288:304|176:304,1,159.375
48,64,141885,5,0,0:0:0:0:
128,32,142002,1,0,0:0:0:0:
208,16,142119,1,0,0:0:0:0:
288,32,142236,1,0,0:0:0:0:
360,72,142353,5,0,0:0:0:0:
432,120,142470,1,0,0:0:0:0:
352,152,142587,1,0,0:0:0:0:
272,168,142704,1,0,0:0:0:0:
192,152,142821,5,0,0:0:0:0:
120,112,142938,1,0,0:0:0:0:
48,64,143055,1,0,0:0:0:0:
128,32,143172,1,0,0:0:0:0:
208,16,143289,1,0,0:0:0:0:
288,32,143406,1,0,0:0:0:0:
160,152,143523,1,0,0:0:0:0:
160,192,143640,1,0,0:0:0:0:
96,85,143757,2,0,P|128:117|160:197,1,127.5
176,272,144225,2,0,B|196:304|196:304|228:300,1,63.75
312,192,144928,6,0,P|328:224|336:304,1,95.625
200,192,145162,2,0,P|180:148|174:101,1,95.625
312,192,145396,2,0,P|328:224|336:304,1,95.625
328,360,145630,1,0,0:0:0:0:
96,160,152192,6,0,B|152:160|152:160|170:54|170:54|192:160|192:160|384:160,1,458.999985992432
337,41,153012,1,0,0:0:0:0:
337,41,153130,2,0,P|321:89|401:161,1,152.999995330811
504,128,153598,2,0,P|520:80|440:8,1,152.999995330811
88,64,154067,2,0,B|152:80|152:80|184:32|184:32|304:64,1,229.499992996216
368,80,154536,2,0,P|360:120|240:144,1,152.999995330811
48,144,154887,1,0,0:0:0:0:
48,144,155005,2,0,B|80:176|80:176|208:176,1,152.999995330811
64,320,155473,2,0,B|112:280|112:280|304:280,1,229.499992996216
304,176,155942,6,0,B|360:200|360:200|448:136,1,152.999995330811
248,112,156411,2,0,B|192:136|192:136|104:72,1,152.999995330811
56,32,156762,1,0,0:0:0:0:
32,112,156880,6,0,L|32:192,1,63.75
160,208,157114,2,0,L|160:288,1,63.75
104,112,157348,2,0,L|104:192,1,63.75
232,208,157583,2,0,L|232:288,1,63.75
168,112,157817,2,0,L|168:192,1,63.75
296,208,158052,2,0,L|296:288,1,63.75
336,344,158286,2,0,B|384:360|384:360|384:192,1,191.25
384,136,158755,2,0,P|424:136|464:152,1,63.75
512,176,158989,1,0,0:0:0:0:
464,304,159106,1,0,0:0:0:0:
464,304,159223,6,0,B|464:224|448:224|448:264|400:264,1,119.53125
304,224,160160,2,0,P|320:264|248:304,1,127.5
168,208,160511,1,0,0:0:0:0:
128,272,160628,6,0,L|-24:256,1,127.5
80,80,160979,1,0,0:0:0:0:
152,48,161096,1,0,0:0:0:0:
288,96,161331,1,0,0:0:0:0:
272,176,161448,1,0,0:0:0:0:
256,256,161565,1,0,0:0:0:0:
352,16,161799,1,0,0:0:0:0:
416,80,161917,2,0,L|488:80,1,63.75
328,112,162151,2,0,L|240:112,1,63.75
216,176,162386,2,0,L|160:176,1,31.875
48,184,162503,6,0,P|64:224|88:240,1,63.75
176,336,162737,2,0,P|160:296|136:280,1,63.75
176,168,162971,2,0,P|160:208|136:224,1,63.75
48,320,163205,2,0,P|64:280|88:264,1,63.75
176,168,163440,2,0,B|240:144|240:144|216:64,1,127.5
120,104,163909,2,0,B|56:128|56:128|80:208,1,127.5
96,264,164260,1,0,0:0:0:0:
96,264,164378,6,0,L|168:240,1,63.75
232,304,164612,2,0,L|304:280,1,63.75
248,176,164846,2,0,L|320:152,1,63.75
384,216,165080,2,0,L|456:192,1,63.75
432,168,165315,6,0,L|371:188,1,63.75
296,128,165549,2,0,L|235:148,1,63.75
280,256,165783,2,0,L|219:276,1,63.75
143,216,166017,2,0,L|82:236,1,63.75
0,128,166253,2,0,P|16:160|0:200,1,63.75
120,48,166487,2,0,P|104:80|120:120,1,63.75
232,24,166721,2,0,B|280:64|280:64|472:32,1,255
152,56,167659,6,0,L|72:80,1,63.75
64,152,167893,2,0,L|-16:176,1,63.75
224,136,168128,2,0,L|144:160,1,63.75
136,232,168362,2,0,L|56:256,1,63.75
236,240,168596,2,0,P|236:288|308:232,1,191.25
360,184,169065,2,0,P|368:232|392:264,1,63.75
416,312,169299,2,0,L|504:280,1,63.75
512,176,169534,2,0,L|452:197,1,63.75
375,244,169768,2,0,P|362:215|360:184,1,63.75
360,104,170003,6,0,B|384:64|384:64|232:80,1,191.25
208,152,170471,2,0,P|232:200|208:280,1,127.5
40,256,170823,1,0,0:0:0:0:
120,224,170940,1,0,0:0:0:0:
72,80,171174,5,0,0:0:0:0:
144,8,171292,1,0,0:0:0:0:
168,120,171409,2,0,L|240:104,1,63.75
280,32,171643,2,0,L|352:16,1,63.75
312,152,171878,6,0,L|384:136,1,63.75
424,64,172112,2,0,L|496:48,1,63.75
336,272,172346,2,0,L|408:256,1,63.75
448,184,172580,2,0,L|520:168,1,63.75
480,192,172815,6,0,L|417:205,1,63.75
368,280,173049,2,0,L|305:293,1,63.75
456,72,173283,2,0,L|393:85,1,63.75
344,160,173517,2,0,L|281:173,1,63.75
144,160,173753,6,0,P|192:224|176:288,1,127.5
112,320,174221,2,0,P|64:256|80:192,1,127.5
144,96,174924,1,0,0:0:0:0:
224,208,175159,1,0,0:0:0:0:
144,96,175393,1,0,0:0:0:0:
336,96,175628,6,0,P|384:112|400:128,1,63.75
448,64,175862,2,0,P|489:92|500:112,1,63.75
304,240,176096,2,0,P|352:256|368:272,1,63.75
416,208,176330,2,0,P|457:236|468:256,1,63.75
336,96,176565,2,0,P|384:112|400:128,1,63.75
448,64,176799,2,0,P|489:92|500:112,1,63.75
304,240,177033,2,0,P|352:256|368:272,1,63.75
416,208,177267,2,0,P|457:236|468:256,1,63.75
480,336,177503,2,0,B|448:352|448:352|352:352,1,127.5
272,352,177971,1,0,0:0:0:0:
112,208,178206,2,0,L|96:272,1,63.75
64,368,178440,1,0,0:0:0:0:
224,192,178674,2,0,L|240:128,1,63.75
272,32,178908,1,0,0:0:0:0:
288,16,178967,1,0,0:0:0:0:
304,0,179026,1,0,0:0:0:0:
320,16,179085,1,0,0:0:0:0:
336,32,179143,1,0,0:0:0:0:
352,48,179202,1,0,0:0:0:0:
368,64,179260,1,0,0:0:0:0:
384,80,179319,1,0,0:0:0:0:
400,96,179378,6,0,L|400:160,1,63.75
304,240,179612,2,0,L|304:176,1,63.75
424,216,179846,2,0,L|360:216,1,63.75
280,120,180080,2,0,L|344:120,1,63.75
448,128,180315,2,0,P|448:96|432:64,1,63.75
368,16,180549,2,0,P|336:16|304:32,1,63.75
240,96,180784,2,0,P|192:128|128:96,1,127.5
112,32,181253,2,0,P|128:64|128:96,1,63.75
32,160,181487,2,0,P|16:128|16:96,1,63.75
112,32,181721,1,0,0:0:0:0:
224,256,181956,6,0,L|288:240,1,63.75
384,208,182190,1,0,0:0:0:0:
288,128,182424,2,0,L|224:144,1,63.75
144,168,182659,1,0,0:0:0:0:
130,166,182717,1,0,0:0:0:0:
117,161,182776,1,0,0:0:0:0:
105,153,182835,1,0,0:0:0:0:
95,143,182893,1,0,0:0:0:0:
89,131,182952,1,0,0:0:0:0:
85,118,183010,1,0,0:0:0:0:
84,104,183069,1,0,0:0:0:0:
84,84,183128,6,0,L|84:12,1,63.75
216,40,183362,2,0,L|216:112,1,63.75
240,128,183596,2,0,L|240:56,1,63.75
368,80,183830,2,0,L|368:152,1,63.75
88,88,184065,2,0,L|88:16,1,63.75
216,40,184299,2,0,L|216:112,1,63.75
240,128,184533,2,0,L|240:56,1,63.75
368,80,184767,2,0,L|368:152,1,63.75
368,224,185003,2,0,B|328:256|328:256|224:256,1,127.5
168,256,185471,1,0,0:0:0:0:
48,128,185706,6,0,P|72:96|64:64,1,63.75
40,0,185940,1,0,0:0:0:0:
192,16,186174,2,0,P|168:48|176:80,1,63.75
200,144,186408,1,0,0:0:0:0:
224,152,186467,1,0,0:0:0:0:
248,144,186526,1,0,0:0:0:0:
274,134,186585,1,0,0:0:0:0:
296,120,186643,1,0,0:0:0:0:
329,106,186702,1,0,0:0:0:0:
361,90,186760,1,0,0:0:0:0:
394,76,186819,1,0,0:0:0:0:
424,56,186878,6,0,P|464:72|472:104,1,63.75
424,176,187112,2,0,P|384:192|376:224,1,63.75
464,96,187346,2,0,P|504:112|512:144,1,63.75
464,216,187580,2,0,P|424:232|416:264,1,63.75
256,312,187815,2,0,L|344:296,1,63.75
240,208,188049,2,0,L|152:224,1,63.75
256,312,188284,2,0,L|344:296,1,63.75
240,208,188518,2,0,L|152:224,1,63.75
104,208,188753,2,0,B|72:200|72:200|56:104,2,127.5
256,192,189690,5,14,0:0:0:0:
