osu file format v14

[General]
AudioFilename: audio.mp3
AudioLeadIn: 0
PreviewTime: 37847
Countdown: 0
SampleSet: None
StackLeniency: 0.7
Mode: 0
LetterboxInBreaks: 0
EpilepsyWarning: 1
WidescreenStoryboard: 1

[Editor]
Bookmarks: 23785,38081,38783,66901,76276,86588,90572,91274,104399,106274,122914,123146,138256,145630,159926,160628,175628
DistanceSpacing: 1.1
BeatDivisor: 4
GridSize: 8
TimelineZoom: 1.9

[Metadata]
Title:The Gummy Bear Song
TitleUnicode:The Gummy Bear Song
Artist:Christian P. Schneider Tonekind, Papabar, Rene Rennefeld
ArtistUnicode:Christian P. Schneider Tonekind, Papabar, Rene Rennefeld
Creator:Busyarik321
Version:- Busyarik's comfort -
Source:(Unknown)
Tags:#cartoon #art #drawing #illustration #digitalart #artist #anime #sketch #artwork #animation #cartoons #comic #cartoonart #draw #fanart #comics #love #cartoonnetwork #artistsoninstagram #funny #disney #doodle #characterdesign #design #memes #illustrator #s #cute #cartoonist #sketchbook #manga #painting #instaart #digitaldrawing #instagram #like #procreate #d #meme #arte #drawings #bhfyp #instagood #artoftheday #digitalillustration #follow #digital #graphicdesign #comicart #character #caricature #ink #inktober #humor #oc #photoshop #portrait #vector #comicstrip #comedy Gummy Gummy Bear Gummy Bear song
BeatmapID:4550738
BeatmapSetID:2158530

[Difficulty]
HPDrainRate:5
CircleSize:3
OverallDifficulty:5
ApproachRate:8.5
SliderMultiplier:2.15
SliderTickRate:2

[Events]
//Background and Video events
0,0,"maxresdefault (45).jpg",0,0
//Break Periods
2,16487,19362
2,68975,71851
2,145830,151517
//Storyboard Layer 0 (Background)
//Storyboard Layer 1 (Fail)
//Storyboard Layer 2 (Pass)
//Storyboard Layer 3 (Foreground)
//Storyboard Layer 4 (Overlay)
//Storyboard Sound Samples

[TimingPoints]
1287,468.75,4,1,0,100,1,0
1287,-100,4,1,0,80,0,0
1638,-100,4,1,0,5,0,0
1755,-100,4,1,0,80,0,0
3162,-83.3333333333333,4,1,0,100,0,0
3513,-83.3333333333333,4,1,0,5,0,0
3630,-83.3333333333333,4,1,0,100,0,0
3982,-83.3333333333333,4,1,0,50,0,0
4099,-83.3333333333333,4,1,0,100,0,0
5037,-100,4,1,0,70,0,0
5388,-100,4,1,0,5,0,0
5505,-100,4,1,0,70,0,0
5857,-100,4,1,0,5,0,0
5974,-100,4,1,0,70,0,0
6912,-83.3333333333333,4,1,0,100,0,0
8787,-100,4,1,0,80,0,0
10662,-83.3333333333333,4,1,0,100,0,0
12537,-100,4,1,0,80,0,0
14412,-83.3333333333333,4,1,0,100,0,0
16287,-133.333333333333,4,1,0,80,0,0
20037,-100,4,1,0,90,0,0
23318,468.75,4,1,0,100,1,0
23551,468.75,4,1,0,75,1,0
23785,468.75,4,1,0,100,1,0
23785,-80,4,1,0,100,0,0
36792,-80,4,1,0,5,0,0
36910,-80,4,1,0,100,0,0
37261,-80,4,1,0,5,0,0
37379,-80,4,1,0,100,0,0
38081,468.75,4,1,0,75,1,0
38198,-100,4,1,0,5,0,0
38315,468.75,4,1,0,100,1,0
38549,468.75,4,1,0,75,1,0
38783,468.75,4,1,0,100,1,1
38783,-66.6666666666667,4,1,0,100,0,1
42064,-133.333333333333,4,1,0,100,0,1
42533,-66.6666666666667,4,1,0,75,0,1
49564,-133.333333333333,4,1,0,100,0,1
50033,-66.6666666666667,4,1,0,100,0,1
50501,-100,4,1,0,100,0,1
50970,-133.333333333333,4,1,0,100,0,1
51439,-100,4,1,0,100,0,1
51908,-66.6666666666667,4,1,0,100,0,1
53783,468.75,4,1,0,80,1,1
54251,468.75,4,1,0,100,1,1
55657,468.75,4,1,0,80,1,1
56125,468.75,4,1,0,100,1,1
57531,468.75,4,1,0,80,1,1
57999,468.75,4,1,0,100,1,1
59405,468.75,4,1,0,80,1,1
59873,468.75,4,1,0,100,1,1
61279,468.75,4,1,0,80,1,1
61747,468.75,4,1,0,100,1,1
63153,468.75,4,1,0,80,1,1
63621,468.75,4,1,0,100,1,1
65027,468.75,4,1,0,80,1,1
65495,468.75,4,1,0,100,1,1
66901,468.75,4,1,0,100,1,0
66901,-200,4,1,0,100,0,0
76276,-100,4,1,0,100,0,0
78033,-100,4,1,0,5,0,0
78151,-100,4,1,0,100,0,0
90572,468.75,4,1,0,75,1,0
90806,468.75,4,1,0,100,1,0
91040,468.75,4,1,0,75,1,0
91274,468.75,4,1,0,100,1,1
91274,-66.6666666666667,4,1,0,100,0,1
91977,-66.6666666666667,4,1,0,100,0,1
95375,-66.6666666666667,4,1,0,40,0,1
95492,-66.6666666666667,4,1,0,100,0,1
95844,-66.6666666666667,4,1,0,40,0,1
95961,-66.6666666666667,4,1,0,100,0,1
104399,468.75,4,1,0,75,1,0
104399,-133.333333333333,4,1,0,75,0,0
106274,-100,4,1,0,100,0,0
122914,468.75,4,1,0,100,1,0
123146,468.75,4,1,0,80,1,1
123147,-66.6666666666667,4,1,0,100,0,1
123614,468.75,4,1,0,100,1,1
125020,468.75,4,1,0,80,1,1
125488,468.75,4,1,0,100,1,1
126894,468.75,4,1,0,80,1,1
127362,468.75,4,1,0,100,1,1
128768,468.75,4,1,0,80,1,1
129236,468.75,4,1,0,100,1,1
130642,468.75,4,1,0,80,1,1
131110,468.75,4,1,0,100,1,1
132516,468.75,4,1,0,80,1,1
132984,468.75,4,1,0,100,1,1
134390,468.75,4,1,0,80,1,1
134858,468.75,4,1,0,100,1,1
136733,-133.333333333333,4,1,0,70,0,1
137201,-100,4,1,0,80,0,1
137670,-83.3333333333333,4,1,0,90,0,1
138139,468.75,4,1,0,75,1,0
138373,468.75,4,1,0,100,1,0
138607,468.75,4,1,0,75,1,0
138841,468.75,4,1,0,100,1,0
139075,468.75,4,1,0,75,1,0
139309,468.75,4,1,0,100,1,0
139543,468.75,4,1,0,75,1,0
139777,468.75,4,1,0,100,1,0
140011,468.75,4,1,0,75,1,0
140245,468.75,4,1,0,100,1,0
140479,468.75,4,1,0,75,1,0
140479,-400,4,1,0,75,0,0
141885,468.75,4,1,0,75,1,0
142119,468.75,4,1,0,100,1,0
142353,468.75,4,1,0,75,1,0
142587,468.75,4,1,0,100,1,0
142821,468.75,4,1,0,75,1,0
143055,468.75,4,1,0,100,1,0
143289,468.75,4,1,0,75,1,0
143523,468.75,4,1,0,100,1,0
143757,468.75,4,1,0,75,1,0
143991,468.75,4,1,0,100,1,0
144225,468.75,4,1,0,75,1,0
144225,-400,4,1,0,100,0,0
144928,468.75,4,1,0,75,1,0
145162,468.75,4,1,0,100,1,0
145396,468.75,4,1,0,75,1,0
145630,468.75,4,1,0,80,1,0
145630,-83.3333333333333,4,1,0,80,0,0
156880,-100,4,1,0,90,0,0
159926,468.75,4,1,0,75,1,0
160160,468.75,4,1,0,100,1,0
160394,468.75,4,1,0,75,1,0
160628,468.75,4,1,0,100,1,1
175628,468.75,4,1,0,100,1,0

[Colours]
Combo1 : 255,255,255
Combo2 : 128,255,128
Combo3 : 247,213,99

[HitObjects]
96,128,1287,6,0,P|184:144|272:120,1,161.25
328,88,1755,2,0,B|384:64|432:32|400:16|368:120|408:192,1,215
384,264,2458,2,0,L|232:280,2,107.5
402,179,3162,2,0,B|368:120|400:16|432:32|384:64|320:96,1,193.499994094849
277,120,3630,2,0,P|198:136|64:88,1,193.499994094849
64,88,4099,2,0,B|24:56|24:56|136:24|240:48,1,257.999992126465
320,72,4802,1,0,0:0:0:0:
408,104,5037,6,0,B|464:72|464:72|464:208,1,161.25
416,248,5505,2,0,B|360:280|360:280|360:144,1,161.25
408,104,5974,2,0,B|464:72|464:72|464:152,2,107.5
360,184,6677,1,0,0:0:0:0:
312,104,6912,2,0,B|280:48|280:48|256:144|272:240,1,257.999992126465
352,184,8318,5,0,0:0:0:0:
384,264,8552,1,0,0:0:0:0:
416,344,8787,1,0,0:0:0:0:
320,336,9021,5,0,0:0:0:0:
288,256,9255,1,0,0:0:0:0:
256,176,9490,1,0,0:0:0:0:
352,192,9724,6,0,P|416:168|408:112,1,107.5
384,48,10193,2,0,P|320:72|328:128,1,107.5
256,176,10662,2,0,B|192:168|192:168|192:176|192:176|96:160,2,128.999996063233
336,128,11365,1,0,0:0:0:0:
368,216,11599,2,0,L|336:360,1,128.999996063233
440,336,12068,2,0,L|472:192,1,128.999996063233
496,128,12537,5,0,0:0:0:0:
448,48,12771,1,0,0:0:0:0:
384,120,13005,5,0,0:0:0:0:
336,40,13239,1,0,0:0:0:0:
280,112,13474,5,0,0:0:0:0:
232,32,13708,1,0,0:0:0:0:
168,104,13942,5,0,0:0:0:0:
112,24,14176,1,0,0:0:0:0:
64,104,14412,2,0,P|80:160|48:240,1,128.999996063233
16,296,14880,1,0,0:0:0:0:
144,336,15115,1,0,0:0:0:0:
240,304,15232,1,0,0:0:0:0:
248,208,15349,1,0,0:0:0:0:
256,112,15583,2,0,P|336:128|376:184,2,128.999996063233
152,120,16287,5,0,0:0:0:0:
80,208,20037,6,0,P|120:224|216:192,1,107.5
256,128,20505,2,0,P|216:112|120:144,1,107.5
104,232,20974,2,0,P|147:232|225:168,1,107.5
235,99,21442,2,0,P|192:98|114:162,1,107.5
80,208,21912,2,0,B|72:248|72:248|88:272|88:272|80:336,2,107.5
96,120,22849,1,0,0:0:0:0:
112,32,23785,6,0,B|184:16|184:16|272:32,1,134.375
392,112,24253,2,0,B|320:128|320:128|232:112,1,134.375
160,144,24722,2,0,P|168:240|200:296,1,134.375
304,216,25191,2,0,P|296:120|264:64,1,134.375
88,56,25660,2,0,B|144:40|144:40|168:48|168:48|232:32,1,134.375
168,136,26128,2,0,B|112:152|112:152|88:144|88:144|24:160,1,134.375
32,256,26597,2,0,B|80:304|80:304|160:280,1,134.375
232,256,27066,2,0,B|295:236|295:236|343:284,1,134.375
432,256,27535,6,0,P|440:176|488:120,1,134.375
360,128,28003,2,0,P|352:48|304:-8,1,134.375
321,5,28355,1,0,0:0:0:0:
321,5,28472,2,0,B|384:-8|384:-8|471:7,1,134.375
360,128,28941,2,0,B|297:141|297:141|209:125,1,134.375
144,96,29410,2,0,B|104:64|104:64|8:96,2,134.375
64,288,30113,1,0,0:0:0:0:
96,192,30347,2,0,P|144:224|240:208,1,134.375
432,208,30816,2,0,P|384:176|288:192,1,134.375
240,128,31285,6,0,B|256:80|256:80|240:80|240:80|260:2,2,134.375
218,220,31988,2,0,P|152:226|96:192,1,134.375
128,64,32456,2,0,P|193:58|250:92,1,134.375
208,320,32925,1,0,0:0:0:0:
224,224,33160,2,0,B|176:208|176:208|160:224|160:224|96:208,1,134.375
48,96,33628,2,0,B|96:112|96:112|112:96|112:96|176:112,1,134.375
256,96,34097,2,0,P|256:16|208:-32,1,134.375
352,176,34566,2,0,P|352:96|400:48,1,134.375
256,192,35035,6,0,B|192:224|192:224|16:208,1,201.5625
16,144,35503,2,0,P|80:112|152:128,1,134.375
272,64,35972,2,0,P|208:32|256:80,1,201.5625
304,80,36441,2,0,P|240:48|288:96,1,201.5625
336,96,36910,2,0,P|272:64|320:112,1,201.5625
336,96,37378,1,0,0:0:0:0:
432,128,37847,2,0,L|416:352,1,201.5625
256,320,38315,2,0,P|288:368|352:336,1,107.5
224,288,38783,6,0,P|192:240|112:320,1,161.2500061512
64,368,39251,2,0,B|16:336|16:336|0:128,1,241.875009226799
16,64,39720,2,0,B|112:80|112:80|192:64,1,161.2500061512
288,176,40189,2,0,B|225:188|225:188|129:172,1,161.2500061512
144,256,40658,2,0,B|80:336|80:336|320:352,1,322.500012302399
384,336,41361,2,0,L|400:240,1,80.6250030755998
416,160,41595,1,0,0:0:0:0:
336,80,41829,2,0,L|304:192,2,80.6250030755998
288,240,42298,2,0,L|256:352,1,80.6250030755998
176,240,42767,6,0,L|224:80,1,161.2500061512
96,96,43236,2,0,L|48:256,1,161.2500061512
176,240,43704,2,0,B|240:256|240:256|352:224,1,161.2500061512
400,128,44173,2,0,B|336:112|336:112|224:144,1,161.2500061512
160,32,44642,2,0,B|144:128|144:128|64:96,1,161.2500061512
48,208,45111,2,0,L|64:304,2,80.6250030755998
96,112,45579,2,0,P|176:144|272:96,1,161.2500061512
464,96,46048,2,0,P|391:64|315:85,1,161.2500061512
240,128,46517,6,0,B|176:160|176:160|48:144,1,161.2500061512
48,0,46986,2,0,P|80:32|64:160,1,161.2500061512
32,208,47454,2,0,P|0:176|16:48,1,161.2500061512
48,0,47923,2,0,L|128:0,1,80.6250030755998
208,0,48158,2,0,B|192:64|192:64|224:64|224:64|192:224,1,241.875009226799
176,288,48626,2,0,P|256:304|368:256,1,161.2500061512
192,112,49095,2,0,P|208:192|176:272,1,161.2500061512
320,176,49564,2,0,P|304:96|336:16,1,161.2500061512
416,160,50267,6,0,L|432:288,1,80.6250030755998
432,336,50501,2,0,B|336:304|336:304|208:336,1,215
176,176,51204,2,0,P|208:224|192:256,1,80.6250030755998
144,304,51673,2,0,P|112:272|112:240,1,53.75
80,176,51908,2,0,B|16:112|16:112|272:48,1,322.500012302399
224,224,53079,1,0,0:0:0:0:
240,48,53314,1,0,0:0:0:0:
224,224,53548,1,0,0:0:0:0:
240,48,53783,6,0,B|320:16|320:16|432:48,1,161.25
464,96,54251,2,0,L|448:208,1,107.5
320,320,54719,2,0,P|416:288|432:240,1,107.5
304,224,55188,2,0,P|208:256|192:304,1,107.5
160,336,55540,1,0,0:0:0:0:
160,336,55657,2,0,B|96:352|96:352|80:224,1,161.25
64,160,56125,6,0,B|16:112|16:112|208:80,1,215
256,80,56710,1,0,0:0:0:0:
256,80,56828,2,0,P|272:160|320:176,1,107.5
368,176,57296,1,0,0:0:0:0:
288,170,57531,2,0,P|252:132|256:80,1,107.5
224,0,57999,6,0,B|160:32|160:32|-16:32,1,215
0,112,58584,1,0,0:0:0:0:
0,112,58702,2,0,B|-32:160|-32:160|144:144,1,215
208,128,59405,2,0,P|240:192|224:224,1,107.5
160,288,59873,2,0,B|96:320|96:320|192:352|272:312,1,215
360,312,60576,2,0,P|328:248|296:232,1,107.5
224,192,61044,1,0,0:0:0:0:
128,224,61279,6,0,P|144:304|128:336,1,107.5
112,208,61747,2,0,P|96:128|112:96,1,107.5
192,48,62098,1,0,0:0:0:0:
192,48,62215,2,0,B|256:64|256:64|368:48,1,161.25
432,32,62684,2,0,L|448:128,1,53.75
464,176,62918,1,0,0:0:0:0:
224,192,63153,2,0,B|304:224|288:176|416:224,1,161.25
464,176,63621,6,0,B|512:160|512:160|496:64,1,107.5
432,16,64089,2,0,B|384:32|384:32|400:128,1,107.5
382,212,64558,2,0,B|288:176|304:224|224:192,1,161.25
128,208,65027,2,0,P|160:256|128:336,1,107.5
32,288,65495,6,0,P|0:240|32:160,1,107.5
0,80,65963,2,0,B|80:48|80:48|192:64,1,161.25
240,80,66432,2,0,B|304:96|304:96|384:64,1,107.5
432,16,66901,6,0,L|432:64,1,26.875
496,96,67135,2,0,L|496:144,1,26.875
400,128,67369,2,0,L|400:176,1,26.875
464,208,67603,2,0,L|464:256,1,26.875
368,240,67838,2,0,L|368:288,1,26.875
432,320,68072,2,0,L|432:368,1,26.875
240,352,68307,2,0,P|304:368|352:336,1,107.5
48,128,72526,6,0,L|120:144,1,53.75
184,72,72994,2,0,L|256:88,1,53.75
208,208,73463,2,0,L|280:224,1,53.75
344,152,73931,2,0,L|416:168,1,53.75
480,184,74401,2,0,P|472:248|440:288,1,107.5
376,320,75338,1,0,0:0:0:0:
256,256,75690,1,0,0:0:0:0:
256,224,76041,1,0,0:0:0:0:
48,304,76276,6,0,P|96:336|176:320,1,107.5
304,304,76744,2,0,P|256:272|176:288,1,107.5
48,304,77213,2,0,B|16:256|16:256|48:112,1,161.25
64,80,77682,2,0,B|128:64|128:32|96:48|112:144|160:160,1,161.25
224,176,78151,6,0,L|368:144,1,107.5
456,40,78619,2,0,L|352:64,2,107.5
464,144,79322,1,0,0:0:0:0:
464,256,79557,1,0,0:0:0:0:
464,368,79791,2,0,B|368:352|368:352|240:368,1,215
208,256,80494,6,0,P|240:304|240:368,1,107.5
96,320,80963,2,0,P|64:272|64:208,2,107.5
208,256,81666,2,0,L|288:240,1,53.75
352,224,81901,2,0,B|416:208|416:208|448:320,2,161.25
208,256,82838,1,0,0:0:0:0:
128,272,83072,2,0,L|144:352,1,53.75
112,192,83307,1,0,0:0:0:0:
192,176,83541,2,0,L|176:96,1,53.75
208,256,83776,5,0,0:0:0:0:
272,320,84010,1,0,0:0:0:0:
304,224,84244,5,0,0:0:0:0:
368,288,84478,1,0,0:0:0:0:
400,192,84713,5,0,0:0:0:0:
464,256,84947,1,0,0:0:0:0:
400,192,85182,5,0,0:0:0:0:
336,128,85416,1,0,0:0:0:0:
304,224,85650,5,0,0:0:0:0:
240,160,85884,1,0,0:0:0:0:
208,256,86119,5,0,0:0:0:0:
144,192,86353,1,0,0:0:0:0:
112,288,86588,5,0,0:0:0:0:
48,224,86822,1,0,0:0:0:0:
208,256,87057,5,0,0:0:0:0:
144,192,87291,1,0,0:0:0:0:
240,160,87526,2,0,L|352:272,1,107.5
384,304,87994,2,0,B|336:320|336:320|400:336|480:320,1,161.25
512,272,88463,2,0,L|480:192,3,53.75
445,325,88932,2,0,B|400:336|336:320|336:320|384:304,1,161.25
512,272,89401,5,0,0:0:0:0:
496,224,89635,1,0,0:0:0:0:
480,176,89869,1,0,0:0:0:0:
464,128,90103,1,0,0:0:0:0:
448,80,90338,1,0,0:0:0:0:
192,64,90572,2,0,P|224:112|288:128,1,107.5
368,96,91040,2,0,P|336:48|272:32,1,107.5
168,72,91508,6,0,B|104:56|104:56|72:72|72:72|-24:96,1,161.2500061512
0,176,91977,2,0,B|112:152|112:152|184:160,1,161.2500061512
240,176,92445,2,0,B|286:181|286:181|398:157,1,161.2500061512
384,0,92914,2,0,P|376:88|432:192,1,161.2500061512
424,320,93383,2,0,P|432:232|376:128,1,161.2500061512
401,154,93852,2,0,P|374:79|384:0,1,161.2500061512
288,0,94320,2,0,L|208:24,4,80.6250030755998
136,56,94906,1,0,0:0:0:0:
136,56,95024,6,0,B|56:96|56:96|224:128,1,241.875009226799
352,216,95492,2,0,B|432:176|432:176|264:144,1,241.875009226799
136,56,95961,6,0,B|56:96|56:96|192:120,2,161.2500061512
208,8,96664,1,0,0:0:0:0:
280,64,96899,2,0,B|320:136|320:136|304:248,1,161.2500061512
232,320,97367,2,0,B|192:248|192:248|208:136,1,161.2500061512
152,96,97836,2,0,B|56:136|72:64|136:200|88:296,1,241.875009226799
48,360,98305,2,0,L|152:384,1,80.6250030755998
184,312,98539,2,0,L|288:336,1,80.6250030755998
344,344,98774,6,0,B|400:344|400:344|416:192,1,161.2500061512
376,120,99242,2,0,B|320:120|320:120|304:272,1,161.2500061512
339,344,99711,2,0,B|410:344|410:344|430:192,1,161.2500061512
380,120,100179,2,0,B|309:120|309:120|289:272,1,161.2500061512
248,288,100649,2,0,B|200:328|200:328|200:184,2,161.2500061512
304,216,101352,1,0,0:0:0:0:
320,192,101469,1,0,0:0:0:0:
336,168,101586,1,0,0:0:0:0:
344,32,101820,2,0,B|392:-8|392:-8|392:136,2,161.2500061512
280,88,102524,6,0,P|160:80|128:56,1,161.2500061512
0,216,102992,2,0,P|120:208|152:184,1,161.2500061512
184,288,103461,2,0,B|248:312|248:312|264:160,2,161.2500061512
88,144,104164,1,0,0:0:0:0:
96,160,104281,2,0,P|112:192|72:272,1,80.6250030755998
16,312,104633,2,0,P|0:280|40:200,1,80.6250030755998
8,152,105570,2,0,P|15:116|95:78,2,80.6250030755998
8,256,106274,6,0,L|232:256,1,215
320,256,106977,2,0,B|320:336|320:336|472:312,1,215
472,224,107914,1,0,0:0:0:0:
312,136,108149,2,0,B|392:176|392:176|408:32,1,215
304,32,109086,2,0,B|224:-8|224:-8|208:136,1,215
192,216,109789,1,0,0:0:0:0:
176,312,110024,2,0,B|144:336|144:336|240:368|336:336,1,215
360,208,110727,2,0,P|392:248|384:312,1,107.5
264,224,111195,2,0,P|232:184|240:120,2,107.5
360,208,111899,2,0,B|416:216|416:216|488:192,2,107.5
272,192,112836,5,0,0:0:0:0:
184,176,113305,1,0,0:0:0:0:
104,152,113539,2,0,B|64:176|64:176|72:264,1,107.5
80,320,114008,2,0,B|120:368|120:368|272:312,1,215
328,240,114711,2,0,B|288:192|288:192|136:248,1,215
104,152,115414,2,0,L|176:128,1,53.75
232,112,115649,1,0,0:0:0:0:
312,88,115883,2,0,B|368:64|368:64|360:248,1,215
360,312,116586,2,0,B|272:272|224:352|136:312,1,215
80,200,117289,1,0,0:0:0:0:
64,288,117524,6,0,B|96:328|96:328|280:312,1,215
360,280,118227,2,0,B|376:256|376:256|264:216,1,107.5
216,168,118695,2,0,P|128:192|72:96,1,215
152,112,119399,1,0,0:0:0:0:
216,168,119633,2,0,B|192:216|192:216|360:256,1,215
416,288,121274,5,0,0:0:0:0:
64,288,121742,1,0,0:0:0:0:
416,96,122211,1,0,0:0:0:0:
64,96,122680,1,0,0:0:0:0:
160,152,122914,1,0,0:0:0:0:
256,192,123146,6,0,B|352:160|352:160|320:304,1,215
272,376,123848,1,0,0:0:0:0:
104,328,124082,2,0,L|208:312,4,53.75
16,336,124785,1,0,0:0:0:0:
240,304,125020,6,0,B|328:288|328:288|256:128,1,215
104,48,125722,1,0,0:0:0:0:
72,128,125956,2,0,P|16:208|-24:200,1,107.5
176,128,126308,1,0,0:0:0:0:
144,208,126425,2,0,P|88:288|48:280,1,107.5
8,328,126894,2,0,B|-24:368|-24:368|112:376,1,161.25
168,376,127362,6,0,B|240:360|240:360|256:264,1,161.25
272,192,127830,2,0,L|288:112,4,53.75
304,48,128533,1,0,0:0:0:0:
288,136,128768,2,0,B|320:192|320:192|368:176,1,107.5
224,192,129236,2,0,B|192:248|192:248|144:232,1,107.5
72,160,129587,1,0,0:0:0:0:
48,248,129704,6,0,L|32:320,1,53.75
128,328,129939,2,0,L|112:400,1,53.75
160,200,130173,2,0,L|144:272,1,53.75
240,280,130408,2,0,L|224:352,1,53.75
256,192,130642,2,0,B|232:128|232:128|296:112|368:128,1,161.25
440,64,131110,6,0,P|440:136|408:168,1,107.5
352,224,131461,1,0,0:0:0:0:
352,312,131578,2,0,L|352:376,4,53.75
352,224,132281,1,0,0:0:0:0:
352,136,132516,2,0,B|400:96|400:96|328:72|264:112,1,161.25
224,120,132984,6,0,B|168:144|168:144|216:160|208:240,1,161.25
208,312,133452,2,0,P|144:336|112:328,3,53.75
40,256,133921,2,0,P|104:280|136:272,3,53.75
72,168,134390,2,0,P|152:192|240:160,1,161.25
288,120,134858,2,0,B|344:80|344:80|344:216,1,161.25
344,256,135326,6,0,L|344:328,3,53.75
256,288,135795,2,0,L|256:360,3,53.75
256,200,136264,6,0,L|120:208,1,107.5
16,160,136733,2,0,L|120:120,1,80.6250030755998
168,32,137201,2,0,P|208:96|240:88,2,107.5
104,128,137904,2,0,L|0:176,1,64.4999980316163
0,224,138139,6,0,L|64:368,1,107.5
136,256,138607,2,0,L|200:400,1,107.5
256,224,139075,2,0,P|296:288|352:288,1,107.5
424,256,139543,2,0,P|384:192|328:192,1,107.5
160,136,140011,2,0,B|216:112|216:112|296:128,1,107.5
344,80,140479,1,0,0:0:0:0:
512,160,141885,6,0,L|448:16,1,107.5
376,128,142353,2,0,L|312:-16,1,107.5
256,160,142821,2,0,P|216:96|160:96,1,107.5
88,128,143289,2,0,P|128:192|184:192,1,107.5
352,248,143757,2,0,B|296:272|296:272|216:256,1,107.5
168,304,144225,1,0,0:0:0:0:
96,248,144693,1,0,0:0:0:0:
184,216,145045,1,0,0:0:0:0:
24,112,145396,1,0,0:0:0:0:
8,64,145630,5,0,0:0:0:0:
112,48,152192,6,0,B|40:112|40:112|240:96,1,257.999992126465
288,88,152895,2,0,P|304:152|296:192,1,64.4999980316163
304,232,153130,1,0,0:0:0:0:
224,336,153364,2,0,P|208:272|216:232,1,64.4999980316163
208,192,153599,1,0,0:0:0:0:
304,232,153833,2,0,B|320:296|320:296|416:272,1,128.999996063233
504,248,154301,2,0,B|488:184|488:184|392:208,1,128.999996063233
328,0,154770,2,0,P|352:56|352:80,1,64.4999980316163
352,144,155005,5,0,0:0:0:0:
280,288,155239,2,0,P|256:232|256:208,1,64.4999980316163
256,144,155474,1,0,0:0:0:0:
130,139,155708,2,0,B|202:155|202:155|274:139,1,128.999996063233
381,147,156176,2,0,B|309:131|309:131|237:147,1,128.999996063233
128,288,156645,1,0,0:0:0:0:
216,312,156762,1,0,0:0:0:0:
112,288,156880,6,0,L|16:264,1,53.75
176,192,157114,2,0,L|80:168,1,53.75
64,112,157348,2,0,L|-32:88,1,53.75
128,16,157582,2,0,L|32:-8,1,53.75
240,96,157817,2,0,L|336:120,1,53.75
176,192,158051,2,0,L|272:216,1,53.75
304,232,158286,2,0,B|360:248|360:248|320:320,2,107.5
176,192,158989,1,0,0:0:0:0:
232,208,159223,1,0,0:0:0:0:
32,88,159926,6,0,B|96:104|96:104|152:88,1,107.5
208,56,160277,2,0,L|280:32,1,53.75
336,0,160511,1,0,0:0:0:0:
408,56,160628,6,0,B|464:80|464:80|416:224,1,161.25
400,248,161096,2,0,L|352:376,1,107.5
264,320,161565,2,0,L|312:192,1,107.5
336,136,162034,2,0,P|288:96|168:136,1,161.25
136,168,162503,6,0,P|59:184|0:152,2,107.5
240,216,163206,1,0,0:0:0:0:
194,107,163440,2,0,P|271:91|336:136,1,161.25
360,216,163909,2,0,L|344:296,1,53.75
432,280,164143,2,0,L|448:360,1,53.75
336,352,164378,6,0,B|248:368|248:368|176:304,1,161.25
48,280,164846,2,0,B|136:264|136:264|208:328,1,161.25
194,320,165315,2,0,B|248:368|248:368|320:352,2,107.5
136,256,166018,2,0,L|32:280,1,107.5
0,192,166487,2,0,L|104:168,1,107.5
184,144,166956,2,0,L|288:120,1,107.5
368,96,167424,2,0,B|432:80|432:80|416:240,1,215
400,312,168128,6,0,L|256:288,1,107.5
328,208,168596,2,0,L|184:184,1,107.5
216,368,169065,2,0,L|72:344,1,107.5
144,264,169533,2,0,L|0:240,1,107.5
32,208,170003,6,0,L|138:225,1,107.5
104,312,170471,2,0,L|210:329,1,107.5
216,152,170940,2,0,L|322:169,1,107.5
288,256,171408,2,0,L|394:273,1,107.5
464,352,171760,1,0,0:0:0:0:
464,352,171878,6,0,B|528:336|528:336|504:168,1,215
464,104,172815,2,0,B|400:120|400:120|424:288,1,215
464,352,173518,2,0,P|408:368|328:344,1,107.5
240,360,173987,2,0,P|296:344|376:368,1,107.5
464,352,174338,1,0,0:0:0:0:
464,352,174456,6,0,B|528:336|528:336|488:160,1,215
472,112,175159,2,0,L|440:-16,1,107.5
96,64,175628,5,0,0:0:0:0:
96,288,175862,1,0,0:0:0:0:
416,64,176096,1,0,0:0:0:0:
416,288,176330,1,0,0:0:0:0:
62,152,176565,5,0,0:0:0:0:
167,350,176799,1,0,0:0:0:0:
344,1,177033,1,0,0:0:0:0:
449,199,177267,1,0,0:0:0:0:
65,266,177503,5,0,0:0:0:0:
259,378,177737,1,0,0:0:0:0:
225,0,177971,1,0,0:0:0:0:
419,101,178205,1,0,0:0:0:0:
124,339,178440,5,0,0:0:0:0:
348,347,178674,1,0,0:0:0:0:
135,20,178908,1,0,0:0:0:0:
359,28,179142,1,0,0:0:0:0:
96,64,179378,5,0,0:0:0:0:
96,288,179612,1,0,0:0:0:0:
416,64,179846,1,0,0:0:0:0:
416,288,180080,1,0,0:0:0:0:
62,152,180315,5,0,0:0:0:0:
167,350,180549,1,0,0:0:0:0:
344,1,180783,1,0,0:0:0:0:
449,199,181017,1,0,0:0:0:0:
65,266,181253,5,0,0:0:0:0:
259,378,181487,1,0,0:0:0:0:
225,0,181721,1,0,0:0:0:0:
419,101,181955,1,0,0:0:0:0:
124,339,182190,5,0,0:0:0:0:
348,347,182424,1,0,0:0:0:0:
135,20,182658,1,0,0:0:0:0:
359,28,182892,1,0,0:0:0:0:
65,266,183128,5,0,0:0:0:0:
259,378,183362,1,0,0:0:0:0:
225,0,183596,1,0,0:0:0:0:
419,101,183830,1,0,0:0:0:0:
124,339,184065,5,0,0:0:0:0:
348,347,184299,1,0,0:0:0:0:
135,20,184533,1,0,0:0:0:0:
359,28,184767,1,0,0:0:0:0:
62,152,185003,5,0,0:0:0:0:
167,350,185237,1,0,0:0:0:0:
344,1,185471,1,0,0:0:0:0:
449,199,185705,1,0,0:0:0:0:
65,266,185941,5,0,0:0:0:0:
259,378,186175,1,0,0:0:0:0:
225,0,186409,1,0,0:0:0:0:
419,101,186643,1,0,0:0:0:0:
124,339,186878,5,0,0:0:0:0:
348,347,187112,1,0,0:0:0:0:
135,20,187346,1,0,0:0:0:0:
359,28,187580,1,0,0:0:0:0:
65,266,187816,5,0,0:0:0:0:
259,378,188050,1,0,0:0:0:0:
225,0,188284,1,0,0:0:0:0:
419,101,188518,1,0,0:0:0:0:
256,192,188753,12,0,189690,0:0:0:0:
