osu file format v14

[General]
AudioFilename: audio.mp3
AudioLeadIn: 0
PreviewTime: 45783
Countdown: 0
SampleSet: Drum
StackLeniency: 0.7
Mode: 3
LetterboxInBreaks: 0
SpecialStyle: 0
WidescreenStoryboard: 1

[Editor]
DistanceSpacing: 0.6
BeatDivisor: 4
GridSize: 32
TimelineZoom: 1.9

[Metadata]
Title:Dubidubidu (Cut Ver.)
TitleUnicode:Dubidubidu (Cut Ver.)
Artist:Christell
ArtistUnicode:Christell
Creator:Kibitz
Version:Moca's Advanced Jam
Source:
Tags:cat dance meme get jiggy with it pop female vocal vocalist chipi chapa dubi daba magico boom tiktok spanish chord jack chordjack cj mocaloca moca melly y sus amigos and her friends espaƱol espanol Dean Nielsen Georgi chile chilean latin latino
BeatmapID:4417927
BeatmapSetID:2105540

[Difficulty]
HPDrainRate:7.5
CircleSize:4
OverallDifficulty:7.5
ApproachRate:5
SliderMultiplier:1.4
SliderTickRate:1

[Events]
//Background and Video events
0,0,"catJAM.jpg",0,0
//Break Periods
//Storyboard Layer 0 (Background)
//Storyboard Layer 1 (Fail)
//Storyboard Layer 2 (Pass)
//Storyboard Layer 3 (Foreground)
//Storyboard Layer 4 (Overlay)
//Storyboard Sound Samples

[TimingPoints]
479,405.405405405405,4,3,1,50,1,0
45884,-100,4,3,1,50,0,1
51965,-100,4,3,1,50,0,0
52370,-100,4,3,1,50,0,1
57235,-100,4,3,1,50,0,0
58857,-100,4,3,1,50,0,1
64938,-100,4,3,1,50,0,0
65343,-100,4,3,1,50,0,1
75073,-100,4,3,1,50,0,0

[HitObjects]
128,192,479,5,0,3:0:1:50:
256,192,681,1,0,3:0:1:50:
384,192,884,1,0,3:0:1:50:
0,192,884,1,0,3:0:1:50:
128,192,1087,1,0,3:0:1:50:
256,192,1289,1,0,3:0:1:50:
384,192,1492,1,0,3:0:1:50:
128,192,1695,1,0,3:0:1:50:
0,192,1695,1,0,3:0:1:50:
256,192,1897,1,0,3:0:1:50:
128,192,2100,1,0,3:0:1:50:
0,192,2303,1,0,3:0:1:50:
256,192,2506,1,0,3:0:1:50:
384,192,2506,1,0,3:0:1:50:
128,192,2708,1,0,3:0:1:50:
0,192,2911,1,0,3:0:1:50:
256,192,3114,1,0,3:0:1:50:
384,192,3316,1,0,3:0:1:50:
0,192,3316,1,0,3:0:1:50:
128,192,3519,1,0,3:0:1:50:
256,192,3722,1,0,3:0:1:50:
384,192,3924,1,0,3:0:1:50:
128,192,4127,1,0,3:0:1:50:
0,192,4127,1,0,3:0:1:50:
256,192,4330,1,0,3:0:1:50:
384,192,4533,1,0,3:0:1:50:
128,192,4735,1,0,3:0:1:50:
0,192,4938,1,0,3:0:1:50:
384,192,4938,1,0,3:0:1:50:
256,192,5141,1,0,3:0:1:50:
128,192,5343,1,0,3:0:1:50:
256,192,5546,1,0,3:0:1:50:
384,192,5546,1,0,3:0:1:50:
0,192,5749,1,0,3:0:1:50:
128,192,5951,1,0,3:0:1:50:
256,192,5951,1,0,3:0:1:50:
384,192,6154,1,0,3:0:1:50:
128,192,6357,1,0,3:0:1:50:
0,192,6357,1,0,3:0:1:50:
256,192,6560,1,0,3:0:1:50:
384,192,6762,1,0,3:0:1:50:
0,192,6762,1,0,3:0:1:50:
128,192,6965,1,0,3:0:1:50:
0,192,6965,1,0,3:0:1:50:
256,192,7168,1,0,3:0:1:50:
384,192,7370,1,0,3:0:1:50:
0,192,7370,1,0,3:0:1:50:
128,192,7573,1,0,3:0:1:50:
256,192,7776,1,0,3:0:1:50:
0,192,7978,1,0,3:0:1:50:
256,192,8181,1,0,3:0:1:50:
384,192,8181,1,0,3:0:1:50:
384,192,8384,1,0,3:0:1:50:
128,192,8587,1,0,3:0:1:50:
256,192,8789,1,0,3:0:1:50:
384,192,8992,1,0,3:0:1:50:
0,192,8992,1,0,3:0:1:50:
128,192,9195,1,0,3:0:1:50:
256,192,9397,1,0,3:0:1:50:
128,192,9600,1,0,3:0:1:50:
384,192,9803,1,0,3:0:1:50:
0,192,9803,1,0,3:0:1:50:
0,192,10006,1,0,3:0:1:50:
256,192,10208,1,0,3:0:1:50:
128,192,10411,1,0,3:0:1:50:
0,192,10614,1,0,3:0:1:50:
384,192,10614,1,0,3:0:1:50:
256,192,10816,1,0,3:0:1:50:
128,192,11019,1,0,3:0:1:50:
384,192,11222,1,0,3:0:1:50:
0,192,11424,1,0,3:0:1:50:
128,192,11424,1,0,3:0:1:50:
0,192,11627,1,0,3:0:1:50:
128,192,11830,1,0,3:0:1:50:
256,192,12033,1,0,3:0:1:50:
384,192,12235,1,0,3:0:1:50:
0,192,12235,1,0,3:0:1:50:
128,192,12438,1,0,3:0:1:50:
384,192,12641,1,0,3:0:1:50:
256,192,12843,1,0,3:0:1:50:
128,192,13046,1,0,3:0:1:50:
0,192,13046,1,0,3:0:1:50:
128,192,13249,1,0,3:0:1:50:
256,192,13451,1,0,3:0:1:50:
384,192,13654,1,0,3:0:1:50:
256,192,13857,1,0,3:0:1:50:
128,192,13857,1,0,3:0:1:50:
0,192,14060,1,0,3:0:1:50:
256,192,14262,1,0,3:0:1:50:
128,192,14465,1,0,3:0:1:50:
0,192,14668,1,0,3:0:1:50:
384,192,14668,1,0,3:0:1:50:
384,192,14870,1,0,3:0:1:50:
128,192,15073,1,0,3:0:1:50:
256,192,15276,1,0,3:0:1:50:
128,192,15478,1,0,3:0:1:50:
0,192,15478,1,0,3:0:1:50:
384,192,15681,1,0,3:0:1:50:
256,192,15884,1,0,3:0:1:50:
128,192,16087,1,0,3:0:1:50:
0,192,16289,1,0,3:0:1:50:
384,192,16289,1,0,3:0:1:50:
384,192,16492,1,0,3:0:1:50:
128,192,16695,1,0,3:0:1:50:
256,192,16897,1,0,3:0:1:50:
0,192,17100,1,0,3:0:1:50:
128,192,17100,1,0,3:0:1:50:
384,192,17303,1,0,3:0:1:50:
256,192,17506,1,0,3:0:1:50:
128,192,17708,1,0,3:0:1:50:
0,192,17911,1,0,3:0:1:50:
384,192,17911,1,0,3:0:1:50:
384,192,18114,1,0,3:0:1:50:
128,192,18316,1,0,3:0:1:50:
256,192,18519,1,0,3:0:1:50:
0,192,18722,1,0,3:0:1:50:
128,192,18722,1,0,3:0:1:50:
384,192,18924,1,0,3:0:1:50:
256,192,19127,1,0,3:0:1:50:
128,192,19330,1,0,3:0:1:50:
0,192,19533,1,0,3:0:1:50:
384,192,19533,1,0,3:0:1:50:
256,192,19735,1,0,3:0:1:50:
0,192,19938,1,0,3:0:1:50:
0,192,20141,1,0,3:0:1:50:
256,192,20343,1,0,3:0:1:50:
128,192,20343,1,0,3:0:1:50:
256,192,20546,1,0,3:0:1:50:
384,192,20749,128,0,21154:3:0:1:50:
128,192,21154,1,0,3:0:1:50:
0,192,21154,1,0,3:0:1:50:
256,192,21357,1,0,3:0:1:50:
0,192,21560,1,0,3:0:1:50:
384,192,21560,1,0,3:0:1:50:
384,192,21762,1,0,3:0:1:50:
128,192,21965,1,0,3:0:1:50:
0,192,21965,1,0,3:0:1:50:
0,192,22168,1,0,3:0:1:50:
128,192,22370,128,0,22776:3:0:1:50:
0,192,22776,1,0,3:0:1:50:
384,192,22776,1,0,3:0:1:50:
256,192,22978,1,0,3:0:1:50:
0,192,23181,1,0,3:0:1:50:
0,192,23384,1,0,3:0:1:50:
256,192,23587,1,0,3:0:1:50:
384,192,23587,1,0,3:0:1:50:
384,192,23789,1,0,3:0:1:50:
256,192,23992,128,0,24397:3:0:1:50:
384,192,24397,1,0,3:0:1:50:
0,192,24397,1,0,3:0:1:50:
0,192,24600,1,0,3:0:1:50:
128,192,24803,1,0,3:0:1:50:
256,192,25006,1,0,3:0:1:50:
384,192,25208,1,0,3:0:1:50:
0,192,25208,1,0,3:0:1:50:
128,192,25411,1,0,3:0:1:50:
256,192,25614,1,0,3:0:1:50:
384,192,25816,1,0,3:0:1:50:
128,192,26019,1,0,3:0:1:50:
0,192,26019,1,0,3:0:1:50:
256,192,26222,1,0,3:0:1:50:
384,192,26424,1,0,3:0:1:50:
384,192,26627,1,0,3:0:1:50:
128,192,26830,1,0,3:0:1:50:
0,192,26830,1,0,3:0:1:50:
0,192,27033,1,0,3:0:1:50:
384,192,27235,128,0,27641:3:0:1:50:
256,192,27641,1,0,3:0:1:50:
128,192,27641,1,0,3:0:1:50:
0,192,27843,1,0,3:0:1:50:
384,192,28046,1,0,3:0:1:50:
384,192,28249,1,0,3:0:1:50:
0,192,28451,1,0,3:0:1:50:
128,192,28451,1,0,3:0:1:50:
0,192,28654,1,0,3:0:1:50:
128,192,28857,128,0,29262:3:0:1:50:
256,192,29262,1,0,3:0:1:50:
384,192,29262,1,0,3:0:1:50:
0,192,29465,1,0,3:0:1:50:
128,192,29668,1,0,3:0:1:50:
128,192,29870,1,0,3:0:1:50:
256,192,30073,1,0,3:0:1:50:
384,192,30073,1,0,3:0:1:50:
384,192,30276,1,0,3:0:1:50:
0,192,30478,1,0,3:0:1:50:
256,192,30681,1,0,3:0:1:50:
128,192,30884,1,0,3:0:1:50:
0,192,30884,1,0,3:0:1:50:
0,192,31087,1,0,3:0:1:50:
256,192,31289,1,0,3:0:1:50:
128,192,31492,1,0,3:0:1:50:
384,192,31695,1,0,3:0:1:50:
0,192,31695,1,0,3:0:1:50:
256,192,31897,1,0,3:0:1:50:
128,192,32100,1,0,3:0:1:50:
0,192,32303,1,0,3:0:1:50:
256,192,32506,1,0,3:0:1:50:
384,192,32506,1,0,3:0:1:50:
384,192,32708,1,0,3:0:1:50:
0,192,32911,128,0,33316:3:0:1:50:
256,192,33316,1,0,3:0:1:50:
384,192,33316,1,0,3:0:1:50:
128,192,33519,1,0,3:0:1:50:
384,192,33722,128,0,34127:3:0:1:50:
0,192,34127,1,0,3:0:1:50:
128,192,34127,1,0,3:0:1:50:
256,192,34330,1,0,3:0:1:50:
0,192,34533,1,0,3:0:1:50:
0,192,34735,1,0,3:0:1:50:
256,192,34938,1,0,3:0:1:50:
384,192,34938,1,0,3:0:1:50:
384,192,35141,1,0,3:0:1:50:
128,192,35343,1,0,3:0:1:50:
256,192,35546,1,0,3:0:1:50:
0,192,35749,1,0,3:0:1:50:
384,192,35749,1,0,3:0:1:50:
0,192,35951,1,0,3:0:1:50:
256,192,36154,1,0,3:0:1:50:
128,192,36357,1,0,3:0:1:50:
0,192,36560,1,0,3:0:1:50:
384,192,36560,1,0,3:0:1:50:
256,192,36762,1,0,3:0:1:50:
128,192,36965,1,0,3:0:1:50:
0,192,37168,1,0,3:0:1:50:
256,192,37370,1,0,3:0:1:50:
384,192,37370,1,0,3:0:1:50:
384,192,37573,128,0,37978:3:0:1:50:
0,192,37978,128,0,38384:3:0:1:50:
384,192,38181,1,0,3:0:1:50:
256,192,38181,1,0,3:0:1:50:
128,192,38384,1,0,3:0:1:50:
256,192,38587,1,0,3:0:1:50:
384,192,38789,1,0,3:0:1:50:
128,192,38992,1,0,3:0:1:50:
0,192,38992,1,0,3:0:1:50:
0,192,39195,1,0,3:0:1:50:
384,192,39397,128,0,39803:3:0:1:50:
128,192,39803,1,0,3:0:1:50:
0,192,39803,1,0,3:0:1:50:
256,192,40006,1,0,3:0:1:50:
0,192,40208,1,0,3:0:1:50:
0,192,40411,1,0,3:0:1:50:
256,192,40614,1,0,3:0:1:50:
384,192,40614,1,0,3:0:1:50:
384,192,40816,1,0,3:0:1:50:
128,192,41019,1,0,3:0:1:50:
128,192,41222,1,0,3:0:1:50:
256,192,41424,1,0,3:0:1:50:
384,192,41424,1,0,3:0:1:50:
256,192,41627,1,0,3:0:1:50:
0,192,41830,1,0,3:0:1:50:
128,192,42033,1,0,3:0:1:50:
256,192,42235,1,0,3:0:1:50:
384,192,42235,1,0,3:0:1:50:
384,192,42438,128,0,42843:3:0:1:50:
0,192,42843,128,0,43249:3:0:1:50:
384,192,43046,1,0,3:0:1:50:
256,192,43046,1,0,3:0:1:50:
128,192,43249,1,0,3:0:1:50:
384,192,43451,1,0,3:0:1:50:
256,192,43553,1,0,3:0:1:50:
128,192,43654,1,0,3:0:1:50:
0,192,43756,1,0,3:0:1:50:
384,192,43857,1,0,3:0:1:50:
256,192,43958,1,0,3:0:1:50:
128,192,44060,1,0,3:0:1:50:
0,192,44262,1,0,3:0:1:50:
128,192,44364,1,0,3:0:1:50:
256,192,44465,1,0,3:0:1:50:
384,192,44566,1,0,3:0:1:50:
0,192,44668,1,0,3:0:1:50:
128,192,44769,1,0,3:0:1:50:
256,192,44870,1,0,3:0:1:50:
0,192,45073,1,0,3:0:1:50:
128,192,45174,1,0,3:0:1:50:
384,192,45276,1,0,3:0:1:50:
256,192,45377,1,0,3:0:1:50:
0,192,45478,1,0,3:0:1:50:
128,192,45580,1,0,3:0:1:50:
384,192,45681,1,0,3:0:1:50:
256,192,45783,1,0,3:0:1:50:
0,192,45884,1,0,3:0:1:50:
128,192,45884,1,0,3:0:1:50:
0,192,46087,1,0,3:0:1:50:
256,192,46289,1,0,3:0:1:50:
384,192,46289,1,0,3:0:1:50:
384,192,46492,1,0,3:0:1:50:
128,192,46695,1,0,3:0:1:50:
0,192,46695,1,0,3:0:1:50:
128,192,46897,1,0,3:0:1:50:
0,192,46897,1,0,3:0:1:50:
256,192,47100,1,0,3:0:1:50:
384,192,47100,1,0,3:0:1:50:
256,192,47303,1,0,3:0:1:50:
384,192,47303,1,0,3:0:1:50:
0,192,47506,1,0,3:0:1:50:
128,192,47506,1,0,3:0:1:50:
128,192,47708,1,0,3:0:1:50:
256,192,47911,1,0,3:0:1:50:
384,192,47911,1,0,3:0:1:50:
256,192,48114,1,0,3:0:1:50:
128,192,48316,1,0,3:0:1:50:
0,192,48316,1,0,3:0:1:50:
128,192,48519,1,0,3:0:1:50:
0,192,48519,1,0,3:0:1:50:
256,192,48722,1,0,3:0:1:50:
384,192,48722,1,0,3:0:1:50:
256,192,48924,1,0,3:0:1:50:
384,192,48924,1,0,3:0:1:50:
0,192,49127,1,0,3:0:1:50:
128,192,49127,1,0,3:0:1:50:
0,192,49330,1,0,3:0:1:50:
128,192,49533,1,0,3:0:1:50:
384,192,49533,1,0,3:0:1:50:
384,192,49735,1,0,3:0:1:50:
128,192,49938,1,0,3:0:1:50:
256,192,49938,1,0,3:0:1:50:
128,192,50141,1,0,3:0:1:50:
0,192,50343,1,0,3:0:1:50:
256,192,50343,1,0,3:0:1:50:
256,192,50546,1,0,3:0:1:50:
0,192,50749,128,0,50951:3:0:1:50:
384,192,50749,128,0,50951:3:0:1:50:
256,192,51154,128,0,51357:3:0:1:50:
384,192,51154,128,0,51357:3:0:1:50:
256,192,51560,128,0,51762:3:0:1:50:
128,192,51560,128,0,51762:3:0:1:50:
128,192,51965,128,0,52168:3:0:1:50:
0,192,51965,128,0,52168:3:0:1:50:
384,192,52370,1,0,3:0:1:50:
256,192,52370,1,0,3:0:1:50:
384,192,52573,1,0,3:0:1:50:
128,192,52776,1,0,3:0:1:50:
0,192,52776,1,0,3:0:1:50:
0,192,52978,1,0,3:0:1:50:
256,192,53181,1,0,3:0:1:50:
384,192,53181,1,0,3:0:1:50:
256,192,53384,1,0,3:0:1:50:
384,192,53384,1,0,3:0:1:50:
128,192,53587,1,0,3:0:1:50:
0,192,53587,1,0,3:0:1:50:
128,192,53789,1,0,3:0:1:50:
0,192,53789,1,0,3:0:1:50:
384,192,53992,1,0,3:0:1:50:
256,192,53992,1,0,3:0:1:50:
256,192,54195,1,0,3:0:1:50:
128,192,54397,1,0,3:0:1:50:
0,192,54397,1,0,3:0:1:50:
128,192,54600,1,0,3:0:1:50:
256,192,54803,1,0,3:0:1:50:
384,192,54803,1,0,3:0:1:50:
256,192,55006,1,0,3:0:1:50:
384,192,55006,1,0,3:0:1:50:
128,192,55208,1,0,3:0:1:50:
0,192,55208,1,0,3:0:1:50:
128,192,55411,1,0,3:0:1:50:
0,192,55411,1,0,3:0:1:50:
384,192,55614,1,0,3:0:1:50:
256,192,55614,1,0,3:0:1:50:
384,192,55816,1,0,3:0:1:50:
256,192,56019,1,0,3:0:1:50:
0,192,56019,1,0,3:0:1:50:
0,192,56222,1,0,3:0:1:50:
256,192,56424,1,0,3:0:1:50:
128,192,56424,1,0,3:0:1:50:
256,192,56627,1,0,3:0:1:50:
384,192,56830,1,0,3:0:1:50:
128,192,56830,1,0,3:0:1:50:
128,192,57033,1,0,3:0:1:50:
256,192,57235,1,0,3:0:1:50:
384,192,57337,1,0,3:0:1:50:
0,192,57438,1,0,3:0:1:50:
128,192,57539,1,0,3:0:1:50:
256,192,57641,1,0,3:0:1:50:
384,192,57742,1,0,3:0:1:50:
0,192,57843,1,0,3:0:1:50:
128,192,57945,1,0,3:0:1:50:
256,192,58046,1,0,3:0:1:50:
384,192,58147,1,0,3:0:1:50:
0,192,58249,1,0,3:0:1:50:
128,192,58350,1,0,3:0:1:50:
256,192,58451,1,0,3:0:1:50:
384,192,58553,1,0,3:0:1:50:
128,192,58654,1,0,3:0:1:50:
256,192,58756,1,0,3:0:1:50:
0,192,58857,1,0,3:0:1:50:
128,192,58857,1,0,3:0:1:50:
0,192,59060,1,0,3:0:1:50:
256,192,59262,1,0,3:0:1:50:
384,192,59262,1,0,3:0:1:50:
384,192,59465,1,0,3:0:1:50:
128,192,59668,1,0,3:0:1:50:
0,192,59668,1,0,3:0:1:50:
128,192,59870,1,0,3:0:1:50:
0,192,59870,1,0,3:0:1:50:
256,192,60073,1,0,3:0:1:50:
384,192,60073,1,0,3:0:1:50:
256,192,60276,1,0,3:0:1:50:
384,192,60276,1,0,3:0:1:50:
0,192,60478,1,0,3:0:1:50:
128,192,60478,1,0,3:0:1:50:
128,192,60681,1,0,3:0:1:50:
256,192,60884,1,0,3:0:1:50:
384,192,60884,1,0,3:0:1:50:
256,192,61087,1,0,3:0:1:50:
128,192,61289,1,0,3:0:1:50:
0,192,61289,1,0,3:0:1:50:
128,192,61492,1,0,3:0:1:50:
0,192,61492,1,0,3:0:1:50:
256,192,61695,1,0,3:0:1:50:
384,192,61695,1,0,3:0:1:50:
256,192,61897,1,0,3:0:1:50:
384,192,61897,1,0,3:0:1:50:
0,192,62100,1,0,3:0:1:50:
128,192,62100,1,0,3:0:1:50:
0,192,62303,1,0,3:0:1:50:
128,192,62506,1,0,3:0:1:50:
384,192,62506,1,0,3:0:1:50:
384,192,62708,1,0,3:0:1:50:
128,192,62911,1,0,3:0:1:50:
256,192,62911,1,0,3:0:1:50:
128,192,63114,1,0,3:0:1:50:
0,192,63316,1,0,3:0:1:50:
256,192,63316,1,0,3:0:1:50:
256,192,63519,1,0,3:0:1:50:
0,192,63722,128,0,63924:3:0:1:50:
384,192,63722,128,0,63924:3:0:1:50:
256,192,64127,128,0,64330:3:0:1:50:
384,192,64127,128,0,64330:3:0:1:50:
256,192,64533,128,0,64735:3:0:1:50:
128,192,64533,128,0,64735:3:0:1:50:
128,192,64938,128,0,65141:3:0:1:50:
0,192,64938,128,0,65141:3:0:1:50:
384,192,65343,1,0,3:0:1:50:
256,192,65343,1,0,3:0:1:50:
384,192,65546,1,0,3:0:1:50:
128,192,65749,1,0,3:0:1:50:
0,192,65749,1,0,3:0:1:50:
0,192,65951,1,0,3:0:1:50:
256,192,66154,1,0,3:0:1:50:
384,192,66154,1,0,3:0:1:50:
256,192,66357,1,0,3:0:1:50:
384,192,66357,1,0,3:0:1:50:
128,192,66560,1,0,3:0:1:50:
0,192,66560,1,0,3:0:1:50:
128,192,66762,1,0,3:0:1:50:
0,192,66762,1,0,3:0:1:50:
384,192,66965,1,0,3:0:1:50:
256,192,66965,1,0,3:0:1:50:
256,192,67168,1,0,3:0:1:50:
128,192,67370,1,0,3:0:1:50:
0,192,67370,1,0,3:0:1:50:
128,192,67573,1,0,3:0:1:50:
256,192,67776,1,0,3:0:1:50:
384,192,67776,1,0,3:0:1:50:
256,192,67978,1,0,3:0:1:50:
384,192,67978,1,0,3:0:1:50:
128,192,68181,1,0,3:0:1:50:
0,192,68181,1,0,3:0:1:50:
128,192,68384,1,0,3:0:1:50:
0,192,68384,1,0,3:0:1:50:
384,192,68587,1,0,3:0:1:50:
256,192,68587,1,0,3:0:1:50:
384,192,68789,1,0,3:0:1:50:
256,192,68992,1,0,3:0:1:50:
0,192,68992,1,0,3:0:1:50:
0,192,69195,1,0,3:0:1:50:
256,192,69397,1,0,3:0:1:50:
128,192,69397,1,0,3:0:1:50:
256,192,69600,1,0,3:0:1:50:
384,192,69803,1,0,3:0:1:50:
128,192,69803,1,0,3:0:1:50:
128,192,70006,1,0,3:0:1:50:
384,192,70208,1,0,3:0:1:50:
256,192,70310,1,0,3:0:1:50:
128,192,70411,1,0,3:0:1:50:
0,192,70512,1,0,3:0:1:50:
256,192,70614,1,0,3:0:1:50:
128,192,70715,1,0,3:0:1:50:
0,192,70816,1,0,3:0:1:50:
256,192,70918,1,0,3:0:1:50:
384,192,71019,1,0,3:0:1:50:
0,192,71120,1,0,3:0:1:50:
128,192,71222,1,0,3:0:1:50:
256,192,71323,1,0,3:0:1:50:
0,192,71424,1,0,3:0:1:50:
384,192,71424,1,0,3:0:1:50:
384,192,71830,1,0,3:0:1:50:
256,192,71931,1,0,3:0:1:50:
128,192,72033,1,0,3:0:1:50:
0,192,72134,1,0,3:0:1:50:
384,192,72235,1,0,3:0:1:50:
256,192,72337,1,0,3:0:1:50:
0,192,72438,1,0,3:0:1:50:
128,192,72539,1,0,3:0:1:50:
384,192,72641,1,0,3:0:1:50:
256,192,72742,1,0,3:0:1:50:
128,192,72843,1,0,3:0:1:50:
0,192,72945,1,0,3:0:1:50:
256,192,73046,1,0,3:0:1:50:
384,192,73046,1,0,3:0:1:50:
0,192,73451,1,0,3:0:1:50:
128,192,73553,1,0,3:0:1:50:
384,192,73654,1,0,3:0:1:50:
256,192,73756,1,0,3:0:1:50:
128,192,73857,1,0,3:0:1:50:
0,192,73958,1,0,3:0:1:50:
256,192,74060,1,0,3:0:1:50:
128,192,74161,1,0,3:0:1:50:
384,192,74262,1,0,3:0:1:50:
384,192,74465,1,0,3:0:1:50:
0,192,74668,1,0,3:0:1:50:
0,192,74870,1,0,3:0:1:50:
128,192,75073,1,0,3:0:1:50:
256,192,75073,1,0,3:0:1:50:
