osu file format v14

[General]
AudioFilename: audio.mp3
AudioLeadIn: 0
PreviewTime: 27695
Countdown: 1
SampleSet: Normal
StackLeniency: 0.7
Mode: 0
LetterboxInBreaks: 0
WidescreenStoryboard: 0

[Editor]
Bookmarks: 87289
DistanceSpacing: 1.2
BeatDivisor: 8
GridSize: 4
TimelineZoom: 3.299999

[Metadata]
Title:Remember When (Push Rewind)
TitleUnicode:Remember When (Push Rewind)
Artist:Chris Wallace
ArtistUnicode:Chris Wallace
Creator:- Sashiro -
Version:Do you remember?
Source:
Tags:nightcore
BeatmapID:1240220
BeatmapSetID:585481

[Difficulty]
HPDrainRate:6
CircleSize:4
OverallDifficulty:7
ApproachRate:9.5
SliderMultiplier:1.4
SliderTickRate:3

[Events]
//Background and Video events
0,0,"background.jpg",0,0
//Break Periods
//Storyboard Layer 0 (Background)
//Storyboard Layer 1 (Fail)
//Storyboard Layer 2 (Pass)
//Storyboard Layer 3 (Foreground)
//Storyboard Sound Samples

[TimingPoints]
200,400.641025641026,4,1,0,100,1,0
27693,-66.6666666666667,4,1,0,100,0,0
28695,-66.6666666666667,4,1,0,100,0,1
31499,-66.6666666666667,4,1,0,100,0,1
35005,-66.6666666666667,4,1,0,100,0,1
37710,-200,4,1,0,100,0,0
38210,-66.6666666666667,4,1,0,100,0,0
47926,-66.6666666666667,4,1,0,100,0,0
76672,-200,4,1,0,100,0,0
76872,-66.6666666666667,4,1,0,100,0,0
80678,-200,4,1,0,100,0,1
81079,-66.6666666666667,4,1,0,100,0,1
90594,-200,4,1,0,100,0,0
90995,-66.6666666666667,4,1,0,100,0,0
93098,-66.6666666666667,4,1,0,100,0,0
112329,-30,4,1,0,100,0,0
114132,-66.6666666666667,4,1,0,100,0,0
131860,-66.6666666666667,4,1,0,100,0,1
141876,-200,4,1,0,100,0,0
142277,-66.6666666666667,4,1,0,100,0,0
144781,-66.6666666666667,4,1,0,100,0,0
158403,-300,4,1,0,50,0,0
158903,-300,4,1,0,25,0,0
159604,-300.666666666667,4,1,0,0,0,0

[Colours]
Combo1 : 26,116,242
Combo2 : 164,32,240
Combo3 : 37,185,239
Combo4 : 23,209,116
Combo5 : 226,45,124

[HitObjects]
256,192,249,12,0,3054,0:0:0:0:
88,184,3254,6,0,L|152:184,2,35
164,76,3655,5,0,0:0:0:0:
288,140,3855,2,0,L|372:136,2,70
124,72,4456,2,0,L|168:72,6,35
116,84,5257,2,0,P|204:48|236:120,1,175
296,288,6259,5,0,0:0:0:0:
380,224,6459,1,0,0:0:0:0:
280,204,6660,1,0,0:0:0:0:
320,300,6860,1,0,0:0:0:0:
296,288,6960,2,0,L|296:248,5,35
352,216,7561,1,0,0:0:0:0:
388,264,7762,2,0,P|304:260|240:160,1,210
136,124,8863,5,0,0:0:0:0:
228,60,9064,1,0,0:0:0:0:
232,136,9264,1,0,0:0:0:0:
136,56,9464,1,0,0:0:0:0:
136,140,9665,1,0,0:0:0:0:
212,128,9865,5,0,0:0:0:0:
268,88,10065,2,0,L|304:88,3,35
212,128,10766,5,0,0:0:0:0:
268,88,10967,2,0,L|304:88,3,35
124,104,11467,1,0,0:0:0:0:
216,200,11668,1,0,0:0:0:0:
80,256,11868,1,0,0:0:0:0:
88,184,12068,2,0,P|160:96|264:104,1,210
428,56,12870,5,0,0:0:0:0:
408,60,12970,1,0,0:0:0:0:
392,64,13070,1,0,0:0:0:0:
192,116,13370,2,0,L|232:116,4,35
288,120,13971,1,0,0:0:0:0:
288,120,14072,1,0,0:0:0:0:
208,192,14272,2,0,L|396:192,1,175
256,192,14973,12,0,15874,0:0:0:0:
136,120,16275,5,0,0:0:0:0:
136,120,16375,1,0,0:0:0:0:
136,120,16475,1,0,0:0:0:0:
136,120,16576,1,0,0:0:0:0:
136,120,16676,1,0,0:0:0:0:
136,120,16776,1,0,0:0:0:0:
136,120,16876,1,0,0:0:0:0:
136,120,16976,1,0,0:0:0:0:
136,120,17076,1,0,0:0:0:0:
136,120,17177,1,0,0:0:0:0:
152,40,17377,2,0,P|168:84|196:52,1,105
272,156,17878,5,0,0:0:0:0:
272,156,17978,1,0,0:0:0:0:
272,156,18078,1,0,0:0:0:0:
272,156,18178,1,0,0:0:0:0:
272,156,18278,1,0,0:0:0:0:
272,156,18378,1,0,0:0:0:0:
272,156,18479,1,0,0:0:0:0:
272,156,18579,1,0,0:0:0:0:
272,156,18679,1,0,0:0:0:0:
276,160,18779,1,0,0:0:0:0:
263,247,18979,2,0,P|273:204|307:232,1,105
340,92,19681,5,0,0:0:0:0:
200,168,19881,1,0,0:0:0:0:
324,180,20081,1,0,0:0:0:0:
260,96,20282,1,0,0:0:0:0:
256,240,20482,1,0,0:0:0:0:
164,128,20682,1,0,0:0:0:0:
136,96,20782,1,0,0:0:0:0:
136,64,20882,2,0,L|184:64,3,35
252,60,21283,1,0,0:0:0:0:
252,60,21383,1,0,0:0:0:0:
200,148,21483,2,0,P|285:148|264:112,1,157.500006008148
376,264,22585,5,0,0:0:0:0:
376,264,22685,1,0,0:0:0:0:
376,264,22786,1,0,0:0:0:0:
376,264,22886,1,0,0:0:0:0:
376,264,22986,1,0,0:0:0:0:
376,264,23086,1,0,0:0:0:0:
376,264,23186,1,0,0:0:0:0:
376,264,23286,1,0,0:0:0:0:
376,264,23386,1,0,0:0:0:0:
376,264,23487,1,0,0:0:0:0:
360,344,23687,2,0,P|344:300|316:332,1,105
200,168,24288,5,0,0:0:0:0:
324,180,24488,1,0,0:0:0:0:
260,96,24689,1,0,0:0:0:0:
256,240,24889,1,0,0:0:0:0:
80,128,25089,1,0,0:0:0:0:
108,96,25189,1,0,0:0:0:0:
136,64,25290,2,0,L|184:64,3,35
252,60,25690,1,0,0:0:0:0:
252,60,25790,1,0,0:0:0:0:
312,168,26091,5,0,0:0:0:0:
188,180,26291,1,0,0:0:0:0:
252,96,26491,1,0,0:0:0:0:
256,240,26692,1,0,0:0:0:0:
384,144,26892,1,0,0:0:0:0:
392,108,26992,1,0,0:0:0:0:
376,64,27092,2,0,L|328:64,3,35
260,60,27493,1,0,0:0:0:0:
260,60,27593,1,0,0:0:0:0:
312,148,27693,2,0,P|240:144|280:176,1,157.500006008148
224,152,28695,6,0,L|276:152,8,52.5000020027161
336,152,29596,2,0,L|444:156,1,105.000004005432
432,232,29897,1,0,0:0:0:0:
432,232,29997,1,0,0:0:0:0:
432,232,30097,1,0,0:0:0:0:
264,152,30197,1,0,0:0:0:0:
176,116,30498,5,0,0:0:0:0:
268,96,30698,1,0,0:0:0:0:
112,160,30898,1,0,0:0:0:0:
156,220,31099,1,0,0:0:0:0:
224,236,31299,1,0,0:0:0:0:
280,192,31499,1,0,0:0:0:0:
384,104,32100,5,0,0:0:0:0:
312,68,32301,1,0,0:0:0:0:
240,48,32501,1,0,0:0:0:0:
384,104,32701,1,0,0:0:0:0:
372,168,32902,1,0,0:0:0:0:
324,216,33102,1,0,0:0:0:0:
312,68,33302,1,0,0:0:0:0:
240,48,33503,1,0,0:0:0:0:
160,152,33703,1,0,0:0:0:0:
172,192,33803,2,0,L|244:192,2,52.5000020027161
88,80,34504,5,0,0:0:0:0:
88,172,34705,1,0,0:0:0:0:
280,184,34905,1,0,0:0:0:0:
288,232,35005,6,0,L|236:232,8,52.5000020027161
176,232,35907,2,0,L|68:228,1,105.000004005432
80,152,36207,1,0,0:0:0:0:
148,156,36307,1,0,0:0:0:0:
148,156,36407,1,0,0:0:0:0:
336,232,36507,5,0,0:0:0:0:
200,156,36708,1,0,0:0:0:0:
344,108,36908,1,0,0:0:0:0:
196,232,37108,1,0,0:0:0:0:
320,40,37309,1,0,0:0:0:0:
104,120,37509,1,0,0:0:0:0:
216,144,37710,2,0,P|216:92|236:80,1,70
320,192,38310,5,0,0:0:0:0:
376,172,38511,1,0,0:0:0:0:
336,112,38711,1,0,0:0:0:0:
164,112,38911,1,0,0:0:0:0:
228,168,39112,1,0,0:0:0:0:
164,232,39312,1,0,0:0:0:0:
252,240,39512,1,0,0:0:0:0:
328,232,39713,1,0,0:0:0:0:
348,176,39913,1,0,0:0:0:0:
192,112,40113,2,0,L|252:116,4,52.5000020027161
308,120,40714,5,0,0:0:0:0:
344,56,40915,1,0,0:0:0:0:
272,172,41115,1,0,0:0:0:0:
248,216,41315,1,0,0:0:0:0:
112,104,41515,2,0,L|176:104,3,52.5000020027161
176,180,42016,5,0,0:0:0:0:
264,164,42217,1,0,0:0:0:0:
160,80,42417,2,0,L|228:72,2,52.5000020027161
196,176,42918,1,0,0:0:0:0:
204,172,43018,1,0,0:0:0:0:
208,168,43118,1,0,0:0:0:0:
140,108,43318,5,0,0:0:0:0:
184,44,43519,1,0,0:0:0:0:
252,64,43719,1,0,0:0:0:0:
304,140,43919,2,0,L|360:144,3,52.5000020027161
148,128,44721,5,0,0:0:0:0:
200,88,44921,1,0,0:0:0:0:
264,104,45121,1,0,0:0:0:0:
268,176,45322,1,0,0:0:0:0:
212,208,45522,1,0,0:0:0:0:
88,188,45722,2,0,P|75:69|156:120,1,262.500010013581
208,88,46423,2,0,L|284:88,4,52.5000020027161
172,156,47125,5,0,0:0:0:0:
296,232,47325,1,0,0:0:0:0:
296,128,47525,1,0,0:0:0:0:
200,232,47726,1,0,0:0:0:0:
288,232,47926,6,0,L|236:232,8,52.5000020027161
176,232,48827,2,0,L|68:228,1,105.000004005432
80,152,49128,1,0,0:0:0:0:
148,156,49228,1,0,0:0:0:0:
148,156,49328,1,0,0:0:0:0:
288,232,49528,6,0,L|236:232,7,52.5000020027161
176,232,50330,2,0,L|68:228,1,105.000004005432
100,136,50730,1,0,0:0:0:0:
100,136,50830,1,0,0:0:0:0:
100,136,50931,1,0,0:0:0:0:
256,192,51131,12,0,53134,0:0:0:0:
164,184,53334,5,0,0:0:0:0:
164,184,53435,1,0,0:0:0:0:
168,180,53535,1,0,0:0:0:0:
232,200,53735,1,0,0:0:0:0:
280,144,53935,1,0,0:0:0:0:
88,96,54136,2,0,P|196:91|168:36,1,210.000008010865
56,64,55137,5,0,0:0:0:0:
72,144,55338,1,0,0:0:0:0:
124,212,55538,1,0,0:0:0:0:
208,248,55738,1,0,0:0:0:0:
292,228,55939,1,0,0:0:0:0:
296,48,56139,5,0,0:0:0:0:
208,68,56339,1,0,0:0:0:0:
136,124,56540,1,0,0:0:0:0:
100,204,56740,1,0,0:0:0:0:
132,284,56940,1,0,0:0:0:0:
308,272,57140,5,0,0:0:0:0:
204,240,57341,1,0,0:0:0:0:
312,180,57541,1,0,0:0:0:0:
192,136,57741,1,0,0:0:0:0:
348,68,57942,1,0,0:0:0:0:
72,252,58142,1,0,0:0:0:0:
428,284,58342,1,0,0:0:0:0:
96,52,58543,1,0,0:0:0:0:
400,160,58743,1,0,0:0:0:0:
128,152,58943,1,0,0:0:0:0:
232,224,59144,5,0,0:0:0:0:
332,108,59344,1,0,0:0:0:0:
180,112,59544,1,0,0:0:0:0:
428,80,59745,1,0,0:0:0:0:
400,268,59945,1,0,0:0:0:0:
144,192,60145,1,0,0:0:0:0:
344,144,60346,1,0,0:0:0:0:
272,316,60546,5,0,0:0:0:0:
208,264,60746,2,0,L|176:220,2,52.5000020027161
112,92,61147,2,0,B|224:88|328:120|352:184|352:256,1,315.000012016297
400,288,61948,5,0,0:0:0:0:
104,108,62149,1,0,0:0:0:0:
392,56,62349,1,0,0:0:0:0:
196,220,62549,2,0,B|196:244|196:244|164:264,6,52.5000020027161
192,252,63551,1,0,0:0:0:0:
120,176,63752,1,0,0:0:0:0:
236,152,63952,1,0,0:0:0:0:
356,136,64152,1,0,0:0:0:0:
124,100,64353,2,0,L|184:96,4,52.5000020027161
296,76,64954,1,0,0:0:0:0:
396,104,65154,1,0,0:0:0:0:
200,96,65554,5,0,0:0:0:0:
296,128,65754,1,0,0:0:0:0:
204,176,65954,1,0,0:0:0:0:
296,256,66155,1,0,0:0:0:0:
412,212,66355,1,0,0:0:0:0:
128,112,66555,1,0,0:0:0:0:
264,72,66756,1,0,0:0:0:0:
352,92,66956,1,0,0:0:0:0:
236,168,67156,1,0,0:0:0:0:
68,120,67357,2,0,B|104:68|112:136|120:124,2,52.5000020027161
180,168,67958,5,0,0:0:0:0:
224,88,68158,1,0,0:0:0:0:
348,180,68358,1,0,0:0:0:0:
268,228,68559,1,0,0:0:0:0:
116,216,68759,1,0,0:0:0:0:
360,104,69060,5,0,0:0:0:0:
360,104,69160,1,0,0:0:0:0:
360,104,69261,1,0,0:0:0:0:
360,104,69361,1,0,0:0:0:0:
360,104,69461,1,0,0:0:0:0:
360,104,69561,1,0,0:0:0:0:
360,104,69661,1,0,0:0:0:0:
360,104,69761,1,0,0:0:0:0:
360,104,69862,1,0,0:0:0:0:
360,104,69962,1,0,0:0:0:0:
375,24,70161,2,0,P|385:66|419:38,1,105
112,308,70662,5,0,0:0:0:0:
112,308,70762,1,0,0:0:0:0:
112,308,70862,1,0,0:0:0:0:
112,308,70962,1,0,0:0:0:0:
112,308,71062,1,0,0:0:0:0:
112,308,71163,1,0,0:0:0:0:
112,308,71263,1,0,0:0:0:0:
112,308,71363,1,0,0:0:0:0:
112,308,71463,1,0,0:0:0:0:
112,308,71563,1,0,0:0:0:0:
128,228,71764,2,0,P|144:272|172:240,1,105
176,140,72365,5,0,0:0:0:0:
384,168,72566,1,0,0:0:0:0:
240,264,72766,1,0,0:0:0:0:
300,72,72966,1,0,0:0:0:0:
136,132,73167,1,0,0:0:0:0:
372,232,73367,1,0,0:0:0:0:
116,252,73567,1,0,0:0:0:0:
356,104,73768,1,0,0:0:0:0:
220,144,73968,1,0,0:0:0:0:
220,144,74068,1,0,0:0:0:0:
56,60,74268,1,0,0:0:0:0:
384,188,74469,1,0,0:0:0:0:
176,60,74669,2,0,L|240:56,2,52.5000020027161
224,148,75370,5,0,0:0:0:0:
224,148,75471,1,0,0:0:0:0:
224,148,75571,1,0,0:0:0:0:
224,148,75671,1,0,0:0:0:0:
224,148,75771,1,0,0:0:0:0:
224,148,75871,1,0,0:0:0:0:
224,148,75971,1,0,0:0:0:0:
224,148,76072,1,0,0:0:0:0:
224,148,76172,1,0,0:0:0:0:
224,148,76272,1,0,0:0:0:0:
240,68,76372,2,0,P|256:112|284:80,1,105
340,96,76672,2,0,L|384:104,1,35
392,196,76972,5,0,0:0:0:0:
128,272,77172,1,0,0:0:0:0:
368,64,77373,1,0,0:0:0:0:
104,72,77573,1,0,0:0:0:0:
408,264,77773,1,0,0:0:0:0:
104,80,77974,1,0,0:0:0:0:
184,184,78174,2,0,L|240:176,2,52.5000020027161
112,268,78775,5,0,0:0:0:0:
392,84,78975,1,0,0:0:0:0:
108,272,79176,1,0,0:0:0:0:
124,64,79376,1,0,0:0:0:0:
376,268,79576,1,0,0:0:0:0:
128,120,79777,1,0,0:0:0:0:
160,156,79877,2,0,L|216:156,2,52.5000020027161
176,84,80278,5,0,0:0:0:0:
324,84,80478,1,0,0:0:0:0:
200,224,80678,2,0,P|224:248|264:248,1,70
224,152,81279,6,0,L|276:152,8,52.5000020027161
336,152,82181,2,0,L|444:156,1,105.000004005432
432,232,82481,1,0,0:0:0:0:
432,232,82581,1,0,0:0:0:0:
432,232,82681,1,0,0:0:0:0:
144,80,83182,5,0,0:0:0:0:
320,272,83382,1,0,0:0:0:0:
360,68,83582,1,0,0:0:0:0:
156,264,83783,1,0,0:0:0:0:
208,68,83983,1,0,0:0:0:0:
248,72,84083,2,0,L|252:128,2,52.5000020027161
212,152,84785,5,0,0:0:0:0:
296,232,84986,1,0,0:0:0:0:
212,228,85186,1,0,0:0:0:0:
332,96,85386,1,0,0:0:0:0:
348,288,85587,1,0,0:0:0:0:
160,96,85787,1,0,0:0:0:0:
152,268,85987,1,0,0:0:0:0:
256,212,86187,1,0,0:0:0:0:
288,208,86287,2,0,L|336:168,6,61.2500005841255
136,192,87289,6,0,L|136:136,1,52.5000020027161
192,132,87489,2,0,L|192:208,1,52.5000020027161
244,192,87690,2,0,L|244:124,1,52.5000020027161
212,208,87890,2,0,L|284:208,4,65.6250025033952
140,304,88491,2,0,L|140:220,1,52.5000020027161
188,252,88692,2,0,L|188:316,1,52.5000020027161
252,304,88892,2,0,P|292:276|228:208,1,157.500006008148
336,232,89392,5,0,0:0:0:0:
200,156,89593,1,0,0:0:0:0:
344,108,89793,1,0,0:0:0:0:
196,232,89993,1,0,0:0:0:0:
320,40,90194,1,0,0:0:0:0:
104,120,90394,1,0,0:0:0:0:
216,144,90594,2,0,P|216:92|236:80,1,70
232,188,91295,6,0,L|288:156,1,52.5000020027161
284,160,91495,2,0,L|340:128,1,52.5000020027161
368,124,91696,2,0,L|368:176,1,52.5000020027161
364,224,91896,2,0,L|324:260,1,52.5000020027161
288,264,92096,2,0,L|252:216,1,52.5000020027161
228,200,92297,2,0,L|180:244,1,52.5000020027161
140,244,92497,2,0,L|140:188,6,52.5000020027161
224,144,93298,6,0,L|284:140,5,52.5000020027161
64,104,94100,2,0,L|136:104,2,65.6250025033952
212,220,94500,2,0,L|140:232,1,52.5000020027161
312,136,94701,1,0,0:0:0:0:
48,248,94901,2,0,L|84:204,1,52.5000020027161
112,196,95101,2,0,L|162:198,3,26.2500010013581
40,188,95602,5,0,0:0:0:0:
80,124,95802,1,0,0:0:0:0:
136,84,96003,1,0,0:0:0:0:
204,80,96203,1,0,0:0:0:0:
268,88,96403,1,0,0:0:0:0:
380,224,96604,1,0,0:0:0:0:
320,272,96804,2,0,P|276:277|272:272,5,52.5000020027161
192,144,97605,5,0,0:0:0:0:
320,244,97805,1,0,0:0:0:0:
280,56,98006,1,0,0:0:0:0:
176,108,98206,1,0,0:0:0:0:
164,148,98306,2,0,P|242:147|232:216,2,157.500006008148
144,168,99007,2,0,L|148:220,5,52.5000020027161
272,72,99608,1,0,0:0:0:0:
360,48,99809,6,0,L|408:84,1,52.5000020027161
380,120,100009,2,0,L|328:80,1,52.5000020027161
308,116,100209,2,0,L|352:156,1,52.5000020027161
320,184,100410,2,0,L|272:136,1,52.5000020027161
112,148,100810,2,0,L|152:108,6,52.5000020027161
228,128,101611,2,0,L|272:176,3,52.5000020027161
112,88,102313,6,0,L|148:40,1,52.5000020027161
184,68,102514,2,0,L|144:120,1,52.5000020027161
180,140,102714,2,0,L|220:96,1,52.5000020027161
248,128,102914,2,0,L|200:176,1,52.5000020027161
288,248,103115,2,0,L|404:208,1,105.000004005432
136,152,103515,5,0,0:0:0:0:
144,136,103616,1,0,0:0:0:0:
160,124,103716,1,0,0:0:0:0:
192,116,103816,6,0,L|252:116,2,52.5000020027161
276,116,104116,5,0,0:0:0:0:
304,116,104216,1,0,0:0:0:0:
324,132,104317,1,0,0:0:0:0:
348,156,104417,1,0,0:0:0:0:
356,180,104517,1,0,0:0:0:0:
360,200,104617,1,0,0:0:0:0:
360,220,104717,1,0,0:0:0:0:
356,236,104817,1,0,0:0:0:0:
344,252,104918,1,0,0:0:0:0:
332,264,105018,1,0,0:0:0:0:
316,276,105118,1,0,0:0:0:0:
296,280,105218,1,0,0:0:0:0:
272,280,105318,1,0,0:0:0:0:
244,276,105418,1,0,0:0:0:0:
220,260,105519,1,0,0:0:0:0:
200,232,105619,1,0,0:0:0:0:
188,192,105719,1,0,0:0:0:0:
296,120,106019,5,0,0:0:0:0:
112,192,106220,1,0,0:0:0:0:
288,224,106420,1,0,0:0:0:0:
136,60,106620,1,0,0:0:0:0:
220,184,106821,1,0,0:0:0:0:
84,192,107021,2,0,P|244:36|396:168,1,420.000016021729
200,184,108122,5,0,0:0:0:0:
192,184,108222,1,0,0:0:0:0:
312,180,108422,1,0,0:0:0:0:
328,104,108622,1,0,0:0:0:0:
156,84,108823,1,0,0:0:0:0:
156,208,109023,2,0,L|208:204,3,52.5000020027161
312,280,109825,1,0,0:0:0:0:
384,196,110025,1,0,0:0:0:0:
332,116,110226,1,0,0:0:0:0:
224,96,110426,1,0,0:0:0:0:
104,116,110626,1,0,0:0:0:0:
112,208,110827,1,0,0:0:0:0:
120,212,110927,1,0,0:0:0:0:
176,208,111027,2,0,L|228:204,3,52.5000020027161
160,124,111528,6,0,L|160:68,1,52.5000020027161
212,68,111728,2,0,L|212:132,1,52.5000020027161
276,120,111928,2,0,L|276:52,1,52.5000020027161
328,56,112128,2,0,L|328:116,1,52.5000020027161
368,156,112329,6,0,L|304:192,1,58.3333333333333
192,232,112830,2,0,L|136:180,1,58.3333333333333
336,64,113230,2,0,L|388:132,1,58.3333333333333
192,64,113631,2,0,L|120:108,1,58.3333333333333
160,244,113931,2,0,L|216:200,3,58.3333333333333
108,80,114632,5,0,0:0:0:0:
192,120,114832,1,0,0:0:0:0:
272,116,115032,1,0,0:0:0:0:
352,112,115233,1,0,0:0:0:0:
424,156,115433,1,0,0:0:0:0:
320,212,115634,2,0,L|256:220,1,52.5000020027161
224,184,116034,1,0,0:0:0:0:
208,164,116135,1,0,0:0:0:0:
192,148,116235,1,0,0:0:0:0:
236,100,116335,2,0,B|288:68|336:92|320:160|360:188,2,157.500006008148
164,116,117136,1,0,0:0:0:0:
240,84,117337,6,0,L|308:84,2,52.5000020027161
168,204,117737,6,0,L|204:248,2,52.5000020027161
240,84,118138,6,0,L|308:84,2,52.5000020027161
240,84,118539,6,0,L|308:84,2,52.5000020027161
104,144,118939,2,0,L|164:144,10,52.5000020027161
40,80,120442,5,0,0:0:0:0:
48,80,120542,1,0,0:0:0:0:
56,80,120642,1,0,0:0:0:0:
64,80,120743,1,0,0:0:0:0:
72,80,120843,1,0,0:0:0:0:
80,80,120943,1,0,0:0:0:0:
88,80,121043,1,0,0:0:0:0:
96,80,121143,1,0,0:0:0:0:
104,80,121243,1,0,0:0:0:0:
116,80,121344,1,0,0:0:0:0:
128,144,121544,2,0,P|144:188|172:156,1,105.000004005432
472,48,122044,5,0,0:0:0:0:
464,48,122144,1,0,0:0:0:0:
456,48,122244,1,0,0:0:0:0:
448,48,122345,1,0,0:0:0:0:
440,48,122445,1,0,0:0:0:0:
432,48,122545,1,0,0:0:0:0:
424,48,122645,1,0,0:0:0:0:
416,48,122745,1,0,0:0:0:0:
408,48,122845,1,0,0:0:0:0:
396,48,122946,1,0,0:0:0:0:
384,112,123146,2,0,P|368:156|340:124,1,105.000004005432
260,136,123847,5,0,0:0:0:0:
136,264,124047,1,0,0:0:0:0:
412,44,124248,1,0,0:0:0:0:
72,56,124448,1,0,0:0:0:0:
424,292,124648,1,0,0:0:0:0:
256,28,124849,1,0,0:0:0:0:
148,312,125049,1,0,0:0:0:0:
268,148,125249,1,0,0:0:0:0:
280,124,125350,1,0,0:0:0:0:
296,104,125450,1,0,0:0:0:0:
152,80,125650,1,0,0:0:0:0:
408,260,125850,1,0,0:0:0:0:
256,164,126051,1,0,0:0:0:0:
256,172,126151,1,0,0:0:0:0:
256,180,126251,1,0,0:0:0:0:
256,188,126351,1,0,0:0:0:0:
40,80,126952,5,0,0:0:0:0:
48,80,127052,1,0,0:0:0:0:
56,80,127152,1,0,0:0:0:0:
64,80,127253,1,0,0:0:0:0:
72,80,127353,1,0,0:0:0:0:
80,80,127453,1,0,0:0:0:0:
88,80,127553,1,0,0:0:0:0:
96,80,127653,1,0,0:0:0:0:
104,80,127753,1,0,0:0:0:0:
116,80,127854,1,0,0:0:0:0:
128,144,128054,2,0,P|144:188|172:156,1,105.000004005432
168,244,128555,5,0,0:0:0:0:
180,240,128655,1,0,0:0:0:0:
364,72,128855,1,0,0:0:0:0:
88,48,129055,1,0,0:0:0:0:
376,232,129256,1,0,0:0:0:0:
144,240,129456,1,0,0:0:0:0:
196,132,129556,2,0,L|252:120,2,52.5000020027161
392,116,130057,5,0,0:0:0:0:
96,64,130257,1,0,0:0:0:0:
208,240,130458,1,0,0:0:0:0:
368,160,130658,6,0,L|316:192,2,52.5000020027161
184,232,131159,2,0,L|144:188,2,52.5000020027161
336,64,131560,2,0,L|372:108,2,52.5000020027161
284,60,131860,5,0,0:0:0:0:
172,156,132060,5,0,0:0:0:0:
296,232,132261,1,0,0:0:0:0:
296,128,132461,1,0,0:0:0:0:
200,232,132661,1,0,0:0:0:0:
288,232,132862,6,0,L|236:232,8,52.5000020027161
176,232,133763,2,0,L|68:228,1,105.000004005432
80,152,134064,1,0,0:0:0:0:
148,156,134164,1,0,0:0:0:0:
148,156,134264,1,0,0:0:0:0:
156,156,134364,1,0,0:0:0:0:
176,116,134665,5,0,0:0:0:0:
268,96,134865,1,0,0:0:0:0:
112,160,135065,1,0,0:0:0:0:
156,220,135266,1,0,0:0:0:0:
224,236,135466,1,0,0:0:0:0:
280,192,135666,1,0,0:0:0:0:
384,104,136267,5,0,0:0:0:0:
312,68,136467,1,0,0:0:0:0:
240,48,136668,1,0,0:0:0:0:
384,104,136868,1,0,0:0:0:0:
372,168,137068,1,0,0:0:0:0:
324,216,137269,1,0,0:0:0:0:
312,68,137469,1,0,0:0:0:0:
240,48,137669,1,0,0:0:0:0:
164,116,137870,1,0,0:0:0:0:
172,192,138070,2,0,L|244:192,2,52.5000020027161
88,80,138571,5,0,0:0:0:0:
88,172,138771,1,0,0:0:0:0:
168,148,138972,1,0,0:0:0:0:
288,232,139172,6,0,L|236:232,8,52.5000020027161
176,232,140074,2,0,L|68:228,1,105.000004005432
80,152,140374,1,0,0:0:0:0:
148,156,140474,1,0,0:0:0:0:
148,156,140574,1,0,0:0:0:0:
336,232,140674,5,0,0:0:0:0:
200,156,140875,1,0,0:0:0:0:
344,108,141075,1,0,0:0:0:0:
196,232,141275,1,0,0:0:0:0:
320,40,141476,1,0,0:0:0:0:
104,120,141676,1,0,0:0:0:0:
216,144,141876,2,0,P|216:92|236:80,1,70
320,192,142677,5,0,0:0:0:0:
376,172,142878,1,0,0:0:0:0:
336,112,143078,1,0,0:0:0:0:
164,112,143278,1,0,0:0:0:0:
228,168,143479,1,0,0:0:0:0:
164,232,143679,1,0,0:0:0:0:
252,240,143879,1,0,0:0:0:0:
328,232,144080,1,0,0:0:0:0:
160,104,144280,1,0,0:0:0:0:
192,112,144380,2,0,L|252:116,4,52.5000020027161
308,120,145081,5,0,0:0:0:0:
344,56,145282,1,0,0:0:0:0:
272,172,145482,1,0,0:0:0:0:
112,132,145682,1,0,0:0:0:0:
112,104,145782,2,0,L|176:104,3,52.5000020027161
176,180,146283,5,0,0:0:0:0:
264,164,146484,1,0,0:0:0:0:
160,80,146684,2,0,L|228:72,2,52.5000020027161
196,176,147185,1,0,0:0:0:0:
204,172,147285,1,0,0:0:0:0:
208,168,147385,1,0,0:0:0:0:
224,156,147485,1,0,0:0:0:0:
140,108,147685,5,0,0:0:0:0:
184,44,147886,1,0,0:0:0:0:
252,64,148086,1,0,0:0:0:0:
304,140,148186,2,0,L|360:144,3,52.5000020027161
148,128,148887,5,0,0:0:0:0:
200,88,149087,1,0,0:0:0:0:
264,104,149288,1,0,0:0:0:0:
268,176,149488,1,0,0:0:0:0:
212,208,149688,1,0,0:0:0:0:
88,188,149989,2,0,P|75:69|156:120,1,262.500010013581
208,88,150690,2,0,L|284:88,4,52.5000020027161
172,156,151491,5,0,0:0:0:0:
144,252,151692,1,0,0:0:0:0:
296,128,151892,1,0,0:0:0:0:
328,232,152092,1,0,0:0:0:0:
288,224,152193,6,0,L|236:224,8,52.5000020027161
176,232,153094,2,0,L|68:228,1,105.000004005432
80,152,153395,1,0,0:0:0:0:
148,156,153495,1,0,0:0:0:0:
148,156,153595,1,0,0:0:0:0:
288,232,153795,6,0,L|236:232,7,52.5000020027161
176,232,154597,2,0,L|68:228,1,105.000004005432
100,136,154997,1,0,0:0:0:0:
100,136,155097,1,0,0:0:0:0:
100,136,155198,1,0,0:0:0:0:
256,192,155398,12,0,157401,0:0:0:0:
136,164,157701,5,0,0:0:0:0:
184,104,157902,1,0,0:0:0:0:
248,64,158102,1,0,0:0:0:0:
320,64,158302,1,0,0:0:0:0:
356,112,158403,2,0,P|342:142|236:144,1,151.666666666667
256,192,159805,12,0,162810,0:0:0:0:
