osu file format v14

[General]
AudioFilename: AdVenture Capitalist-Theme Song.mp3
AudioLeadIn: 0
PreviewTime: 1396
Countdown: 1
SampleSet: Normal
StackLeniency: 0.5
Mode: 0
LetterboxInBreaks: 0
WidescreenStoryboard: 1

[Editor]
Bookmarks: 27341,40314,53287,66252,78606
DistanceSpacing: 0.8
BeatDivisor: 4
GridSize: 8
TimelineZoom: 1

[Metadata]
Title:Adventure Capitalist Theme
TitleUnicode:Adventure Capitalist Theme
Artist:Chris Hendricks
ArtistUnicode:Chris Hendricks
Creator:hiandbye
Version:Hard
Source:Adventure Capitalist
Tags:
BeatmapID:778108
BeatmapSetID:353164

[Difficulty]
HPDrainRate:5
CircleSize:4
OverallDifficulty:5
ApproachRate:8
SliderMultiplier:2.5
SliderTickRate:2

[Events]
//Background and Video events
0,0,"4255212.jpg",0,0
//Break Periods
2,35649,39546
2,51847,52518
//Storyboard Layer 0 (Background)
//Storyboard Layer 1 (Fail)
//Storyboard Layer 2 (Pass)
//Storyboard Layer 3 (Foreground)
//Storyboard Sound Samples

[TimingPoints]
1396.2816679919,405.400000000001,4,1,0,100,1,0
27341,-133.333333333333,4,1,0,100,0,0
33828,-133.333333333333,4,1,0,100,0,1
35247,-133.333333333333,4,1,0,100,0,0
35348,-133.333333333333,4,1,0,100,0,1
35349,-133.333333333333,4,1,0,100,0,0
40296,405.400000000001,4,1,0,100,1,0
52458,-133.333333333333,4,1,0,100,0,1
65430,-133.333333333333,4,1,0,100,0,0
66240,405.400000000001,4,1,0,100,1,0
77388,-133.333333333333,4,1,0,100,0,0
79195,405.400000000001,4,1,0,100,1,0

[Colours]
Combo1 : 255,0,128
Combo2 : 0,202,0
Combo3 : 18,124,255
Combo4 : 242,24,57
Combo5 : 253,216,6
Combo6 : 255,128,0

[HitObjects]
56,48,1396,5,0,0:0:0:0:
104,136,1598,1,0,0:0:0:0:
168,64,1801,2,0,P|232:110|242:190,1,125,8|8,0:0|0:0,0:0:0:0:
344,120,2207,1,0,0:0:0:0:
416,48,2409,1,8,0:0:0:0:
456,136,2815,5,0,0:0:0:0:
416,232,3017,2,0,P|373:286|318:300,1,125
320,200,3423,2,0,P|232:224|192:288,1,125,8|8,0:0|0:0,0:0:0:0:
192,344,3828,1,0,0:0:0:0:
48,320,4639,5,0,0:0:0:0:
104,232,4842,2,8,P|176:184|216:184,1,125
184,280,5247,1,0,0:0:0:0:
280,240,5450,1,0,0:0:0:0:
360,184,5652,1,8,0:0:0:0:
480,144,6058,5,8,0:0:0:0:
400,80,6261,1,0,0:0:0:0:
304,80,6463,2,0,P|265:153|238:165,2,62.5
208,48,6869,1,8,0:0:0:0:
112,88,7071,1,0,0:0:0:0:
64,112,7882,5,0,0:0:0:0:
112,200,8085,1,0,0:0:0:0:
200,248,8288,1,8,0:0:0:0:
296,248,8490,1,8,0:0:0:0:
376,192,8693,1,0,0:0:0:0:
440,120,8896,1,8,0:0:0:0:
304,96,9301,6,0,P|206:94|160:130,1,125
144,200,9706,2,0,P|200:280|256:296,1,125,0|8,0:0|0:0,0:0:0:0:
320,272,10112,2,0,P|367:186|357:129,1,125,8|0,0:0|0:0,0:0:0:0:
80,64,11125,6,0,P|88:152|160:152,1,125
184,96,11531,1,8,0:0:0:0:
256,168,11733,1,8,0:0:0:0:
304,80,11936,2,0,P|363:88|384:144,1,125
336,232,12342,1,8,0:0:0:0:
240,248,12544,1,8,0:0:0:0:
160,192,12747,1,4,0:0:0:0:
56,160,14369,6,0,B|48:104|56:24|56:32,2,125
136,96,14977,2,2,P|208:88|280:96,1,125
352,128,15382,1,8,0:0:0:0:
440,160,15787,6,0,B|448:104|440:24|440:32,2,125
344,144,16396,2,10,P|343:216|350:280,1,125
416,344,16801,1,0,0:0:0:0:
424,248,17409,6,2,L|472:208,2,62.5
336,304,17814,1,0,0:0:0:0:
272,224,18017,1,0,0:0:0:0:
168,224,18220,2,2,L|120:184,2,62.5
112,312,18625,1,8,0:0:0:0:
224,312,19031,5,0,0:0:0:0:
296,240,19233,2,0,P|344:184|392:152,1,125
432,64,19639,2,0,P|370:57|308:66,1,125,8|8,0:0|0:0,0:0:0:0:
240,136,20044,2,0,P|162:155|92:93,3,125,0|0|0|0,2:0|2:0|2:0|2:0,2:0:0:0:
176,64,20855,6,0,P|272:40|344:64,1,125,0|8,0:0|0:0,0:0:0:0:
392,80,21260,2,0,P|456:144|456:200,1,125,0|8,0:0|0:0,0:0:0:0:
360,176,21666,2,0,P|289:130|219:143,1,125,0|8,0:0|0:0,0:0:0:0:
272,224,22274,5,0,0:0:0:0:
368,192,22477,2,2,P|223:325|231:129,1,500
256,224,23895,5,0,0:0:0:0:
344,176,24098,2,8,P|272:120|200:152,1,125,0|8,0:0|0:0,0:0:0:0:
176,176,24504,1,8,0:0:0:0:
176,272,24706,1,8,0:0:0:0:
248,336,24909,2,0,P|328:320|360:288,1,125,0|8,0:0|0:0,0:0:0:0:
368,192,25314,1,8,0:0:0:0:
296,120,25517,1,8,0:0:0:0:
200,144,25720,1,4,0:0:0:0:
48,80,27341,6,0,P|133:182|194:158,1,187.500007152558,0|2,2:0|2:0,2:0:0:0:
245,47,28152,2,0,P|362:88|387:158,1,187.500007152558,0|2,2:0|2:0,2:0:0:0:
336,280,28963,1,0,2:0:0:0:
264,296,29166,2,0,L|251:351,2,46.8750017881394,0|0|0,2:0|2:0|2:0,2:0:0:0:
192,272,29571,1,0,2:0:0:0:
128,240,29774,1,0,2:0:0:0:
43,206,30585,38,2,P|63:142|127:120,1,140.625005364418,2|2,2:0|2:0,2:0:0:0:
160,144,30990,2,8,L|264:136,1,93.7500035762788,8|8,2:0|2:0,2:0:0:0:
296,72,31395,2,2,P|370:80|407:132,1,140.625005364418,2|2,2:0|2:0,2:0:0:0:
392,168,31801,2,8,L|390:264,1,93.7500035762788,8|8,2:0|2:0,2:0:0:0:
328,304,32206,1,4,2:0:0:0:
336,80,33828,102,14,B|250:92|240:32|240:32|238:92|128:80|136:192|248:192|248:192|392:192|360:312|256:296|248:352|248:352|232:296|136:320,1,750.000028610231,14|14,1:1|1:1,1:1:0:0:
208,128,40296,5,0,0:0:0:0:
288,64,40498,2,0,P|384:72|432:32,1,125,0|8,0:0|0:0,0:0:0:0:
432,152,40904,1,8,0:0:0:0:
416,248,41106,1,0,0:0:0:0:
320,272,41309,1,8,0:0:0:0:
280,144,41714,5,0,0:0:0:0:
184,120,41917,2,0,P|104:136|72:176,1,125
168,208,42323,2,8,L|200:272,2,62.5
96,280,42728,1,0,0:0:0:0:
80,184,43539,6,0,B|112:136|168:120|200:120,1,125
200,224,43944,1,8,0:0:0:0:
280,168,44147,2,0,L|312:96,2,62.5
376,176,44552,1,8,0:0:0:0:
440,64,44958,5,0,0:0:0:0:
344,56,45160,2,0,L|302:119,2,62.5
248,40,45566,1,8,0:0:0:0:
152,72,45768,1,2,0:0:0:0:
88,152,45971,1,4,0:0:0:0:
208,136,46782,5,0,0:0:0:0:
112,168,46985,2,0,P|112:271|128:281,1,125,0|8,0:0|0:0,0:0:0:0:
200,344,47390,1,0,0:0:0:0:
200,344,47491,1,0,0:0:0:0:
200,344,47593,1,0,0:0:0:0:
296,328,47795,1,8,0:0:0:0:
296,216,48201,5,0,0:0:0:0:
385,184,48404,2,8,B|448:170|468:97,1,125,0|8,0:0|0:0,0:0:0:0:
404,38,48809,2,2,B|340:51|314:129,1,125
296,216,49214,1,0,0:0:0:0:
192,48,50025,5,0,0:0:0:0:
288,80,50228,1,8,0:0:0:0:
368,128,50431,1,8,0:0:0:0:
368,232,50633,1,8,0:0:0:0:
312,312,50836,1,0,0:0:0:0:
216,336,51039,1,8,0:0:0:0:
80,192,51444,1,0,0:0:0:0:
80,192,51647,1,4,0:0:0:0:
40,232,53268,6,0,P|112:232|152:248,1,93.7500035762788,0|2,2:0|2:0,2:0:0:0:
112,312,53674,2,8,P|184:312|224:296,1,93.7500035762788,8|8,2:0|2:0,2:0:0:0:
208,232,54079,2,0,P|280:232|320:248,1,93.7500035762788,0|2,2:0|2:0,2:0:0:0:
272,312,54485,2,8,P|344:312|384:296,1,93.7500035762788,8|8,2:0|2:0,2:0:0:0:
384,232,54890,6,0,P|442:183|460:185,1,93.7500035762788,0|2,2:0|2:0,2:0:0:0:
408,120,55295,2,8,P|363:130|337:167,1,93.7500035762788,8|8,2:0|2:0,2:0:0:0:
272,128,55701,2,0,P|236:156|229:201,1,93.7500035762788,0|2,2:0|2:0,2:0:0:0:
152,200,56106,2,8,P|139:244|160:284,1,93.7500035762788,8|8,2:0|2:0,2:0:0:0:
224,248,56512,6,0,P|269:265|307:296,1,93.7500035762788,0|8,2:0|2:0,2:0:0:0:
224,248,56917,2,0,P|260:215|305:198,1,93.7500035762788,0|10,2:0|2:0,2:0:0:0:
224,248,57322,2,0,P|203:205|171:171,1,93.7500035762788,0|8,2:0|2:0,2:0:0:0:
224,248,57728,2,0,P|176:243|131:252,1,93.7500035762788,8|10,2:0|2:0,2:0:0:0:
72,304,58133,70,0,P|118:340|152:345,1,93.7500035762788,0|2,2:0|2:0,2:0:0:0:
224,336,58539,2,8,P|269:326|303:294,1,93.7500035762788,8|8,2:0|2:0,2:0:0:0:
312,216,58944,1,2,2:0:0:0:
256,168,59147,1,2,2:0:0:0:
288,96,59349,1,4,2:0:0:0:
360,64,59552,1,4,2:0:0:0:
408,120,59755,38,0,P|337:185|288:170,1,140.625005364418,2|0,0:0|0:0,0:0:0:0:
272,152,60160,2,8,L|168:144,1,93.7500035762788
152,72,60566,2,0,P|78:80|41:132,1,140.625005364418,2|0,0:0|0:0,0:0:0:0:
56,168,60971,2,8,L|58:264,1,93.7500035762788
120,320,61376,5,2,0:0:0:0:
192,288,61579,2,0,L|200:240,2,46.8750017881394
248,336,61984,1,8,0:0:0:0:
320,336,62187,5,2,0:0:0:0:
361,274,62390,2,0,L|342:231,2,46.8750017881394
439,289,62795,1,8,0:0:0:0:
456,216,62998,6,0,P|424:144|392:112,1,93.7500035762788
352,96,63403,1,10,0:0:0:0:
280,80,63606,1,0,0:0:0:0:
208,72,63809,2,0,P|138:91|102:121,1,93.7500035762788
80,168,64214,1,8,0:0:0:0:
48,232,64417,1,8,0:0:0:0:
256,192,64518,12,4,65430,0:0:0:0:
56,104,66241,5,0,0:0:0:0:
136,48,66442,2,0,P|192:40|272:64,1,125
328,128,66848,1,0,0:0:0:0:
416,312,67253,1,8,0:0:0:0:
216,328,67658,5,0,0:0:0:0:
128,288,67861,2,8,P|173:245|231:223,1,125
328,192,68267,1,0,0:0:0:0:
424,176,68469,1,8,0:0:0:0:
408,312,69483,6,0,P|328:232|304:216,1,125
224,184,69888,1,0,0:0:0:0:
288,112,70091,2,8,P|161:114|152:264,1,250
288,336,70902,5,0,0:0:0:0:
216,264,71104,2,0,P|264:225|325:212,1,125
384,296,71510,1,8,0:0:0:0:
440,208,71712,2,0,P|248:56|112:112,1,375,0|8,0:0|0:0,0:0:0:0:
144,184,72726,6,2,P|203:322|366:239,1,375
320,48,73739,1,8,0:0:0:0:
248,232,74145,5,8,0:0:0:0:
368,200,74348,2,2,P|308:61|145:144,1,375
264,152,75969,5,2,0:0:0:0:
56,128,76577,2,2,P|90:76|168:40,1,125
305,122,77388,22,0,B|251:130|245:92|245:92|244:130|176:122|181:192|250:192|250:192|339:192|320:265|256:256|250:290|250:290|240:256|181:270,1,468.750017881394,0|0,1:1|1:1,1:1:0:0:
80,72,79195,5,0,0:0:0:0:
176,184,79600,1,0,0:0:0:0:
280,80,80005,1,8,0:0:0:0:
432,64,80411,1,8,0:0:0:0:
328,168,80816,2,0,P|224:232|136:344,1,250,0|8,0:0|0:0,0:0:0:0:
80,304,81830,5,0,0:0:0:0:
120,240,82032,1,0,0:0:0:0:
184,200,82235,1,0,0:0:0:0:
256,192,82438,1,0,0:0:0:0:
408,200,82843,1,8,0:0:0:0:
336,64,83249,1,0,0:0:0:0:
184,56,83654,1,8,0:0:0:0:
96,176,84059,1,0,0:0:0:0:
184,192,85073,5,0,0:0:0:0:
256,192,85276,1,0,0:0:0:0:
328,192,85478,1,0,0:0:0:0:
304,120,85681,1,0,0:0:0:0:
224,248,86086,1,8,0:0:0:0:
112,144,86492,1,0,0:0:0:0:
256,104,86897,1,8,0:0:0:0:
400,56,87303,1,0,0:0:0:0:
416,208,87708,1,8,0:0:0:0:
296,120,88113,1,4,0:0:0:0:
88,216,88721,5,0,0:0:0:0:
120,288,88924,1,0,0:0:0:0:
192,288,89127,1,8,0:0:0:0:
256,240,89330,1,0,0:0:0:0:
328,240,89532,1,0,0:0:0:0:
288,176,89735,1,0,0:0:0:0:
216,176,89938,1,8,0:0:0:0:
256,112,90140,1,0,0:0:0:0:
328,112,90343,1,0,0:0:0:0:
384,64,90546,1,4,0:0:0:0:
