osu file format v14

[General]
AudioFilename: audio.mp3
AudioLeadIn: 0
PreviewTime: 67506
Countdown: 0
SampleSet: Soft
StackLeniency: 0.6
Mode: 0
LetterboxInBreaks: 1
WidescreenStoryboard: 0

[Editor]
Bookmarks: 18087,89589,102269,129046,175073,194794
DistanceSpacing: 2.9
BeatDivisor: 4
GridSize: 32
TimelineZoom: 2.4

[Metadata]
Title:Look At Me Now
TitleUnicode:Look At Me Now
Artist:Chris Brown Feat. Busta Rhymes & Lil Wayne
ArtistUnicode:Chris Brown Feat. Busta Rhymes & Lil Wayne
Creator:- Tatan -
Version:Speed Demon
Source:
Tags:rap Louis Cyphre Lucifer
BeatmapID:1703420
BeatmapSetID:812088

[Difficulty]
HPDrainRate:3
CircleSize:4.2
OverallDifficulty:8
ApproachRate:10
SliderMultiplier:3.59999990463257
SliderTickRate:1

[Events]
//Background and Video events
0,0,"444ae6707201bfd4775088011562b5ef6ea6ce30.jpg",0,0
//Break Periods
2,4777,11063
//Storyboard Layer 0 (Background)
//Storyboard Layer 1 (Fail)
//Storyboard Layer 2 (Pass)
//Storyboard Layer 3 (Foreground)
//Storyboard Sound Samples

[TimingPoints]
2061,410.958904109589,4,2,1,80,1,0
2061,-200,4,2,1,80,0,0
2369,-200,4,2,1,5,0,0
2471,-200,4,2,1,80,0,0
4013,-200,4,2,1,5,0,0
4115,-200,4,2,1,80,0,0
4578,-200,4,2,1,5,0,0
11513,-200,4,2,1,80,0,0
13362,-133.333333333333,4,2,1,80,0,0
13465,-200,4,2,1,80,0,0
13568,-333.333333333333,4,2,1,80,0,0
13978,-1000,4,2,1,80,0,0
14389,-399.999999999997,4,2,1,80,0,0
14801,-52.6315789473684,4,2,1,80,0,0
15109,-100,4,2,1,80,0,0
21376,-52.6315789473684,4,2,1,80,0,0
21787,-100,4,2,1,80,0,0
23020,-50,4,2,1,80,0,0
23431,-100,4,2,1,80,0,0
24664,-40,4,2,1,80,0,0
24972,-100,4,2,1,80,0,0
26308,-58.8235294117647,4,2,1,80,0,0
27540,-100,4,2,1,80,0,0
27951,-100,4,2,1,80,0,1
34526,-100,4,2,1,80,0,0
37814,-100,4,2,1,80,0,1
40897,-333.333333333333,4,2,1,80,0,0
41615,-100,4,2,1,80,0,0
46855,-200,4,2,1,80,0,0
47574,-100,4,2,1,80,0,0
64115,-83.3333333333333,4,2,1,80,0,0
64526,-71.4285714285714,4,2,1,80,0,0
65143,-71.4285714285714,4,2,1,80,0,1
65965,-1000,4,2,1,80,0,0

[Colours]
Combo1 : 0,128,128
Combo2 : 0,64,128
Combo3 : 128,128,192
Combo4 : 108,108,255

[HitObjects]
85,177,2061,6,0,P|155:212|243:184,1,134.999996423721
0,144,2471,2,0,P|-4:188|12:229,1,89.9999976158143
166,81,2882,1,0,0:0:0:0:
146,275,3499,5,0,0:0:0:0:
146,275,3704,2,0,L|308:285,1,134.999996423721
317,173,4115,2,0,L|227:178,1,89.9999976158143
395,225,4526,2,0,P|401:209|402:191,1,22.4999994039536
96,112,11513,6,0,L|112:248,1,89.9999976158143
88,104,12129,6,0,L|104:240,1,89.9999976158143
80,96,12746,6,0,L|96:232,1,89.9999976158143
136,256,13362,6,0,P|94:266|59:263,1,67.5000007867814
0,323,13568,2,0,P|44:344|81:347,1,80.9999953823091
158,351,13978,2,0,L|154:380,1,26.9999992847443
216,297,14390,6,0,P|260:286|281:289,1,67.4999982118607
352,352,14801,6,0,B|368:288|336:240|336:240|346:221|346:221|313:191|280:168|272:96|312:24|352:-8|416:8|480:48|480:88|456:136|424:160|376:192|320:144|288:112|264:88|240:48|216:40|128:48|48:80|97:193|176:200|215:162|176:96,1,854.999954519274
55,162,15417,6,0,P|47:117|56:74,1,89.9999976158143
101,244,15623,2,0,L|3:247,1,89.9999976158143
184,140,15828,2,0,L|282:143,1,89.9999976158143
276,305,16034,2,0,P|241:269|231:204,1,89.9999976158143
370,152,16239,2,0,P|355:194|323:225,1,89.9999976158143
379,57,16445,6,0,P|421:71|452:103,1,89.9999976158143
273,142,16650,2,0,L|269:22,1,89.9999976158143
370,152,16855,2,0,L|367:241,1,89.9999976158143
287,279,17061,5,0,0:0:0:0:
371,333,17164,1,0,0:0:0:0:
272,367,17266,2,0,P|214:354|82:379,1,179.999995231629
0,336,17575,1,0,0:0:0:0:
53,251,17677,2,0,P|65:193|3:88,1,179.999995231629
67,20,17986,1,0,0:0:0:0:
161,21,18088,2,0,P|237:40|335:6,1,179.999995231629
363,102,18397,1,0,0:0:0:0:
450,0,18499,2,0,P|461:42|463:107,1,89.9999976158143
350,202,18705,5,0,0:0:0:0:
453,170,18808,1,0,0:0:0:0:
322,100,18910,2,0,P|253:93|207:102,1,89.9999976158143
157,164,19116,5,0,0:0:0:0:
109,58,19218,1,0,0:0:0:0:
64,194,19321,2,0,L|70:295,1,89.9999976158143
185,284,19527,5,0,0:0:0:0:
88,369,19629,1,0,0:0:0:0:
209,382,19732,2,0,L|315:385,1,89.9999976158143
450,365,19938,5,0,0:0:0:0:
328,309,20040,1,0,0:0:0:0:
446,268,20143,1,0,0:0:0:0:
320,296,20246,1,0,0:0:0:0:
391,193,20349,1,0,0:0:0:0:
311,286,20451,1,0,0:0:0:0:
296,171,20554,6,0,L|287:77,1,89.9999976158143
364,11,20760,1,0,0:0:0:0:
403,108,20862,1,0,0:0:0:0:
281,42,20965,2,0,P|233:12|182:17,1,89.9999976158143
131,130,21171,2,0,P|175:125|211:99,1,89.9999976158143
49,85,21376,6,0,B|24:135|58:193|58:193|44:204|36:214|36:214|62:261|116:341|51:363|9:370|-9:339|-30:274|59:261|59:261|141:262|187:321,1,512.999972711564
208,347,21787,5,0,0:0:0:0:
323,379,21890,1,0,0:0:0:0:
438,335,21992,1,0,0:0:0:0:
201,324,22095,5,0,0:0:0:0:
317,269,22198,1,0,0:0:0:0:
431,312,22300,1,0,0:0:0:0:
203,236,22403,2,0,P|193:270|203:330,1,89.9999976158143
264,161,22609,6,0,B|200:151|200:151|139:171,1,89.9999976158143
344,223,22814,2,0,B|367:230|367:230|431:220,1,89.9999976158143
428,66,23020,6,0,B|427:118|507:109|521:62|515:20|473:-14|417:-1|396:47|397:104|294:105|254:48,1,359.999990463257
205,0,23328,5,0,0:0:0:0:
205,0,23431,2,0,P|173:65|201:142,1,89.9999976158143
325,133,23636,2,0,P|284:72|204:58,1,89.9999976158143
142,174,23842,2,0,P|214:169|266:106,1,89.9999976158143
55,107,24047,2,0,L|42:268,1,89.9999976158143
149,263,24253,2,0,L|141:173,1,89.9999976158143
78,318,24458,2,0,P|153:352|212:309,1,89.9999976158143
304,281,24664,6,0,B|280:271|254:269|232:281|232:281|231:247|254:218|288:211|288:211|320:202|354:219|369:249|369:249|384:280|375:316|349:337|349:337|322:358|284:358|264:335,1,449.999988079071
167,160,24972,5,0,0:0:0:0:
217,90,25075,2,0,P|256:69|301:66,1,89.9999976158143
369,180,25280,2,0,P|324:177|284:156,1,89.9999976158143
391,93,25486,1,0,0:0:0:0:
455,197,25588,1,0,0:0:0:0:
350,262,25691,1,0,0:0:0:0:
285,157,25794,1,0,0:0:0:0:
458,288,25897,6,0,L|457:406,1,89.9999976158143
265,259,26102,2,0,L|265:169,1,89.9999976158143
346,323,26308,2,0,B|301:368|225:378|198:361|182:326|156:267|144:260|102:257|39:285|-14:284|-13:360|-15:406|38:435|128:436|194:397|144:301|111:277|-4:260|29:135|95:57,1,764.999994325638
202,26,26924,5,0,0:0:0:0:
170,112,27027,1,0,0:0:0:0:
260,88,27129,1,0,0:0:0:0:
220,195,27232,1,0,0:0:0:0:
322,157,27335,1,0,0:0:0:0:
274,287,27438,1,0,0:0:0:0:
406,182,27540,2,0,P|355:159|297:160,1,89.9999976158143
189,312,27746,2,0,P|233:306|273:286,1,89.9999976158143
120,137,27951,5,2,0:0:0:0:
138,258,28054,1,0,0:0:0:0:
209,158,28157,1,0,0:0:0:0:
52,196,28260,1,0,0:0:0:0:
230,243,28362,1,0,0:0:0:0:
194,73,28465,1,0,0:0:0:0:
133,237,28568,2,0,L|139:338,1,89.9999976158143
297,183,28773,5,8,0:0:0:0:
380,275,28876,1,0,0:0:0:0:
391,165,28979,1,0,0:0:0:0:
279,288,29082,1,0,0:0:0:0:
261,168,29184,2,0,L|266:52,1,89.9999976158143,2|0,0:0|0:0,0:0:0:0:
375,177,29390,5,0,0:0:0:0:
171,196,29492,1,0,0:0:0:0:
354,50,29595,2,0,L|488:61,1,89.9999976158143
261,168,29801,5,0,0:0:0:0:
179,35,29903,1,0,0:0:0:0:
171,196,30006,1,2,0:0:0:0:
276,16,30109,1,0,0:0:0:0:
375,177,30212,2,0,P|380:228|372:288,1,89.9999976158143
313,376,30417,5,8,0:0:0:0:
244,242,30520,1,0,0:0:0:0:
210,353,30623,1,0,0:0:0:0:
376,267,30725,1,0,0:0:0:0:
230,236,30828,2,0,L|126:240,1,89.9999976158143,2|0,0:0|0:0,0:0:0:0:
9,325,31034,5,0,0:0:0:0:
69,139,31136,1,0,0:0:0:0:
149,321,31239,1,2,0:0:0:0:
0,242,31342,1,0,0:0:0:0:
156,158,31445,2,0,L|245:153,1,89.9999976158143
384,188,31650,5,0,0:0:0:0:
335,66,31753,1,0,0:0:0:0:
304,222,31855,1,0,0:0:0:0:
409,104,31958,1,0,0:0:0:0:
240,66,32061,2,0,L|149:69,1,89.9999976158143,8|0,0:0|0:0,0:0:0:0:
2,122,32266,5,0,0:0:0:0:
133,147,32369,1,0,0:0:0:0:
17,311,32472,1,2,0:0:0:0:
157,275,32575,1,0,0:0:0:0:
16,137,32677,1,0,0:0:0:0:
0,325,32780,1,0,0:0:0:0:
188,291,32883,2,0,L|286:283,1,89.9999976158143
436,273,33088,5,0,0:0:0:0:
409,382,33191,1,0,0:0:0:0:
351,231,33294,1,2,0:0:0:0:
512,223,33397,1,0,0:0:0:0:
353,314,33499,1,0,0:0:0:0:
332,141,33602,1,0,0:0:0:0:
447,283,33705,5,8,0:0:0:0:
237,309,33808,1,0,0:0:0:0:
448,182,33910,5,0,0:0:0:0:
202,144,34013,1,0,0:0:0:0:
360,56,34116,5,8,0:0:0:0:
353,314,34218,1,0,0:0:0:0:
390,43,34321,5,0,0:0:0:0:
384,330,34423,1,0,0:0:0:0:
252,230,34527,6,0,L|134:235,1,89.9999976158143,2|0,0:0|0:0,0:0:0:0:
48,282,34732,1,0,0:0:0:0:
54,151,34835,1,0,0:0:0:0:
162,233,34938,2,0,P|174:282|163:332,1,89.9999976158143
48,282,35143,1,0,0:0:0:0:
162,233,35246,1,0,0:0:0:0:
54,151,35349,5,8,0:0:0:0:
141,97,35451,1,0,0:0:0:0:
57,44,35554,1,0,0:0:0:0:
173,88,35657,1,0,0:0:0:0:
32,156,35760,1,2,0:0:0:0:
182,238,35862,1,0,0:0:0:0:
24,308,35965,6,0,L|124:308,1,89.9999976158143
255,195,36171,1,0,0:0:0:0:
223,351,36273,1,0,0:0:0:0:
466,195,36376,2,0,L|366:195,1,89.9999976158143
215,119,36582,1,2,0:0:0:0:
256,274,36684,1,0,0:0:0:0:
309,124,36787,1,0,0:0:0:0:
166,208,36890,1,0,0:0:0:0:
376,195,36992,6,0,P|404:144|388:77,1,89.9999976158143,8|0,0:0|0:0,0:0:0:0:
314,13,37198,1,0,0:0:0:0:
485,45,37301,1,0,0:0:0:0:
309,124,37403,1,0,0:0:0:0:
413,0,37506,1,2,0:0:0:0:
376,195,37609,1,0,0:0:0:0:
210,103,37712,1,0,0:0:0:0:
403,113,37814,6,0,L|524:118,1,89.9999976158143,2|0,0:0|0:0,0:0:0:0:
208,215,38020,2,0,L|87:220,1,89.9999976158143
423,303,38225,2,0,L|544:308,1,89.9999976158143
376,195,38431,5,8,0:0:0:0:
347,350,38534,1,0,0:0:0:0:
251,139,38636,1,0,0:0:0:0:
262,327,38739,1,0,0:0:0:0:
159,114,38842,1,0,0:0:0:0:
129,331,38945,1,0,0:0:0:0:
261,153,39047,5,2,0:0:0:0:
45,217,39150,1,0,0:0:0:0:
254,346,39253,1,0,0:0:0:0:
167,94,39355,1,0,0:0:0:0:
30,311,39458,2,0,L|149:309,1,89.9999976158143
351,258,39664,5,8,0:0:0:0:
157,126,39766,1,0,0:0:0:0:
405,60,39869,1,0,0:0:0:0:
238,357,39972,1,0,0:0:0:0:
244,81,40075,5,0,0:0:0:0:
408,352,40177,1,0,0:0:0:0:
87,171,40280,1,8,0:0:0:0:
430,74,40383,1,0,0:0:0:0:
100,316,40485,1,0,0:0:0:0:
319,21,40588,1,0,0:0:0:0:
415,262,40691,2,0,L|405:380,1,89.9999976158143
207,260,40897,6,0,B|188:153|188:153|201:101,1,161.999990764618,4|0,0:0|0:0,0:0:0:0:
469,111,41615,5,0,0:0:0:0:
371,152,41718,2,0,L|279:154,1,89.9999976158143
340,47,41924,1,0,0:0:0:0:
455,102,42026,1,0,0:0:0:0:
406,231,42129,2,0,L|314:233,1,89.9999976158143
199,238,42334,5,0,0:0:0:0:
285,329,42437,1,0,0:0:0:0:
295,194,42540,1,0,0:0:0:0:
190,328,42643,1,0,0:0:0:0:
112,187,42745,6,0,L|118:88,1,89.9999976158143
179,5,42951,1,0,0:0:0:0:
216,126,43054,1,0,0:0:0:0:
73,0,43156,1,0,0:0:0:0:
34,107,43259,1,0,0:0:0:0:
195,29,43362,2,0,L|301:26,1,89.9999976158143
368,17,43567,5,0,0:0:0:0:
316,150,43670,1,0,0:0:0:0:
394,7,43773,1,0,0:0:0:0:
455,160,43876,1,0,0:0:0:0:
284,26,43978,2,0,L|292:143,1,89.9999976158143
366,249,44184,5,0,0:0:0:0:
316,150,44287,1,0,0:0:0:0:
257,269,44389,2,0,L|361:274,1,89.9999976158143
163,244,44595,1,0,0:0:0:0:
253,359,44697,1,0,0:0:0:0:
232,189,44800,6,0,L|142:193,1,89.9999976158143
69,274,45006,1,0,0:0:0:0:
33,124,45108,1,0,0:0:0:0:
163,244,45211,1,0,0:0:0:0:
0,213,45314,1,0,0:0:0:0:
150,110,45417,2,0,L|239:105,1,89.9999976158143
393,93,45622,1,0,0:0:0:0:
409,80,45828,5,0,0:0:0:0:
294,9,45930,1,0,0:0:0:0:
350,155,46033,1,0,0:0:0:0:
455,8,46136,1,0,0:0:0:0:
506,169,46239,2,0,L|494:296,1,89.9999976158143
446,364,46444,1,0,0:0:0:0:
392,247,46547,1,0,0:0:0:0:
497,258,46650,1,0,0:0:0:0:
347,338,46752,1,0,0:0:0:0:
273,149,46855,5,0,0:0:0:0:
273,149,46958,2,0,L|362:156,1,89.9999976158143
230,247,47266,2,0,L|140:254,1,89.9999976158143
171,48,47574,5,0,0:0:0:0:
171,48,47677,2,0,L|288:38,1,89.9999976158143
104,140,47882,1,0,0:0:0:0:
64,48,47985,1,0,0:0:0:0:
194,136,48088,2,0,B|207:176|207:176|184:313,1,179.999995231629
104,140,48396,5,0,0:0:0:0:
104,140,48499,2,0,L|221:134,1,89.9999976158143
95,243,48704,2,0,L|-22:237,1,89.9999976158143
267,82,48910,2,0,B|285:130|285:130|268:209,1,89.9999976158143
279,286,49115,5,0,0:0:0:0:
202,211,49218,1,0,0:0:0:0:
408,237,49321,2,0,L|393:341,1,89.9999976158143
297,184,49526,1,0,0:0:0:0:
480,164,49629,1,0,0:0:0:0:
303,89,49732,1,0,0:0:0:0:
453,70,49835,1,0,0:0:0:0:
317,200,49937,1,0,0:0:0:0:
225,26,50040,1,0,0:0:0:0:
152,117,50143,6,0,L|158:219,1,89.9999976158143
144,35,50348,2,0,L|54:40,1,89.9999976158143
235,205,50554,2,0,L|224:25,1,179.999995231629
91,283,50862,5,0,0:0:0:0:
91,283,50965,2,0,B|138:298|138:298|228:289,1,89.9999976158143
319,274,51170,1,0,0:0:0:0:
245,382,51273,1,0,0:0:0:0:
235,205,51376,2,0,B|282:190|282:190|372:199,1,89.9999976158143
416,321,51581,1,0,0:0:0:0:
448,147,51684,5,0,0:0:0:0:
448,147,51787,2,0,B|467:182|467:182|455:285,1,89.9999976158143
396,77,51992,2,0,B|431:58|431:58|534:70,1,89.9999976158143
512,301,52197,2,0,B|465:326|465:326|328:310,1,179.999995231629
331,227,52506,5,0,0:0:0:0:
331,227,52608,2,0,B|350:264|350:264|324:369,1,89.9999976158143
181,157,52814,2,0,B|162:120|162:120|188:15,1,89.9999976158143
221,267,53019,2,0,B|184:286|184:286|79:260,1,89.9999976158143
291,117,53225,2,0,B|328:98|328:98|433:124,1,89.9999976158143
256,192,53430,1,0,0:0:0:0:
79,139,54252,5,0,0:0:0:0:
182,108,54355,1,0,0:0:0:0:
149,202,54458,1,0,0:0:0:0:
103,54,54561,1,0,0:0:0:0:
234,184,54663,1,0,0:0:0:0:
60,221,54766,1,0,0:0:0:0:
192,95,54869,2,0,L|293:90,1,89.9999976158143
420,129,55074,5,0,0:0:0:0:
332,181,55177,1,0,0:0:0:0:
369,57,55280,1,0,0:0:0:0:
421,217,55382,1,0,0:0:0:0:
281,90,55485,1,0,0:0:0:0:
265,79,55691,5,0,0:0:0:0:
227,188,55793,1,0,0:0:0:0:
341,185,55896,1,0,0:0:0:0:
179,91,55999,1,0,0:0:0:0:
190,264,56102,1,0,0:0:0:0:
353,199,56204,1,0,0:0:0:0:
141,177,56307,2,0,L|44:185,1,89.9999976158143
108,359,56513,5,0,0:0:0:0:
175,266,56615,1,0,0:0:0:0:
76,270,56718,1,0,0:0:0:0:
205,356,56821,1,0,0:0:0:0:
232,177,56924,1,0,0:0:0:0:
61,262,57026,1,0,0:0:0:0:
294,329,57129,2,0,L|307:205,1,89.9999976158143
283,35,57334,5,0,0:0:0:0:
216,168,57437,1,0,0:0:0:0:
354,104,57540,1,0,0:0:0:0:
201,57,57643,1,0,0:0:0:0:
318,184,57745,1,0,0:0:0:0:
364,18,57848,1,0,0:0:0:0:
199,158,57951,6,0,L|206:261,1,89.9999976158143
276,384,58156,1,0,0:0:0:0:
291,277,58259,1,0,0:0:0:0:
198,328,58362,1,0,0:0:0:0:
372,337,58465,1,0,0:0:0:0:
301,177,58567,1,0,0:0:0:0:
181,304,58670,1,0,0:0:0:0:
384,246,58773,1,0,0:0:0:0:
187,148,58876,1,0,0:0:0:0:
282,288,58978,5,0,0:0:0:0:
390,142,59081,1,0,0:0:0:0:
135,218,59184,1,0,0:0:0:0:
395,256,59287,1,0,0:0:0:0:
270,91,59389,1,0,0:0:0:0:
192,315,59492,1,0,0:0:0:0:
410,139,59595,2,0,L|406:7,1,89.9999976158143
310,171,59800,5,0,0:0:0:0:
424,235,59903,1,0,0:0:0:0:
315,81,60006,1,0,0:0:0:0:
307,258,60108,1,0,0:0:0:0:
426,136,60211,1,0,0:0:0:0:
195,135,60314,1,0,0:0:0:0:
387,323,60417,2,0,L|548:298,1,89.9999976158143
200,245,60622,5,0,0:0:0:0:
278,353,60725,1,0,0:0:0:0:
310,171,60828,2,0,L|317:36,1,119.999996821086
178,258,61033,2,0,L|183:347,1,89.9999976158143
323,185,61239,5,0,0:0:0:0:
158,245,61341,1,0,0:0:0:0:
332,280,61444,1,0,0:0:0:0:
181,142,61547,1,0,0:0:0:0:
292,372,61650,2,0,L|421:367,1,119.999996821086
301,183,61855,2,0,L|172:178,1,89.9999976158143
348,283,62061,5,0,0:0:0:0:
421,163,62163,1,0,0:0:0:0:
248,260,62266,1,0,0:0:0:0:
409,365,62369,1,0,0:0:0:0:
342,105,62471,6,0,L|213:100,1,119.999996821086
371,285,62677,2,0,L|500:280,1,119.999996821086
188,191,62882,2,0,L|59:186,1,119.999996821086
236,364,63088,2,0,L|365:359,1,119.999996821086
147,269,63293,2,0,B|121:307|121:307|125:400,1,119.999996821086
276,184,63499,2,0,B|276:139|276:139|251:101,1,89.9999976158143
250,384,63704,6,0,L|379:379,1,119.999996821086
512,179,63910,2,0,L|386:171,1,119.999996821086
161,306,64115,2,0,L|283:301,1,107.999993843079
72,181,64321,1,0,0:0:0:0:
99,374,64424,1,0,0:0:0:0:
240,140,64526,2,0,L|249:5,1,125.999992816925
34,273,64732,5,0,0:0:0:0:
215,372,64834,1,0,0:0:0:0:
124,111,64937,2,0,L|-23:104,1,125.999992816925
137,320,65143,5,0,0:0:0:0:
233,108,65245,1,0,2:3:0:0:
49,309,65348,1,0,2:3:0:0:
295,351,65451,1,0,2:3:0:0:
302,7,65554,1,0,0:0:0:0:
6,233,65656,1,0,0:0:0:0:
447,384,65759,1,0,0:0:0:0:
290,195,65965,6,0,L|164:199,1,125.999992816925
