osu file format v14

[General]
AudioFilename: Yasashisa no Riyuu.mp3
AudioLeadIn: 0
PreviewTime: 22836
Countdown: 0
SampleSet: Normal
StackLeniency: 0.7
Mode: 3
LetterboxInBreaks: 0
SpecialStyle: 0
WidescreenStoryboard: 1

[Editor]
DistanceSpacing: 2
BeatDivisor: 4
GridSize: 16
TimelineZoom: 3.199999

[Metadata]
Title:Yasashisa no Riyuu
TitleUnicode:Yasashisa no Riyuu
Artist:Choucho
ArtistUnicode:Choucho
Creator:Akary
Version:Hyouu
Source:Hyouka
Tags:op opening tv size
BeatmapID:1452714
BeatmapSetID:451379

[Difficulty]
HPDrainRate:8
CircleSize:7
OverallDifficulty:0
ApproachRate:5
SliderMultiplier:1.4
SliderTickRate:1

[Events]
//Background and Video events
0,0,"bg.jpg",0,0
//Break Periods
//Storyboard Layer 0 (Background)
//Storyboard Layer 1 (Fail)
//Storyboard Layer 2 (Pass)
//Storyboard Layer 3 (Foreground)
//Storyboard Sound Samples

[TimingPoints]
1142,338.983050847458,4,1,0,5,1,0
9277,-500,4,1,0,5,0,0
11989,-100,4,1,0,5,0,0
57074,-250,4,1,0,5,0,0
58091,240,4,1,0,5,1,0
59091,3000,4,1,0,5,1,0
59277,-57.1428571428571,4,1,0,5,0,0
59447,338.983050847458,4,1,0,5,1,0
59447,-100,4,1,0,5,0,1
64955,-200,4,1,0,5,0,1
65040,-66.6666666666667,4,1,0,5,0,1
65209,-100,4,1,0,5,0,1
75718,-100,4,1,0,5,0,0
81141,-250,4,1,0,5,0,0
83514,-100,4,1,0,5,0,0
83853,-100,4,1,0,5,0,0

[HitObjects]
36,192,1142,5,0,0:0:0:0:
256,192,1142,1,0,0:0:0:0:
329,192,1311,1,0,0:0:0:0:
109,192,1311,1,0,0:0:0:0:
182,192,1480,1,0,0:0:0:0:
402,192,1480,1,0,0:0:0:0:
475,192,1650,1,0,0:0:0:0:
329,192,1819,1,0,0:0:0:0:
36,192,1819,1,0,0:0:0:0:
109,192,1989,1,0,0:0:0:0:
182,192,2158,1,0,0:0:0:0:
256,192,2328,1,0,0:0:0:0:
329,192,2497,1,0,0:0:0:0:
36,192,2497,1,0,0:0:0:0:
182,192,2497,1,0,0:0:0:0:
256,192,2667,1,0,0:0:0:0:
475,192,2667,1,0,0:0:0:0:
182,192,2836,1,0,0:0:0:0:
402,192,2836,1,0,0:0:0:0:
329,192,3006,1,0,0:0:0:0:
256,192,3175,1,0,0:0:0:0:
36,192,3175,1,0,0:0:0:0:
475,192,3175,1,0,0:0:0:0:
329,192,3345,1,0,0:0:0:0:
182,192,3345,1,0,0:0:0:0:
109,192,3514,1,0,0:0:0:0:
256,192,3684,1,0,0:0:0:0:
402,192,3853,1,0,0:0:0:0:
36,192,3853,1,0,0:0:0:0:
182,192,3853,1,0,0:0:0:0:
256,192,4023,1,0,0:0:0:0:
475,192,4023,1,0,0:0:0:0:
402,192,4192,1,0,0:0:0:0:
182,192,4192,1,0,0:0:0:0:
329,192,4362,1,0,0:0:0:0:
109,192,4362,1,0,0:0:0:0:
475,192,4362,1,0,0:0:0:0:
36,192,4531,1,0,0:0:0:0:
329,192,4701,1,0,0:0:0:0:
475,192,4701,1,0,0:0:0:0:
182,192,4870,1,0,0:0:0:0:
36,192,5040,1,0,0:0:0:0:
475,192,5209,128,0,5548:0:0:0:0:
256,192,5209,1,0,0:0:0:0:
329,192,5548,128,0,5887:0:0:0:0:
109,192,5548,1,0,0:0:0:0:
36,192,5887,128,0,6226:0:0:0:0:
256,192,5887,1,0,0:0:0:0:
182,192,6226,128,0,6565:0:0:0:0:
402,192,6226,1,0,0:0:0:0:
475,192,6565,1,0,0:0:0:0:
256,192,6565,1,0,0:0:0:0:
402,192,6735,1,0,0:0:0:0:
182,192,6735,1,0,0:0:0:0:
109,192,6904,1,0,0:0:0:0:
329,192,6904,1,0,0:0:0:0:
36,192,7074,1,0,0:0:0:0:
256,192,7074,1,0,0:0:0:0:
402,192,7243,1,0,0:0:0:0:
256,192,7413,1,0,0:0:0:0:
109,192,7582,1,0,0:0:0:0:
475,192,7752,1,0,0:0:0:0:
402,192,7921,1,0,0:0:0:0:
182,192,7921,1,0,0:0:0:0:
329,192,8091,1,0,0:0:0:0:
109,192,8091,1,0,0:0:0:0:
36,192,8260,1,0,0:0:0:0:
256,192,8260,1,0,0:0:0:0:
109,192,8430,1,0,0:0:0:0:
329,192,8430,1,0,0:0:0:0:
182,192,8599,1,0,0:0:0:0:
402,192,8599,1,0,0:0:0:0:
475,192,8769,128,0,9277:0:0:0:0:
109,192,9192,1,0,0:0:0:0:
256,192,9235,1,0,0:0:0:0:
402,192,9277,1,0,0:0:0:0:
36,192,11989,128,0,12328:0:0:0:0:
256,192,11989,1,0,0:0:0:0:
475,192,11989,1,0,0:0:0:0:
402,192,12158,1,0,0:0:0:0:
182,192,12328,128,0,12667:0:0:0:0:
329,192,12328,1,0,0:0:0:0:
109,192,12328,1,0,0:0:0:0:
402,192,12497,1,0,0:0:0:0:
329,192,12667,128,0,13006:0:0:0:0:
475,192,12667,1,0,0:0:0:0:
256,192,12667,1,0,0:0:0:0:
182,192,12836,1,0,0:0:0:0:
475,192,13006,128,0,13345:0:0:0:0:
109,192,13006,1,0,0:0:0:0:
402,192,13006,1,0,0:0:0:0:
182,192,13175,1,0,0:0:0:0:
256,192,13345,1,0,0:0:0:0:
36,192,13345,1,0,0:0:0:0:
109,192,13514,1,0,0:0:0:0:
329,192,13514,1,0,0:0:0:0:
182,192,13684,1,0,0:0:0:0:
402,192,13684,1,0,0:0:0:0:
256,192,13853,1,0,0:0:0:0:
475,192,13853,1,0,0:0:0:0:
402,192,14023,1,0,0:0:0:0:
182,192,14023,1,0,0:0:0:0:
329,192,14192,1,0,0:0:0:0:
109,192,14192,1,0,0:0:0:0:
256,192,14362,1,0,0:0:0:0:
36,192,14362,1,0,0:0:0:0:
475,192,14362,1,0,0:0:0:0:
402,192,14531,1,0,0:0:0:0:
182,192,14701,128,0,15040:0:0:0:0:
329,192,14701,1,0,0:0:0:0:
109,192,14701,1,0,0:0:0:0:
402,192,14870,1,0,0:0:0:0:
36,192,15040,128,0,15379:0:0:0:0:
475,192,15040,1,0,0:0:0:0:
256,192,15040,1,0,0:0:0:0:
329,192,15209,1,0,0:0:0:0:
256,192,15379,128,0,15718:0:0:0:0:
402,192,15379,1,0,0:0:0:0:
109,192,15379,1,0,0:0:0:0:
329,192,15548,1,0,0:0:0:0:
109,192,15718,128,0,16057:0:0:0:0:
182,192,15718,1,0,0:0:0:0:
475,192,15718,1,0,0:0:0:0:
256,192,15887,1,0,0:0:0:0:
329,192,16057,1,0,0:0:0:0:
36,192,16057,1,0,0:0:0:0:
402,192,16226,1,0,0:0:0:0:
256,192,16396,128,0,17074:0:0:0:0:
475,192,16396,1,0,0:0:0:0:
36,192,16396,1,0,0:0:0:0:
109,192,16565,1,0,0:0:0:0:
475,192,16735,128,0,17074:0:0:0:0:
182,192,16735,1,0,0:0:0:0:
329,192,16735,1,0,0:0:0:0:
36,192,16904,1,0,0:0:0:0:
109,192,17074,1,0,0:0:0:0:
402,192,17074,1,0,0:0:0:0:
182,192,17243,1,0,0:0:0:0:
402,192,17413,128,0,17752:0:0:0:0:
109,192,17413,1,0,0:0:0:0:
329,192,17413,1,0,0:0:0:0:
182,192,17582,1,0,0:0:0:0:
256,192,17752,128,0,18091:0:0:0:0:
36,192,17752,1,0,0:0:0:0:
475,192,17752,1,0,0:0:0:0:
402,192,17921,1,0,0:0:0:0:
109,192,18091,128,0,18430:0:0:0:0:
329,192,18091,1,0,0:0:0:0:
182,192,18091,1,0,0:0:0:0:
402,192,18260,1,0,0:0:0:0:
475,192,18430,128,0,18769:0:0:0:0:
36,192,18430,1,0,0:0:0:0:
256,192,18430,1,0,0:0:0:0:
109,192,18599,1,0,0:0:0:0:
182,192,18769,1,0,0:0:0:0:
402,192,18769,1,0,0:0:0:0:
256,192,18938,1,0,0:0:0:0:
329,192,19108,1,0,0:0:0:0:
182,192,19108,1,0,0:0:0:0:
402,192,19277,1,0,0:0:0:0:
402,192,19447,128,0,20125:0:0:0:0:
256,192,19447,1,0,0:0:0:0:
109,192,19447,1,0,0:0:0:0:
36,192,19616,1,0,0:0:0:0:
109,192,19786,1,0,0:0:0:0:
36,192,19955,1,0,0:0:0:0:
109,192,20125,128,0,21480:0:0:0:0:
256,192,20125,1,0,0:0:0:0:
475,192,20125,1,0,0:0:0:0:
475,192,20464,1,0,0:0:0:0:
256,192,20464,1,0,0:0:0:0:
475,192,20803,1,0,0:0:0:0:
256,192,20803,1,0,0:0:0:0:
475,192,21142,1,0,0:0:0:0:
256,192,21142,1,0,0:0:0:0:
402,192,21311,1,0,0:0:0:0:
329,192,21480,1,0,0:0:0:0:
256,192,21650,1,0,0:0:0:0:
475,192,21650,1,0,0:0:0:0:
182,192,21819,1,0,0:0:0:0:
402,192,21819,1,0,0:0:0:0:
109,192,21989,1,0,0:0:0:0:
329,192,21989,1,0,0:0:0:0:
36,192,22158,1,0,0:0:0:0:
256,192,22158,1,0,0:0:0:0:
402,192,22328,1,0,0:0:0:0:
182,192,22328,1,0,0:0:0:0:
475,192,22497,1,0,0:0:0:0:
256,192,22497,1,0,0:0:0:0:
109,192,22667,1,0,0:0:0:0:
329,192,22667,1,0,0:0:0:0:
36,192,22836,1,0,0:0:0:0:
182,192,22836,1,0,0:0:0:0:
475,192,22836,1,0,0:0:0:0:
402,192,23006,1,0,0:0:0:0:
256,192,23175,1,0,0:0:0:0:
109,192,23175,1,0,0:0:0:0:
329,192,23345,1,0,0:0:0:0:
182,192,23514,1,0,0:0:0:0:
36,192,23514,1,0,0:0:0:0:
402,192,23684,1,0,0:0:0:0:
256,192,23853,1,0,0:0:0:0:
109,192,23853,1,0,0:0:0:0:
475,192,24023,1,0,0:0:0:0:
329,192,24192,1,0,0:0:0:0:
182,192,24192,1,0,0:0:0:0:
36,192,24192,1,0,0:0:0:0:
402,192,24362,1,0,0:0:0:0:
475,192,24531,1,0,0:0:0:0:
109,192,24531,1,0,0:0:0:0:
182,192,24701,1,0,0:0:0:0:
256,192,24870,1,0,0:0:0:0:
402,192,24870,1,0,0:0:0:0:
36,192,24870,1,0,0:0:0:0:
329,192,25040,1,0,0:0:0:0:
256,192,25209,1,0,0:0:0:0:
475,192,25209,1,0,0:0:0:0:
182,192,25379,1,0,0:0:0:0:
109,192,25548,1,0,0:0:0:0:
329,192,25548,1,0,0:0:0:0:
402,192,25548,1,0,0:0:0:0:
256,192,25718,1,0,0:0:0:0:
402,192,25887,1,0,0:0:0:0:
36,192,25887,1,0,0:0:0:0:
109,192,26057,1,0,0:0:0:0:
329,192,26057,1,0,0:0:0:0:
182,192,26226,1,0,0:0:0:0:
256,192,26226,1,0,0:0:0:0:
475,192,26396,1,0,0:0:0:0:
329,192,26565,1,0,0:0:0:0:
109,192,26565,1,0,0:0:0:0:
475,192,26735,1,0,0:0:0:0:
329,192,26904,1,0,0:0:0:0:
36,192,26904,1,0,0:0:0:0:
109,192,26904,1,0,0:0:0:0:
109,192,27074,1,0,0:0:0:0:
182,192,27074,1,0,0:0:0:0:
256,192,27243,1,0,0:0:0:0:
182,192,27243,1,0,0:0:0:0:
256,192,27413,1,0,0:0:0:0:
329,192,27413,1,0,0:0:0:0:
36,192,27582,1,0,0:0:0:0:
475,192,27582,1,0,0:0:0:0:
402,192,27582,1,0,0:0:0:0:
402,192,27752,1,0,0:0:0:0:
329,192,27752,1,0,0:0:0:0:
256,192,27921,1,0,0:0:0:0:
329,192,27921,1,0,0:0:0:0:
256,192,28091,1,0,0:0:0:0:
182,192,28091,1,0,0:0:0:0:
36,192,28260,1,0,0:0:0:0:
329,192,28260,1,0,0:0:0:0:
475,192,28260,1,0,0:0:0:0:
109,192,28430,1,0,0:0:0:0:
182,192,28599,1,0,0:0:0:0:
402,192,28599,1,0,0:0:0:0:
329,192,28769,1,0,0:0:0:0:
256,192,28938,1,0,0:0:0:0:
36,192,28938,1,0,0:0:0:0:
475,192,29108,1,0,0:0:0:0:
402,192,29277,1,0,0:0:0:0:
182,192,29277,1,0,0:0:0:0:
109,192,29447,1,0,0:0:0:0:
36,192,29616,1,0,0:0:0:0:
256,192,29616,1,0,0:0:0:0:
475,192,29616,1,0,0:0:0:0:
329,192,29786,1,0,0:0:0:0:
402,192,29955,1,0,0:0:0:0:
182,192,29955,1,0,0:0:0:0:
329,192,30125,1,0,0:0:0:0:
256,192,30294,1,0,0:0:0:0:
109,192,30294,1,0,0:0:0:0:
182,192,30464,1,0,0:0:0:0:
329,192,30633,1,0,0:0:0:0:
36,192,30633,1,0,0:0:0:0:
109,192,30803,1,0,0:0:0:0:
182,192,30972,1,0,0:0:0:0:
402,192,30972,1,0,0:0:0:0:
36,192,30972,1,0,0:0:0:0:
329,192,31142,1,0,0:0:0:0:
109,192,31311,1,0,0:0:0:0:
402,192,31311,1,0,0:0:0:0:
329,192,31480,1,0,0:0:0:0:
182,192,31480,1,0,0:0:0:0:
109,192,31650,1,0,0:0:0:0:
402,192,31650,1,0,0:0:0:0:
475,192,31819,1,0,0:0:0:0:
36,192,31989,1,0,0:0:0:0:
256,192,31989,1,0,0:0:0:0:
402,192,32158,1,0,0:0:0:0:
475,192,32328,1,0,0:0:0:0:
329,192,32328,1,0,0:0:0:0:
109,192,32328,1,0,0:0:0:0:
182,192,32497,1,0,0:0:0:0:
256,192,32667,1,0,0:0:0:0:
402,192,32667,128,0,33006:0:0:0:0:
36,192,32836,1,0,0:0:0:0:
109,192,32893,1,0,0:0:0:0:
182,192,32949,1,0,0:0:0:0:
256,192,33006,128,0,33345:0:0:0:0:
475,192,33175,1,0,0:0:0:0:
109,192,33345,128,0,33684:0:0:0:0:
402,192,33345,1,0,0:0:0:0:
182,192,33345,1,0,0:0:0:0:
329,192,33514,1,0,0:0:0:0:
475,192,33684,128,0,35040:0:0:0:0:
256,192,33684,1,0,0:0:0:0:
36,192,33684,1,0,0:0:0:0:
182,192,33853,1,0,0:0:0:0:
36,192,34023,1,0,0:0:0:0:
402,192,34023,1,0,0:0:0:0:
329,192,34192,128,0,35040:0:0:0:0:
182,192,34192,1,0,0:0:0:0:
36,192,34362,1,0,0:0:0:0:
256,192,34362,1,0,0:0:0:0:
182,192,34531,1,0,0:0:0:0:
36,192,34701,1,0,0:0:0:0:
402,192,34701,1,0,0:0:0:0:
109,192,34870,1,0,0:0:0:0:
182,192,35040,1,0,0:0:0:0:
256,192,35040,1,0,0:0:0:0:
36,192,35040,128,0,36396:0:0:0:0:
402,192,35209,1,0,0:0:0:0:
109,192,35379,1,0,0:0:0:0:
329,192,35379,1,0,0:0:0:0:
402,192,35548,128,0,36396:0:0:0:0:
182,192,35548,1,0,0:0:0:0:
109,192,35718,1,0,0:0:0:0:
256,192,35718,1,0,0:0:0:0:
329,192,35887,1,0,0:0:0:0:
182,192,36057,1,0,0:0:0:0:
475,192,36057,1,0,0:0:0:0:
109,192,36226,1,0,0:0:0:0:
256,192,36396,128,0,37752:0:0:0:0:
182,192,36396,1,0,0:0:0:0:
329,192,36396,1,0,0:0:0:0:
109,192,36565,1,0,0:0:0:0:
182,192,36735,1,0,0:0:0:0:
402,192,36735,1,0,0:0:0:0:
475,192,36904,128,0,37752:0:0:0:0:
36,192,36904,1,0,0:0:0:0:
329,192,37074,1,0,0:0:0:0:
109,192,37074,1,0,0:0:0:0:
402,192,37243,1,0,0:0:0:0:
182,192,37413,1,0,0:0:0:0:
329,192,37413,1,0,0:0:0:0:
109,192,37582,1,0,0:0:0:0:
36,192,37752,1,0,0:0:0:0:
402,192,37752,1,0,0:0:0:0:
182,192,37752,1,0,0:0:0:0:
109,192,37921,1,0,0:0:0:0:
256,192,37921,1,0,0:0:0:0:
475,192,37921,1,0,0:0:0:0:
402,192,38091,1,0,0:0:0:0:
182,192,38091,1,0,0:0:0:0:
36,192,38091,1,0,0:0:0:0:
256,192,38260,1,0,0:0:0:0:
475,192,38260,1,0,0:0:0:0:
109,192,38260,1,0,0:0:0:0:
182,192,38430,1,0,0:0:0:0:
36,192,38430,1,0,0:0:0:0:
402,192,38430,128,0,39108:0:0:0:0:
256,192,38769,128,0,39108:0:0:0:0:
109,192,38769,1,0,0:0:0:0:
329,192,39108,1,0,0:0:0:0:
475,192,39108,1,0,0:0:0:0:
36,192,39108,128,0,40464:0:0:0:0:
402,192,39277,1,0,0:0:0:0:
256,192,39277,1,0,0:0:0:0:
475,192,39447,1,0,0:0:0:0:
182,192,39447,1,0,0:0:0:0:
256,192,39616,1,0,0:0:0:0:
402,192,39616,1,0,0:0:0:0:
329,192,39616,128,0,40464:0:0:0:0:
182,192,39786,1,0,0:0:0:0:
475,192,39786,1,0,0:0:0:0:
109,192,39955,1,0,0:0:0:0:
256,192,40125,1,0,0:0:0:0:
402,192,40294,1,0,0:0:0:0:
182,192,40464,128,0,41819:0:0:0:0:
475,192,40464,1,0,0:0:0:0:
109,192,40464,1,0,0:0:0:0:
329,192,40633,1,0,0:0:0:0:
475,192,40803,1,0,0:0:0:0:
36,192,40803,1,0,0:0:0:0:
329,192,40972,128,0,41819:0:0:0:0:
402,192,40972,1,0,0:0:0:0:
475,192,41142,1,0,0:0:0:0:
256,192,41142,1,0,0:0:0:0:
109,192,41311,1,0,0:0:0:0:
36,192,41480,1,0,0:0:0:0:
256,192,41480,1,0,0:0:0:0:
402,192,41650,1,0,0:0:0:0:
475,192,41819,1,0,0:0:0:0:
36,192,41819,1,0,0:0:0:0:
256,192,41819,128,0,43175:0:0:0:0:
109,192,41989,1,0,0:0:0:0:
475,192,42158,1,0,0:0:0:0:
402,192,42328,128,0,43175:0:0:0:0:
109,192,42328,1,0,0:0:0:0:
182,192,42497,1,0,0:0:0:0:
36,192,42667,1,0,0:0:0:0:
109,192,42836,1,0,0:0:0:0:
329,192,43006,1,0,0:0:0:0:
36,192,43175,128,0,44108:0:0:0:0:
109,192,43175,1,0,0:0:0:0:
256,192,43345,1,0,0:0:0:0:
475,192,43514,128,0,44108:0:0:0:0:
402,192,43514,1,0,0:0:0:0:
109,192,43684,1,0,0:0:0:0:
182,192,43853,128,0,44108:0:0:0:0:
329,192,43853,128,0,44108:0:0:0:0:
256,192,44023,1,0,0:0:0:0:
182,192,44192,128,0,44447:0:0:0:0:
329,192,44192,128,0,44447:0:0:0:0:
475,192,44192,1,0,0:0:0:0:
36,192,44192,1,0,0:0:0:0:
402,192,44362,1,0,0:0:0:0:
109,192,44362,1,0,0:0:0:0:
182,192,44531,1,0,0:0:0:0:
329,192,44531,1,0,0:0:0:0:
36,192,44701,128,0,45125:0:0:0:0:
182,192,44701,128,0,45125:0:0:0:0:
329,192,44701,128,0,45125:0:0:0:0:
475,192,44701,128,0,45125:0:0:0:0:
256,192,44870,1,0,0:0:0:0:
109,192,45040,1,0,0:0:0:0:
402,192,45040,1,0,0:0:0:0:
182,192,45209,1,0,0:0:0:0:
329,192,45209,1,0,0:0:0:0:
402,192,45209,128,0,45887:0:0:0:0:
109,192,45209,128,0,45887:0:0:0:0:
182,192,45548,1,0,0:0:0:0:
329,192,45548,1,0,0:0:0:0:
329,192,45718,1,0,0:0:0:0:
182,192,45718,1,0,0:0:0:0:
182,192,45887,1,0,0:0:0:0:
329,192,45887,1,0,0:0:0:0:
36,192,45887,128,0,46565:0:0:0:0:
402,192,46057,1,0,0:0:0:0:
182,192,46226,128,0,46565:0:0:0:0:
475,192,46226,1,0,0:0:0:0:
256,192,46396,1,0,0:0:0:0:
475,192,46565,128,0,47243:0:0:0:0:
329,192,46565,1,0,0:0:0:0:
109,192,46565,1,0,0:0:0:0:
402,192,46735,1,0,0:0:0:0:
36,192,46904,1,0,0:0:0:0:
256,192,46904,1,0,0:0:0:0:
329,192,46904,128,0,47243:0:0:0:0:
109,192,47074,1,0,0:0:0:0:
36,192,47243,1,0,0:0:0:0:
256,192,47243,128,0,47921:0:0:0:0:
109,192,47413,1,0,0:0:0:0:
402,192,47413,1,0,0:0:0:0:
402,192,47582,128,0,47921:0:0:0:0:
36,192,47582,1,0,0:0:0:0:
329,192,47752,1,0,0:0:0:0:
182,192,47752,1,0,0:0:0:0:
109,192,47921,128,0,48599:0:0:0:0:
36,192,47921,1,0,0:0:0:0:
475,192,47921,1,0,0:0:0:0:
329,192,48091,1,0,0:0:0:0:
256,192,48260,128,0,48599:0:0:0:0:
402,192,48260,1,0,0:0:0:0:
475,192,48430,1,0,0:0:0:0:
329,192,48599,128,0,49277:0:0:0:0:
36,192,48599,1,0,0:0:0:0:
182,192,48599,1,0,0:0:0:0:
109,192,48769,1,0,0:0:0:0:
475,192,48938,128,0,49277:0:0:0:0:
182,192,48938,1,0,0:0:0:0:
36,192,49108,1,0,0:0:0:0:
182,192,49277,128,0,49955:0:0:0:0:
109,192,49277,1,0,0:0:0:0:
402,192,49277,1,0,0:0:0:0:
329,192,49447,1,0,0:0:0:0:
36,192,49616,128,0,49955:0:0:0:0:
256,192,49616,1,0,0:0:0:0:
475,192,49616,1,0,0:0:0:0:
329,192,49786,1,0,0:0:0:0:
402,192,49955,1,0,0:0:0:0:
109,192,49955,1,0,0:0:0:0:
182,192,50125,1,0,0:0:0:0:
329,192,50125,1,0,0:0:0:0:
475,192,50294,128,0,51311:0:0:0:0:
109,192,50294,1,0,0:0:0:0:
402,192,50294,1,0,0:0:0:0:
256,192,50464,1,0,0:0:0:0:
36,192,50633,128,0,51311:0:0:0:0:
182,192,50633,1,0,0:0:0:0:
329,192,50633,1,0,0:0:0:0:
109,192,50972,1,0,0:0:0:0:
402,192,50972,1,0,0:0:0:0:
329,192,51311,1,0,0:0:0:0:
182,192,51311,128,0,51989:0:0:0:0:
402,192,51480,1,0,0:0:0:0:
36,192,51650,128,0,51989:0:0:0:0:
475,192,51650,1,0,0:0:0:0:
256,192,51650,1,0,0:0:0:0:
402,192,51819,1,0,0:0:0:0:
329,192,51989,128,0,52667:0:0:0:0:
109,192,51989,1,0,0:0:0:0:
36,192,52158,1,0,0:0:0:0:
182,192,52328,128,0,52667:0:0:0:0:
475,192,52328,1,0,0:0:0:0:
109,192,52328,1,0,0:0:0:0:
36,192,52497,1,0,0:0:0:0:
475,192,52667,128,0,53345:0:0:0:0:
109,192,52667,1,0,0:0:0:0:
256,192,52667,1,0,0:0:0:0:
402,192,52667,1,0,0:0:0:0:
182,192,52836,1,0,0:0:0:0:
36,192,52836,1,0,0:0:0:0:
329,192,53006,128,0,53345:0:0:0:0:
109,192,53006,1,0,0:0:0:0:
182,192,53175,1,0,0:0:0:0:
109,192,53345,128,0,53599:0:0:0:0:
256,192,53345,128,0,53938:0:0:0:0:
402,192,53345,128,0,53599:0:0:0:0:
109,192,53684,1,0,0:0:0:0:
402,192,53684,1,0,0:0:0:0:
329,192,53853,1,0,0:0:0:0:
182,192,53853,1,0,0:0:0:0:
256,192,54023,1,0,0:0:0:0:
402,192,54023,1,0,0:0:0:0:
109,192,54023,1,0,0:0:0:0:
475,192,54023,128,0,54447:0:0:0:0:
36,192,54023,128,0,54447:0:0:0:0:
329,192,54192,128,0,54277:0:0:0:0:
182,192,54192,128,0,54277:0:0:0:0:
182,192,54362,128,0,54447:0:0:0:0:
329,192,54362,128,0,54447:0:0:0:0:
182,192,54531,128,0,54955:0:0:0:0:
329,192,54531,128,0,54955:0:0:0:0:
475,192,54531,1,0,0:0:0:0:
36,192,54531,1,0,0:0:0:0:
402,192,54701,128,0,54786:0:0:0:0:
109,192,54701,128,0,54786:0:0:0:0:
402,192,54870,128,0,54955:0:0:0:0:
109,192,54870,128,0,54955:0:0:0:0:
402,192,55040,128,0,55464:0:0:0:0:
109,192,55040,128,0,55464:0:0:0:0:
182,192,55040,1,0,0:0:0:0:
329,192,55040,1,0,0:0:0:0:
475,192,55209,128,0,55294:0:0:0:0:
36,192,55209,128,0,55294:0:0:0:0:
36,192,55379,128,0,55464:0:0:0:0:
475,192,55379,128,0,55464:0:0:0:0:
475,192,55548,128,0,55718:0:0:0:0:
36,192,55548,128,0,55718:0:0:0:0:
109,192,55548,1,0,0:0:0:0:
402,192,55548,1,0,0:0:0:0:
182,192,55718,1,0,0:0:0:0:
329,192,55718,1,0,0:0:0:0:
256,192,55887,1,0,0:0:0:0:
36,192,55887,1,0,0:0:0:0:
475,192,55887,1,0,0:0:0:0:
109,192,56057,1,0,0:0:0:0:
402,192,56057,1,0,0:0:0:0:
182,192,56057,1,0,0:0:0:0:
329,192,56057,1,0,0:0:0:0:
256,192,56226,1,0,0:0:0:0:
36,192,56396,1,0,0:0:0:0:
109,192,56396,1,0,0:0:0:0:
402,192,56396,1,0,0:0:0:0:
475,192,56396,1,0,0:0:0:0:
475,192,56650,1,0,0:0:0:0:
329,192,56692,1,0,0:0:0:0:
182,192,56735,1,0,0:0:0:0:
402,192,58006,1,0,0:0:0:0:
256,192,58048,1,0,0:0:0:0:
109,192,58091,1,0,0:0:0:0:
36,192,59447,128,0,59531:0:0:0:0:
329,192,59447,128,0,59531:0:0:0:0:
109,192,59531,128,0,59616:0:0:0:0:
402,192,59531,128,0,59616:0:0:0:0:
182,192,59616,128,0,59701:0:0:0:0:
475,192,59616,128,0,59701:0:0:0:0:
256,192,59701,128,0,59786:0:0:0:0:
182,192,59786,128,0,59870:0:0:0:0:
475,192,59786,128,0,59870:0:0:0:0:
109,192,59870,128,0,59955:0:0:0:0:
402,192,59870,128,0,59955:0:0:0:0:
36,192,59955,128,0,60040:0:0:0:0:
329,192,59955,128,0,60040:0:0:0:0:
256,192,60040,128,0,60125:0:0:0:0:
329,192,60125,128,0,60209:0:0:0:0:
36,192,60125,128,0,60209:0:0:0:0:
402,192,60209,128,0,60294:0:0:0:0:
109,192,60209,128,0,60294:0:0:0:0:
475,192,60294,128,0,60379:0:0:0:0:
182,192,60294,128,0,60379:0:0:0:0:
256,192,60379,128,0,60464:0:0:0:0:
182,192,60464,128,0,60548:0:0:0:0:
475,192,60464,128,0,60548:0:0:0:0:
109,192,60548,128,0,60633:0:0:0:0:
402,192,60548,128,0,60633:0:0:0:0:
36,192,60633,128,0,60718:0:0:0:0:
329,192,60633,128,0,60718:0:0:0:0:
256,192,60718,128,0,60803:0:0:0:0:
329,192,60803,128,0,60887:0:0:0:0:
36,192,60803,128,0,60887:0:0:0:0:
402,192,60887,128,0,60972:0:0:0:0:
109,192,60887,128,0,60972:0:0:0:0:
475,192,60972,128,0,61057:0:0:0:0:
182,192,60972,128,0,61057:0:0:0:0:
256,192,61057,128,0,61142:0:0:0:0:
36,192,61142,128,0,61226:0:0:0:0:
329,192,61142,128,0,61226:0:0:0:0:
109,192,61226,128,0,61311:0:0:0:0:
402,192,61226,128,0,61311:0:0:0:0:
182,192,61311,128,0,61396:0:0:0:0:
475,192,61311,128,0,61396:0:0:0:0:
256,192,61396,128,0,61480:0:0:0:0:
36,192,61396,1,0,0:0:0:0:
329,192,61480,128,0,61565:0:0:0:0:
109,192,61480,1,0,0:0:0:0:
402,192,61565,128,0,61650:0:0:0:0:
182,192,61565,1,0,0:0:0:0:
329,192,61650,128,0,61735:0:0:0:0:
109,192,61650,1,0,0:0:0:0:
256,192,61735,128,0,61819:0:0:0:0:
36,192,61735,1,0,0:0:0:0:
182,192,61819,128,0,61904:0:0:0:0:
475,192,61819,128,0,61904:0:0:0:0:
109,192,61904,128,0,61989:0:0:0:0:
402,192,61904,128,0,61989:0:0:0:0:
36,192,61989,128,0,62074:0:0:0:0:
329,192,61989,128,0,62074:0:0:0:0:
256,192,62074,128,0,62158:0:0:0:0:
475,192,62074,1,0,0:0:0:0:
182,192,62158,128,0,62243:0:0:0:0:
402,192,62158,1,0,0:0:0:0:
109,192,62243,128,0,62328:0:0:0:0:
329,192,62243,1,0,0:0:0:0:
182,192,62328,128,0,62413:0:0:0:0:
402,192,62328,1,0,0:0:0:0:
256,192,62413,128,0,62497:0:0:0:0:
475,192,62413,1,0,0:0:0:0:
329,192,62497,128,0,62582:0:0:0:0:
36,192,62497,128,0,62582:0:0:0:0:
402,192,62582,128,0,62667:0:0:0:0:
109,192,62582,128,0,62667:0:0:0:0:
475,192,62667,128,0,62752:0:0:0:0:
182,192,62667,128,0,62752:0:0:0:0:
256,192,62752,128,0,62836:0:0:0:0:
36,192,62752,1,0,0:0:0:0:
329,192,62836,128,0,62921:0:0:0:0:
109,192,62836,1,0,0:0:0:0:
402,192,62921,128,0,63006:0:0:0:0:
182,192,62921,1,0,0:0:0:0:
329,192,63006,128,0,63091:0:0:0:0:
109,192,63006,1,0,0:0:0:0:
256,192,63091,128,0,63175:0:0:0:0:
36,192,63091,1,0,0:0:0:0:
182,192,63175,128,0,63260:0:0:0:0:
475,192,63175,1,0,0:0:0:0:
109,192,63260,128,0,63345:0:0:0:0:
402,192,63260,1,0,0:0:0:0:
36,192,63345,128,0,63430:0:0:0:0:
329,192,63345,1,0,0:0:0:0:
256,192,63430,1,0,0:0:0:0:
109,192,63514,1,0,0:0:0:0:
329,192,63514,1,0,0:0:0:0:
182,192,63514,128,0,63599:0:0:0:0:
36,192,63514,1,0,0:0:0:0:
256,192,63599,128,0,63684:0:0:0:0:
402,192,63599,1,0,0:0:0:0:
329,192,63684,128,0,63769:0:0:0:0:
475,192,63684,1,0,0:0:0:0:
402,192,63769,128,0,63853:0:0:0:0:
36,192,63769,1,0,0:0:0:0:
329,192,63853,128,0,63938:0:0:0:0:
182,192,63853,1,0,0:0:0:0:
256,192,63938,128,0,64023:0:0:0:0:
109,192,63938,1,0,0:0:0:0:
36,192,64023,128,0,64108:0:0:0:0:
182,192,64023,128,0,64108:0:0:0:0:
475,192,64023,1,0,0:0:0:0:
109,192,64192,128,0,64277:0:0:0:0:
256,192,64192,128,0,64277:0:0:0:0:
402,192,64192,1,0,0:0:0:0:
182,192,64362,128,0,64447:0:0:0:0:
329,192,64362,128,0,64447:0:0:0:0:
36,192,64362,1,0,0:0:0:0:
256,192,64531,128,0,64616:0:0:0:0:
402,192,64531,128,0,64616:0:0:0:0:
109,192,64531,1,0,0:0:0:0:
329,192,64701,128,0,64786:0:0:0:0:
475,192,64701,128,0,64786:0:0:0:0:
182,192,64701,1,0,0:0:0:0:
329,192,64870,1,0,0:0:0:0:
256,192,64870,1,0,0:0:0:0:
475,192,64870,1,0,0:0:0:0:
109,192,64870,1,0,0:0:0:0:
109,192,65209,128,0,65548:0:0:0:0:
182,192,65209,128,0,65718:0:0:0:0:
256,192,65209,128,0,65887:0:0:0:0:
329,192,65209,128,0,65718:0:0:0:0:
402,192,65209,128,0,65548:0:0:0:0:
475,192,65209,128,0,65379:0:0:0:0:
36,192,65209,128,0,65379:0:0:0:0:
475,192,65548,128,0,65633:0:0:0:0:
36,192,65548,128,0,65633:0:0:0:0:
109,192,65718,128,0,65802:0:0:0:0:
402,192,65718,128,0,65802:0:0:0:0:
329,192,65887,128,0,65972:0:0:0:0:
182,192,65887,128,0,65972:0:0:0:0:
256,192,66057,1,0,0:0:0:0:
36,192,66057,1,0,0:0:0:0:
109,192,66057,1,0,0:0:0:0:
402,192,66057,1,0,0:0:0:0:
475,192,66057,1,0,0:0:0:0:
36,192,66396,1,0,0:0:0:0:
182,192,66396,1,0,0:0:0:0:
329,192,66396,1,0,0:0:0:0:
109,192,66565,1,0,0:0:0:0:
256,192,66565,1,0,0:0:0:0:
402,192,66565,1,0,0:0:0:0:
182,192,66735,1,0,0:0:0:0:
475,192,66735,128,0,66819:0:0:0:0:
329,192,66735,128,0,66819:0:0:0:0:
109,192,66904,1,0,0:0:0:0:
402,192,66904,128,0,66989:0:0:0:0:
256,192,66904,128,0,66989:0:0:0:0:
36,192,67074,1,0,0:0:0:0:
329,192,67074,128,0,67158:0:0:0:0:
182,192,67074,128,0,67158:0:0:0:0:
256,192,67243,128,0,67328:0:0:0:0:
402,192,67243,128,0,67328:0:0:0:0:
109,192,67243,1,0,0:0:0:0:
329,192,67413,128,0,67497:0:0:0:0:
475,192,67413,128,0,67497:0:0:0:0:
182,192,67413,1,0,0:0:0:0:
36,192,67582,128,0,67921:0:0:0:0:
109,192,67582,128,0,67921:0:0:0:0:
182,192,67582,128,0,67752:0:0:0:0:
402,192,67582,128,0,67752:0:0:0:0:
256,192,67752,128,0,67921:0:0:0:0:
329,192,67752,128,0,67921:0:0:0:0:
182,192,67921,1,0,0:0:0:0:
402,192,67921,1,0,0:0:0:0:
109,192,68091,128,0,68430:0:0:0:0:
182,192,68091,128,0,68430:0:0:0:0:
256,192,68091,128,0,68260:0:0:0:0:
475,192,68091,128,0,68260:0:0:0:0:
329,192,68260,128,0,68430:0:0:0:0:
402,192,68260,128,0,68430:0:0:0:0:
256,192,68430,1,0,0:0:0:0:
475,192,68430,1,0,0:0:0:0:
182,192,68599,128,0,68938:0:0:0:0:
256,192,68599,128,0,68938:0:0:0:0:
329,192,68599,128,0,68769:0:0:0:0:
36,192,68599,128,0,68769:0:0:0:0:
109,192,68769,128,0,68938:0:0:0:0:
402,192,68769,128,0,68938:0:0:0:0:
36,192,68938,1,0,0:0:0:0:
329,192,68938,1,0,0:0:0:0:
256,192,69108,128,0,69447:0:0:0:0:
329,192,69108,128,0,69447:0:0:0:0:
402,192,69108,128,0,69277:0:0:0:0:
109,192,69108,128,0,69277:0:0:0:0:
475,192,69277,128,0,69447:0:0:0:0:
182,192,69277,128,0,69447:0:0:0:0:
402,192,69447,1,0,0:0:0:0:
109,192,69447,1,0,0:0:0:0:
329,192,69616,128,0,69955:0:0:0:0:
402,192,69616,128,0,69955:0:0:0:0:
109,192,69616,128,0,69786:0:0:0:0:
256,192,69616,128,0,69786:0:0:0:0:
182,192,69786,128,0,69955:0:0:0:0:
475,192,69786,128,0,69955:0:0:0:0:
36,192,69997,1,0,0:0:0:0:
109,192,70040,1,0,0:0:0:0:
182,192,70082,1,0,0:0:0:0:
256,192,70125,1,0,0:0:0:0:
329,192,70167,1,0,0:0:0:0:
402,192,70209,1,0,0:0:0:0:
475,192,70252,1,0,0:0:0:0:
36,192,70294,128,0,70379:0:0:0:0:
256,192,70294,1,0,0:0:0:0:
109,192,70379,128,0,70464:0:0:0:0:
329,192,70379,1,0,0:0:0:0:
182,192,70464,128,0,70548:0:0:0:0:
402,192,70464,1,0,0:0:0:0:
256,192,70548,128,0,70633:0:0:0:0:
475,192,70548,1,0,0:0:0:0:
329,192,70633,128,0,70718:0:0:0:0:
36,192,70633,1,0,0:0:0:0:
402,192,70718,128,0,70803:0:0:0:0:
109,192,70718,1,0,0:0:0:0:
475,192,70803,128,0,70887:0:0:0:0:
182,192,70803,1,0,0:0:0:0:
402,192,70887,128,0,70972:0:0:0:0:
109,192,70887,1,0,0:0:0:0:
329,192,70972,128,0,71057:0:0:0:0:
36,192,70972,1,0,0:0:0:0:
256,192,71057,128,0,71142:0:0:0:0:
475,192,71057,1,0,0:0:0:0:
182,192,71142,128,0,71226:0:0:0:0:
402,192,71142,1,0,0:0:0:0:
109,192,71226,128,0,71311:0:0:0:0:
329,192,71226,1,0,0:0:0:0:
36,192,71311,128,0,71396:0:0:0:0:
256,192,71311,1,0,0:0:0:0:
182,192,71396,1,0,0:0:0:0:
475,192,71396,128,0,71480:0:0:0:0:
109,192,71480,1,0,0:0:0:0:
402,192,71480,128,0,71565:0:0:0:0:
36,192,71565,1,0,0:0:0:0:
329,192,71565,128,0,71650:0:0:0:0:
109,192,71650,1,0,0:0:0:0:
402,192,71650,128,0,71735:0:0:0:0:
182,192,71735,1,0,0:0:0:0:
475,192,71735,128,0,71819:0:0:0:0:
256,192,71819,1,0,0:0:0:0:
36,192,71819,128,0,71904:0:0:0:0:
329,192,71904,1,0,0:0:0:0:
109,192,71904,128,0,71989:0:0:0:0:
402,192,71989,1,0,0:0:0:0:
182,192,71989,128,0,72074:0:0:0:0:
475,192,72074,1,0,0:0:0:0:
256,192,72074,128,0,72158:0:0:0:0:
329,192,72158,128,0,72243:0:0:0:0:
36,192,72158,1,0,0:0:0:0:
402,192,72243,128,0,72328:0:0:0:0:
109,192,72243,1,0,0:0:0:0:
475,192,72328,128,0,72413:0:0:0:0:
182,192,72328,1,0,0:0:0:0:
109,192,72413,1,0,0:0:0:0:
402,192,72413,128,0,72497:0:0:0:0:
36,192,72497,1,0,0:0:0:0:
329,192,72497,128,0,72582:0:0:0:0:
256,192,72582,128,0,72667:0:0:0:0:
475,192,72582,1,0,0:0:0:0:
182,192,72667,128,0,72752:0:0:0:0:
402,192,72667,1,0,0:0:0:0:
109,192,72752,128,0,72836:0:0:0:0:
329,192,72752,1,0,0:0:0:0:
182,192,72836,128,0,72921:0:0:0:0:
402,192,72836,1,0,0:0:0:0:
256,192,72921,128,0,73006:0:0:0:0:
475,192,72921,1,0,0:0:0:0:
329,192,73006,128,0,73091:0:0:0:0:
36,192,73006,1,0,0:0:0:0:
402,192,73091,128,0,73175:0:0:0:0:
109,192,73091,1,0,0:0:0:0:
475,192,73175,128,0,73260:0:0:0:0:
182,192,73175,1,0,0:0:0:0:
402,192,73260,128,0,73345:0:0:0:0:
109,192,73260,1,0,0:0:0:0:
329,192,73345,128,0,73430:0:0:0:0:
36,192,73345,1,0,0:0:0:0:
475,192,73430,1,0,0:0:0:0:
256,192,73430,128,0,73514:0:0:0:0:
402,192,73514,1,0,0:0:0:0:
182,192,73514,128,0,73599:0:0:0:0:
329,192,73599,1,0,0:0:0:0:
109,192,73599,128,0,73684:0:0:0:0:
402,192,73684,1,0,0:0:0:0:
182,192,73684,128,0,73769:0:0:0:0:
475,192,73769,1,0,0:0:0:0:
256,192,73769,128,0,73853:0:0:0:0:
36,192,73853,1,0,0:0:0:0:
329,192,73853,128,0,73938:0:0:0:0:
109,192,73938,1,0,0:0:0:0:
402,192,73938,128,0,74023:0:0:0:0:
182,192,74023,1,0,0:0:0:0:
475,192,74023,128,0,74108:0:0:0:0:
109,192,74108,1,0,0:0:0:0:
402,192,74108,128,0,74192:0:0:0:0:
36,192,74192,1,0,0:0:0:0:
329,192,74192,128,0,74277:0:0:0:0:
256,192,74277,128,0,74362:0:0:0:0:
475,192,74277,1,0,0:0:0:0:
402,192,74362,1,0,0:0:0:0:
182,192,74362,128,0,74447:0:0:0:0:
329,192,74447,1,0,0:0:0:0:
109,192,74447,128,0,74531:0:0:0:0:
256,192,74531,1,0,0:0:0:0:
36,192,74531,128,0,74616:0:0:0:0:
182,192,74616,1,0,0:0:0:0:
109,192,74701,1,0,0:0:0:0:
36,192,74786,1,0,0:0:0:0:
329,192,74870,128,0,74955:0:0:0:0:
475,192,74870,128,0,74955:0:0:0:0:
182,192,74870,1,0,0:0:0:0:
256,192,75040,128,0,75125:0:0:0:0:
402,192,75040,128,0,75125:0:0:0:0:
109,192,75040,1,0,0:0:0:0:
182,192,75209,128,0,75294:0:0:0:0:
329,192,75209,128,0,75294:0:0:0:0:
36,192,75209,1,0,0:0:0:0:
109,192,75379,128,0,75464:0:0:0:0:
256,192,75379,128,0,75464:0:0:0:0:
402,192,75379,1,0,0:0:0:0:
36,192,75548,128,0,75633:0:0:0:0:
182,192,75548,128,0,75633:0:0:0:0:
329,192,75548,1,0,0:0:0:0:
402,192,75718,128,0,76057:0:0:0:0:
109,192,75718,128,0,76057:0:0:0:0:
256,192,76057,1,0,0:0:0:0:
475,192,76226,128,0,76819:0:0:0:0:
36,192,76226,128,0,76819:0:0:0:0:
402,192,76226,128,0,76565:0:0:0:0:
109,192,76226,128,0,76565:0:0:0:0:
182,192,76565,1,0,0:0:0:0:
329,192,76565,1,0,0:0:0:0:
256,192,76735,1,0,0:0:0:0:
402,192,76904,1,0,0:0:0:0:
109,192,76904,1,0,0:0:0:0:
475,192,76904,1,0,0:0:0:0:
36,192,76904,1,0,0:0:0:0:
182,192,77243,1,0,0:0:0:0:
329,192,77243,1,0,0:0:0:0:
475,192,77243,1,0,0:0:0:0:
109,192,77413,1,0,0:0:0:0:
256,192,77413,1,0,0:0:0:0:
402,192,77413,1,0,0:0:0:0:
36,192,77582,1,0,0:0:0:0:
182,192,77582,1,0,0:0:0:0:
329,192,77582,1,0,0:0:0:0:
475,192,77752,128,0,78091:0:0:0:0:
256,192,77752,1,0,0:0:0:0:
109,192,77752,1,0,0:0:0:0:
36,192,78091,128,0,78430:0:0:0:0:
182,192,78091,1,0,0:0:0:0:
329,192,78091,1,0,0:0:0:0:
402,192,78430,128,0,79108:0:0:0:0:
256,192,78430,1,0,0:0:0:0:
109,192,78430,1,0,0:0:0:0:
182,192,78938,1,0,0:0:0:0:
109,192,79108,1,0,0:0:0:0:
256,192,79108,1,0,0:0:0:0:
256,192,79447,1,0,0:0:0:0:
402,192,79616,1,0,0:0:0:0:
256,192,79786,1,0,0:0:0:0:
36,192,79786,128,0,80125:0:0:0:0:
402,192,79955,1,0,0:0:0:0:
256,192,80125,1,0,0:0:0:0:
475,192,80125,128,0,80464:0:0:0:0:
109,192,80125,1,0,0:0:0:0:
109,192,80464,128,0,80803:0:0:0:0:
182,192,80464,1,0,0:0:0:0:
329,192,80464,1,0,0:0:0:0:
402,192,80803,128,0,81142:0:0:0:0:
36,192,80803,1,0,0:0:0:0:
475,192,80803,1,0,0:0:0:0:
182,192,81142,1,0,0:0:0:0:
329,192,81142,1,0,0:0:0:0:
109,192,83514,1,0,0:0:0:0:
402,192,83514,1,0,0:0:0:0:
182,192,83684,1,0,0:0:0:0:
329,192,83684,1,0,0:0:0:0:
475,192,83853,128,0,84192:0:0:0:0:
256,192,83853,1,0,0:0:0:0:
36,192,83853,1,0,0:0:0:0:
109,192,84023,1,0,0:0:0:0:
329,192,84192,128,0,84531:0:0:0:0:
182,192,84192,1,0,0:0:0:0:
402,192,84192,1,0,0:0:0:0:
256,192,84362,1,0,0:0:0:0:
182,192,84531,128,0,84870:0:0:0:0:
36,192,84531,1,0,0:0:0:0:
475,192,84531,1,0,0:0:0:0:
402,192,84701,1,0,0:0:0:0:
36,192,84870,128,0,85209:0:0:0:0:
475,192,84870,1,0,0:0:0:0:
256,192,84870,1,0,0:0:0:0:
109,192,84870,1,0,0:0:0:0:
182,192,85040,1,0,0:0:0:0:
402,192,85040,1,0,0:0:0:0:
109,192,85209,1,0,0:0:0:0:
329,192,85209,1,0,0:0:0:0:
256,192,85379,1,0,0:0:0:0:
109,192,85548,1,0,0:0:0:0:
402,192,85548,1,0,0:0:0:0:
182,192,85633,1,0,0:0:0:0:
256,192,85718,1,0,0:0:0:0:
182,192,85803,1,0,0:0:0:0:
36,192,85887,128,0,89277:0:0:0:0:
109,192,85887,1,0,0:0:0:0:
475,192,85887,1,0,0:0:0:0:
329,192,85972,1,0,0:0:0:0:
182,192,86057,1,0,0:0:0:0:
402,192,86142,1,0,0:0:0:0:
256,192,86226,1,0,0:0:0:0:
109,192,86226,1,0,0:0:0:0:
182,192,86396,128,0,89277:0:0:0:0:
329,192,86396,128,0,89277:0:0:0:0:
475,192,86396,128,0,89277:0:0:0:0:
