osu file format v14

[General]
AudioFilename: audio.mp3
AudioLeadIn: 0
PreviewTime: 256102
Countdown: 0
SampleSet: Soft
StackLeniency: 0.7
Mode: 0
LetterboxInBreaks: 0
WidescreenStoryboard: 1

[Editor]
Bookmarks: 637,13560,15406,30175,44945,59714,74484,87407,89253,104023,118792,133562,135408,150177,164947,179716,192639,194486,209255,224025,240640,242486,255410,257256,272025,286795,288641,303410
DistanceSpacing: 1
BeatDivisor: 1
GridSize: 4
TimelineZoom: 1

[Metadata]
Title:Sleeping Butterfly
TitleUnicode:Sleeping Butterfly
Artist:Choucho
ArtistUnicode:ちょうちょう
Creator:Project Railgun
Version:Easy
Source:神様のメモ帳
Tags:project_railgun ちょうちょう kawarumirai カワルミライ kamisama no memochou 変わる未来
BeatmapID:993828
BeatmapSetID:462161

[Difficulty]
HPDrainRate:3.7
CircleSize:2.5
OverallDifficulty:3.2
ApproachRate:4
SliderMultiplier:0.999999999999999
SliderTickRate:1

[Events]
//Background and Video events
0,0,"bg.jpg",0,0
//Break Periods
//Storyboard Layer 0 (Background)
//Storyboard Layer 1 (Fail)
//Storyboard Layer 2 (Pass)
//Storyboard Layer 3 (Foreground)
//Storyboard Sound Samples

[TimingPoints]
637,461.545562239419,4,2,1,70,1,0
15406,-100,4,2,1,70,0,1
30118,-100,4,2,1,70,0,0
30175,-100,4,2,1,70,0,1
44887,-100,4,2,1,70,0,0
44945,-100,4,2,1,70,0,1
45003,-100,4,2,1,70,0,0
89253,-100,4,2,1,70,0,1
103965,-100,4,2,1,70,0,0
104023,-100,4,2,1,70,0,1
118734,-100,4,2,1,70,0,0
118792,-100,4,2,1,70,0,1
133562,-100,4,2,1,70,0,0
135408,-100,4,2,1,70,0,1
150120,-100,4,2,1,70,0,0
150177,-100,4,2,1,70,0,1
150235,-100,4,2,1,70,0,0
194486,-100,4,2,1,70,0,1
209197,-100,4,2,1,70,0,0
209255,-100,4,2,1,70,0,1
223967,-100,4,2,1,70,0,0
224025,-100,4,2,1,70,0,1
224082,-100,4,2,1,70,0,0
242486,-100,4,2,1,70,0,1
242544,-100,4,2,1,70,0,0
257256,-100,4,2,1,70,0,1
271968,-100,4,2,1,70,0,0
272025,-100,4,2,1,70,0,1
286795,-100,4,2,1,70,0,0
288641,-100,4,2,1,70,0,1
303353,-100,4,2,1,70,0,0
303410,-100,4,2,1,70,0,1
303468,-100,4,2,1,70,0,0

[Colours]
Combo1 : 239,233,114
Combo2 : 168,218,165
Combo3 : 194,160,207
Combo4 : 148,218,216

[HitObjects]
168,256,637,6,0,P|253:211|338:257,1,200
408,328,2021,1,0,0:0:0:0:
464,244,2483,2,0,B|488:148|488:148|448:52,1,200
348,44,3867,1,0,0:0:0:0:
256,88,4329,6,0,B|236:146|292:202|255:284,1,200
172,340,5714,1,0,0:0:0:0:
87,283,6175,2,0,P|44:196|70:102,1,200
148,36,7560,1,0,0:0:0:0:
224,100,8021,6,0,B|288:112|288:112|352:88|352:88|418:95,1,200
472,180,9406,1,0,0:0:0:0:
392,244,9867,2,0,P|353:275|304:281,1,99.9999999999999
207,281,10791,2,0,P|158:275|120:244,1,99.9999999999999
96,148,11714,5,0,0:0:0:0:
164,76,12175,1,0,0:0:0:0:
248,132,12637,2,0,L|347:128,1,99.9999999999999
432,76,13560,1,0,0:0:0:0:
340,256,14483,2,0,P|291:267|244:255,1,99.9999999999999
148,228,15406,6,0,L|132:129,1,99.9999999999999
168,36,16329,1,0,0:0:0:0:
256,84,16791,1,0,0:0:0:0:
344,36,17252,2,0,P|412:52|436:84,1,99.9999999999999
360,144,18175,2,0,L|344:242,1,99.9999999999999
428,296,19098,6,0,L|443:197,1,99.9999999999999
444,96,20021,2,0,P|409:60|361:53,1,99.9999999999999
288,124,20945,1,0,0:0:0:0:
216,56,21406,1,0,0:0:0:0:
116,56,21868,1,0,0:0:0:0:
44,124,22329,1,0,0:0:0:0:
140,160,22791,6,0,P|155:206|147:255,2,99.9999999999999
208,88,24175,2,0,P|256:100|304:89,1,99.9999999999999
372,160,25098,2,0,P|356:206|364:255,1,99.9999999999999
464,272,26022,6,0,P|479:225|471:176,1,99.9999999999999
432,84,26945,2,0,P|384:68|335:74,1,99.9999999999999
256,136,27868,2,0,B|236:184|276:184|258:233,1,99.9999999999999
172,288,28791,1,0,0:0:0:0:
92,228,29252,1,0,0:0:0:0:
96,128,29714,1,0,0:0:0:0:
172,60,30175,5,0,0:0:0:0:
252,120,30637,2,0,B|352:168|352:84|444:124,2,200
171,60,32945,2,0,P|152:105|159:154,1,99.9999999999999
212,240,33868,1,0,0:0:0:0:
304,284,34329,6,0,P|401:277|463:202,2,200
212,240,36637,2,0,L|192:128,1,99.9999999999999
140,56,37560,1,0,0:0:0:0:
68,128,38022,6,0,L|104:332,2,200
139,56,40329,2,0,P|188:47|235:64,1,99.9999999999999
316,124,41253,1,0,0:0:0:0:
340,220,41714,6,0,P|336:269|306:307,1,99.9999999999999
205,307,42637,2,0,P|175:269|172:220,1,99.9999999999999
184,120,43560,1,0,0:0:0:0:
256,48,44022,1,0,0:0:0:0:
328,120,44483,1,0,0:0:0:0:
256,192,44945,5,0,0:0:0:0:
183,120,45406,2,0,P|101:171|91:267,2,200
256,48,47714,1,0,0:0:0:0:
328,120,48176,1,0,0:0:0:0:
256,192,48637,1,0,0:0:0:0:
176,252,49099,6,0,P|258:300|341:252,2,200
80,228,51407,1,0,0:0:0:0:
8,160,51868,1,0,0:0:0:0:
72,84,52330,1,0,0:0:0:0:
148,147,52791,6,0,P|242:119|336:149,1,200
415,208,54176,2,0,P|436:162|428:114,2,99.9999999999999
344,280,55560,1,0,0:0:0:0:
256,236,56022,6,0,B|279:133|219:137|244:40,2,200
184,304,58330,1,0,0:0:0:0:
92,348,58791,1,0,0:0:0:0:
48,260,59253,1,0,0:0:0:0:
136,212,59714,5,0,0:0:0:0:
184,304,60176,2,0,P|277:324|347:258,1,200
388,168,61561,2,0,L|400:68,1,99.9999999999999
308,32,62484,2,0,L|295:131,1,99.9999999999999
240,216,63407,1,0,0:0:0:0:
168,288,63868,6,0,P|77:258|62:164,1,200
148,108,65253,2,0,P|184:74|208:27,1,99.9999999999999
304,30,66176,2,0,P|327:74|364:108,1,99.9999999999999
449,164,67099,1,0,0:0:0:0:
364,220,67561,6,0,B|276:220|277:295|183:295,1,200
100,240,68945,2,0,P|79:284|87:333,2,99.9999999999999
40,160,70330,1,0,0:0:0:0:
108,84,70791,2,0,L|205:59,1,99.9999999999999
306,59,71715,2,0,L|404:84,1,99.9999999999999
476,152,72638,5,0,0:0:0:0:
464,252,73099,1,0,0:0:0:0:
380,304,73561,1,0,0:0:0:0:
296,244,74022,1,0,0:0:0:0:
236,164,74484,6,0,P|148:124|64:180,2,200
156,224,76792,2,0,L|136:324,2,99.9999999999999
236,164,78176,1,0,0:0:0:0:
296,244,78638,6,0,P|343:256|389:237,1,99.9999999999999
460,164,79561,1,0,0:0:0:0:
388,96,80022,2,0,P|340:83|294:102,2,99.9999999999999
460,164,81407,1,0,0:0:0:0:
389,237,81869,6,0,B|290:209|294:277|194:236,1,200
108,184,83253,1,0,0:0:0:0:
128,87,83715,2,0,P|158:49|206:38,1,99.9999999999999
305,38,84638,2,0,P|353:49|383:87,1,99.9999999999999
404,184,85561,5,0,0:0:0:0:
348,268,86022,1,0,0:0:0:0:
284,192,86484,2,0,L|184:185,1,99.9999999999999
108,248,87407,1,0,0:0:0:0:
256,112,88330,2,0,P|324:104|356:124,1,99.9999999999999
408,200,89253,6,0,L|393:298,1,99.9999999999999
300,340,90176,1,0,0:0:0:0:
232,264,90638,1,0,0:0:0:0:
156,328,91099,2,0,P|109:343|62:329,1,99.9999999999999
36,232,92023,2,0,L|51:133,1,99.9999999999999
152,116,92946,6,0,L|136:214,1,99.9999999999999
208,284,93869,2,0,P|255:297|303:284,1,99.9999999999999
396,244,94792,1,0,0:0:0:0:
448,160,95253,1,0,0:0:0:0:
396,76,95715,1,0,0:0:0:0:
296,92,96176,1,0,0:0:0:0:
215,148,96638,6,0,P|166:153|122:131,2,99.9999999999999
296,91,98023,2,0,L|395:81,1,99.9999999999999
448,168,98946,2,0,L|348:178,1,99.9999999999999
256,212,99869,1,0,0:0:0:0:
172,268,100330,6,0,P|174:317|206:354,1,99.9999999999999
305,354,101253,2,0,P|337:317|340:268,1,99.9999999999999
304,172,102177,1,0,0:0:0:0:
212,136,102638,1,0,0:0:0:0:
152,216,103100,2,0,L|140:316,1,99.9999999999999
52,268,104023,6,0,L|64:168,1,99.9999999999999
116,84,104946,1,0,0:0:0:0:
196,144,105407,1,0,0:0:0:0:
280,91,105869,2,0,P|327:79|376:90,1,99.9999999999999
432,176,106792,2,0,L|452:316,1,99.9999999999999
