osu file format v14

[General]
AudioFilename: Authentic Symphony.mp3
AudioLeadIn: 0
PreviewTime: 55091
Countdown: 0
SampleSet: Soft
StackLeniency: 0.7
Mode: 3
LetterboxInBreaks: 0
SpecialStyle: 0
WidescreenStoryboard: 0

[Editor]
DistanceSpacing: 1.2
BeatDivisor: 4
GridSize: 4
TimelineZoom: 2.1

[Metadata]
Title:Authentic Symphony (TV Size)
TitleUnicode:オーセンティック・シンフォニー (TV Size)
Artist:Choucho
ArtistUnicode:ちょうちょ
Creator:Aikawa
Version:7K HD
Source:ましろ色シンフォニー -Love is pure white-
Tags:Visual Novel Eroge Anime Opening Song
BeatmapID:504475
BeatmapSetID:214755

[Difficulty]
HPDrainRate:8
CircleSize:7
OverallDifficulty:8
ApproachRate:5
SliderMultiplier:1.6
SliderTickRate:1

[Events]
//Background and Video events
Video,0,"Mashiro-iro Symphony.avi"
0,0,"bg.jpg",0,0
//Break Periods
//Storyboard Layer 0 (Background)
//Storyboard Layer 1 (Fail)
//Storyboard Layer 2 (Pass)
//Storyboard Layer 3 (Foreground)
//Storyboard Sound Samples

[TimingPoints]
-280,342.857142857143,4,2,1,50,1,0
55948,-100,4,2,1,100,0,1
77891,-100,4,2,1,100,0,0

[HitObjects]
182,192,2120,5,0,0:0:0:70:normal-hitclap5.wav
329,192,2120,1,0,0:0:0:0:
64,192,2462,128,0,3320:0:0:0:70:normal-hitfinish2.wav
448,192,2462,1,0,0:0:0:70:normal-hitclap5.wav
256,192,2462,1,0,0:0:0:0:
320,192,2805,1,0,0:0:0:0:
192,192,2977,1,0,0:0:0:0:
182,192,3320,1,0,0:0:0:0:
329,192,3320,128,0,3662:0:0:0:0:
109,192,3662,1,0,0:0:0:70:normal-hitclap5.wav
448,192,3662,128,0,5148:0:0:0:70:normal-hitfinish2.wav
256,192,3662,1,0,0:0:0:0:
36,192,4005,1,0,0:0:0:0:
329,192,4291,1,0,0:0:0:70:soft-hitclap4.wav
182,192,4291,1,0,0:0:0:0:
329,192,4634,1,0,0:0:0:70:normal-hitclap5.wav
182,192,4805,1,0,0:0:0:70:normal-hitclap5.wav
36,192,4977,1,0,0:0:0:70:normal-hitclap5.wav
109,192,5148,1,0,0:0:0:0:
256,192,5148,1,0,0:0:0:70:normal-hitfinish2.wav
402,192,5148,128,0,5720:0:0:0:70:normal-hitclap5.wav
256,192,5548,1,0,0:0:0:0:
109,192,5720,128,0,6405:0:0:0:0:
329,192,6062,1,0,0:0:0:0:
475,192,6405,128,0,7262:0:0:0:70:normal-hitclap5.wav
329,192,6405,1,0,0:0:0:0:
182,192,6405,1,0,0:0:0:70:normal-hitfinish2.wav
256,192,6748,1,0,0:0:0:70:soft-hitclap2.wav
109,192,6748,1,0,0:0:0:0:
402,192,7091,1,0,0:0:0:70:FPC_Tom_12inPr_004.wav
36,192,7262,128,0,7948:0:0:0:0:
256,192,7262,1,0,0:0:0:70:FPC_Tom_12inPr_004.wav
109,192,7434,1,0,0:0:0:70:FPC_Tom_12inPr_004.wav
475,192,7605,1,0,0:0:0:70:FPC_Tom_GtomMid_001.wav
402,192,7777,1,0,0:0:0:70:FPC_Tom_14inPr_002.wav
448,192,7948,128,0,10348:0:0:0:70:normal-hitfinish2.wav
329,192,7948,1,0,0:0:0:70:normal-hitfinish2.wav
182,192,7948,1,0,0:0:0:0:
329,192,8634,128,0,9148:0:0:0:0:
256,192,9148,128,0,9320:0:0:0:0:
182,192,9320,128,0,10691:0:0:0:0:
36,192,10691,128,0,13434:0:0:0:70:normal-hitclap5.wav
475,192,10691,1,0,0:0:0:70:soft-hitnormal5.wav
329,192,10862,1,0,0:0:0:70:soft-hitnormal5.wav
182,192,11034,1,0,0:0:0:70:soft-hitnormal5.wav
329,192,11205,1,0,0:0:0:70:soft-hitnormal5.wav
402,192,11548,1,0,0:0:0:70:soft-hitnormal5.wav
475,192,11891,1,0,0:0:0:70:soft-hitnormal5.wav
329,192,12405,1,0,0:0:0:0:
182,192,12577,1,0,0:0:0:0:
402,192,12920,1,0,0:0:0:0:
256,192,13091,1,0,0:0:0:0:
109,192,13262,1,0,0:0:0:0:
329,192,13434,1,0,0:0:0:50:soft-hitnormal5.wav
475,192,13434,128,0,16177:0:0:0:0:
182,192,13605,1,0,0:0:0:50:soft-hitnormal5.wav
36,192,13777,1,0,0:0:0:50:soft-hitnormal5.wav
182,192,13948,1,0,0:0:0:50:soft-hitnormal5.wav
109,192,14291,1,0,0:0:0:50:soft-hitnormal5.wav
36,192,14634,1,0,0:0:0:70:soft-hitnormal5.wav
329,192,15662,1,0,0:0:0:0:
182,192,15834,1,0,0:0:0:0:
256,192,16005,1,0,0:0:0:0:
36,192,16177,128,0,18920:0:0:0:50:soft-hitnormal5.wav
329,192,16177,1,0,0:0:0:50:normal-hitclap5.wav
402,192,16177,1,0,0:0:0:0:
182,192,16348,1,0,0:0:0:50:soft-hitnormal5.wav
329,192,16520,1,0,0:0:0:50:soft-hitnormal5.wav
475,192,16691,1,0,0:0:0:50:soft-hitnormal5.wav
329,192,17034,1,0,0:0:0:50:soft-hitnormal5.wav
182,192,17377,1,0,0:0:0:70:soft-hitnormal5.wav
402,192,17720,1,0,0:0:0:0:
329,192,17891,1,0,0:0:0:0:
256,192,18062,1,0,0:0:0:0:
402,192,18405,1,0,0:0:0:0:
109,192,18577,1,0,0:0:0:0:
256,192,18748,1,0,0:0:0:0:
475,192,18920,128,0,21662:0:0:0:0:
402,192,18920,1,0,0:0:0:50:soft-hitnormal5.wav
256,192,19091,1,0,0:0:0:50:soft-hitnormal5.wav
109,192,19262,1,0,0:0:0:50:soft-hitnormal5.wav
256,192,19434,1,0,0:0:0:50:soft-hitnormal5.wav
182,192,19777,1,0,0:0:0:50:soft-hitnormal5.wav
109,192,20120,1,0,0:0:0:50:soft-hitnormal5.wav
182,192,20462,1,0,0:0:0:50:soft-hitnormal5.wav
36,192,20805,1,0,0:0:0:70:soft-hitnormal5.wav
329,192,20977,1,0,0:0:0:70:soft-hitnormal5.wav
182,192,21062,1,0,0:0:0:70:soft-hitnormal5.wav
36,192,21148,1,0,0:0:0:70:soft-hitnormal5.wav
329,192,21234,1,0,0:0:0:70:soft-hitnormal5.wav
182,192,21320,1,0,0:0:0:70:soft-hitnormal5.wav
36,192,21405,1,0,0:0:0:70:soft-hitnormal5.wav
402,192,21491,1,0,0:0:0:70:normal-hitclap5.wav
329,192,21491,1,0,0:0:0:70:soft-hitnormal5.wav
182,192,21577,1,0,0:3:0:70:soft-hitnormal5.wav
36,192,21662,128,0,24405:0:0:0:70:soft-hitnormal5.wav
402,192,21662,1,0,0:0:0:70:normal-hitclap5.wav
182,192,21834,1,0,0:0:0:50:soft-hitnormal5.wav
329,192,22005,1,0,0:0:0:50:soft-hitnormal5.wav
475,192,22177,1,0,0:0:0:70:soft-hitnormal5.wav
256,192,22348,1,0,0:0:0:70:drum-hitnormal.wav
109,192,22348,1,0,0:0:0:0:
402,192,22520,1,0,0:0:0:50:soft-hitnormal5.wav
182,192,22862,128,0,24405:0:0:0:70:soft-hitnormal5.wav
329,192,23377,1,0,0:0:0:0:
475,192,23548,1,0,0:0:0:0:
256,192,23891,1,0,0:0:0:0:
329,192,24062,1,0,0:0:0:0:
402,192,24234,1,0,0:0:0:0:
475,192,24405,128,0,27148:0:0:0:70:soft-hitnormal5.wav
329,192,24577,1,0,0:0:0:70:soft-hitnormal5.wav
182,192,24748,1,0,0:0:0:70:soft-hitnormal5.wav
36,192,24920,1,0,0:0:0:70:soft-hitnormal5.wav
256,192,25091,1,0,0:0:0:70:drum-hitnormal.wav
402,192,25091,1,0,0:0:0:0:
109,192,25262,1,0,0:0:0:70:soft-hitnormal5.wav
329,192,25605,128,0,27148:0:0:0:70:soft-hitnormal5.wav
256,192,26634,1,0,0:0:0:0:
182,192,26805,1,0,0:0:0:0:
109,192,26977,1,0,0:0:0:0:
36,192,27148,128,0,29891:0:0:0:70:soft-hitnormal5.wav
256,192,27148,1,0,0:0:0:70:normal-hitclap5.wav
182,192,27320,1,0,0:0:0:70:soft-hitnormal5.wav
329,192,27491,1,0,0:0:0:70:soft-hitnormal5.wav
475,192,27662,1,0,0:0:0:70:soft-hitnormal5.wav
256,192,27834,1,0,0:0:0:70:drum-hitnormal.wav
109,192,27834,1,0,0:0:0:0:
475,192,28005,1,0,0:0:0:70:soft-hitnormal5.wav
402,192,28348,128,0,29891:0:0:0:70:soft-hitnormal5.wav
109,192,28691,128,0,29034:0:0:0:0:
182,192,29034,128,0,29377:0:0:0:0:
329,192,29377,1,0,0:0:0:0:
256,192,29548,1,0,0:0:0:0:
182,192,29720,1,0,0:0:0:0:
475,192,29891,128,0,32634:0:0:0:0:
329,192,29891,1,0,0:0:0:70:soft-hitnormal5.wav
182,192,30062,1,0,0:0:0:70:soft-hitnormal5.wav
36,192,30234,1,0,0:0:0:70:soft-hitnormal5.wav
256,192,30405,1,0,0:0:0:70:soft-hitnormal5.wav
402,192,30577,1,0,0:0:0:0:
182,192,30577,1,0,0:0:0:70:drum-hitnormal.wav
109,192,30748,1,0,0:0:0:70:soft-hitnormal5.wav
36,192,31091,128,0,32634:0:0:0:70:soft-hitnormal5.wav
256,192,31434,1,0,0:0:0:70:soft-hitnormal5.wav
256,192,31777,1,0,0:0:0:70:soft-hitnormal5.wav
402,192,31948,1,0,0:0:0:70:soft-hitnormal5.wav
256,192,32034,1,0,0:0:0:70:soft-hitnormal5.wav
109,192,32120,1,0,0:0:0:70:soft-hitnormal5.wav
402,192,32205,1,0,0:0:0:70:soft-hitnormal5.wav
256,192,32291,1,0,0:0:0:70:soft-hitnormal5.wav
109,192,32377,1,0,0:0:0:70:soft-hitnormal5.wav
402,192,32462,1,0,0:0:0:70:soft-hitnormal5.wav
256,192,32548,1,0,0:0:0:70:soft-hitnormal5.wav
109,192,32634,5,0,0:0:0:70:normal-hitclap5.wav
402,192,32634,1,0,0:0:0:70:soft-hitnormal5.wav
329,192,32805,1,0,0:0:0:0:
36,192,32977,1,0,0:0:0:70:normal-hitclap5.wav
256,192,33148,1,0,0:0:0:0:
64,192,33320,1,0,0:0:0:70:normal-hitclap5.wav
182,192,33491,1,0,0:0:0:0:
64,192,33662,1,0,0:0:0:70:normal-hitclap5.wav
475,192,33834,1,0,0:0:0:70:soft-hitclap5.wav
329,192,33834,1,0,0:0:0:0:
36,192,34005,1,0,0:0:0:70:normal-hitclap5.wav
329,192,34177,1,0,0:0:0:0:
36,192,34348,1,0,0:0:0:70:normal-hitclap5.wav
256,192,34434,1,0,0:0:0:0:
475,192,34520,1,0,0:0:0:0:
402,192,34605,1,0,0:0:0:0:
36,192,34691,1,0,0:0:0:70:normal-hitclap5.wav
182,192,34691,1,0,0:0:0:70:drum-hitclap5.wav
329,192,34691,1,0,0:0:0:0:
256,192,34862,1,0,0:0:0:0:
402,192,34948,1,0,0:0:0:70:drum-hitclap5.wav
475,192,34948,1,0,0:0:0:0:
36,192,35034,1,0,0:0:0:70:normal-hitclap5.wav
182,192,35034,1,0,0:0:0:0:
402,192,35205,1,0,0:0:0:70:drum-hitclap5.wav
475,192,35205,1,0,0:0:0:0:
329,192,35377,1,0,0:0:0:70:normal-hitclap5.wav
182,192,35548,1,0,0:0:0:0:
36,192,35720,1,0,0:0:0:70:normal-hitclap5.wav
475,192,35891,1,0,0:0:0:0:
329,192,36062,1,0,0:0:0:70:normal-hitclap5.wav
36,192,36062,1,0,0:0:0:70:soft-hitclap4.wav
182,192,36062,1,0,0:0:0:70:normal-hitfinish2.wav
402,192,36234,1,0,0:0:0:0:
329,192,36405,1,0,0:0:0:70:normal-hitclap5.wav
182,192,36405,1,0,0:0:0:0:
256,192,36577,1,0,0:0:0:70:normal-hitclap5.wav
402,192,36748,1,0,0:0:0:70:normal-hitclap5.wav
182,192,36920,1,0,0:0:0:70:normal-hitclap5.wav
329,192,37091,1,0,0:0:0:70:normal-hitclap5.wav
109,192,37262,1,0,0:0:0:70:normal-hitclap5.wav
36,192,37262,1,0,0:0:0:0:
256,192,37434,1,0,0:0:0:70:normal-hitclap5.wav
36,192,37605,1,0,0:0:0:70:normal-hitclap5.wav
475,192,37605,1,0,0:0:0:0:
182,192,37777,1,0,0:0:0:70:normal-hitclap5.wav
329,192,37777,1,0,0:0:0:70:soft-hitclap2.wav
475,192,38120,128,0,39320:0:0:0:70:normal-hitfinish2.wav
329,192,38120,1,0,0:0:0:70:normal-hitclap5.wav
182,192,38120,1,0,0:0:0:0:
109,192,38291,1,0,0:0:0:0:
36,192,38462,1,0,0:0:0:70:normal-hitclap5.wav
256,192,38634,1,0,0:0:0:0:
109,192,38805,1,0,0:0:0:70:normal-hitclap5.wav
182,192,38805,1,0,0:0:0:0:
402,192,38977,1,0,0:0:0:0:
109,192,39148,1,0,0:0:0:70:normal-hitclap5.wav
182,192,39320,1,0,0:0:0:70:soft-hitclap4.wav
256,192,39320,128,0,40605:0:0:0:0:
329,192,39320,1,0,0:0:0:0:
109,192,39491,1,0,0:0:0:70:normal-hitclap5.wav
402,192,39662,1,0,0:0:0:0:
109,192,39834,1,0,0:0:0:70:normal-hitclap5.wav
36,192,39920,1,0,0:0:0:0:
402,192,40005,1,0,0:0:0:0:
182,192,40091,1,0,0:0:0:0:
109,192,40177,1,0,0:0:0:70:normal-hitclap5.wav
475,192,40177,1,0,0:0:0:70:drum-hitclap5.wav
329,192,40177,1,0,0:0:0:0:
182,192,40348,1,0,0:0:0:0:
448,192,40434,1,0,0:0:0:70:drum-hitclap5.wav
329,192,40434,1,0,0:0:0:0:
64,192,40520,1,0,0:0:0:70:normal-hitclap5.wav
182,192,40520,1,0,0:0:0:0:
329,192,40691,1,0,0:0:0:70:drum-hitclap5.wav
182,192,40691,1,0,0:0:0:0:
109,192,40777,1,0,0:0:0:0:
402,192,40862,1,0,0:0:0:70:normal-hitclap5.wav
64,192,40862,128,0,42062:0:0:0:0:
182,192,41034,1,0,0:0:0:0:
402,192,41205,1,0,0:0:0:70:normal-hitclap5.wav
109,192,41377,1,0,0:0:0:0:
402,192,41548,1,0,0:0:0:70:normal-hitfinish2.wav
256,192,41548,1,0,0:0:0:70:normal-hitclap5.wav
329,192,41548,1,0,0:0:0:0:
182,192,41720,1,0,0:0:0:0:
329,192,41891,1,0,0:0:0:70:normal-hitclap5.wav
256,192,42062,1,0,0:0:0:70:soft-hitclap4.wav
475,192,42062,128,0,43605:0:0:0:0:
109,192,42062,1,0,0:0:0:0:
182,192,42234,1,0,0:0:0:70:soft-hitclap4.wav
329,192,42234,1,0,0:0:0:0:
256,192,42405,1,0,0:0:0:70:normal-hitclap5.wav
256,192,42577,1,0,0:0:0:70:normal-hitclap5.wav
402,192,42748,1,0,0:0:0:70:soft-hitclap4.wav
182,192,42748,1,0,0:0:0:0:
182,192,42920,1,0,0:0:0:70:FPC_Tom_12inPr_004.wav
329,192,42920,1,0,0:0:0:0:
109,192,43091,1,0,0:0:0:70:FPC_Tom_12inPr_004.wav
256,192,43091,1,0,0:0:0:0:
182,192,43262,1,0,0:0:0:70:FPC_Tom_14inPr_002.wav
402,192,43262,1,0,0:0:0:0:
109,192,43434,1,0,0:0:0:70:FPC_Tom_14inPr_002.wav
256,192,43434,1,0,0:0:0:0:
192,192,43605,1,0,0:0:0:70:normal-hitfinish2.wav
329,192,43605,128,0,44805:0:0:0:70:normal-hitclap5.wav
36,192,43605,1,0,0:0:0:0:
109,192,44120,1,0,0:0:0:70:normal-hitclap5.wav
36,192,44291,1,0,0:0:0:70:soft-hitclap2.wav
182,192,44291,1,0,0:0:0:0:
36,192,44634,1,0,0:0:0:0:
182,192,44805,1,0,0:0:0:70:normal-hitfinish2.wav
475,192,44805,128,0,46348:0:0:0:70:normal-hitclap5.wav
109,192,44805,1,0,0:0:0:0:
182,192,45148,1,0,0:0:0:70:soft-hitclap5.wav
329,192,45148,1,0,0:0:0:0:
192,192,45491,1,0,0:0:0:80:FPC_Tom_12inPr_004.wav
402,192,45491,1,0,0:0:0:70:normal-hitclap5.wav
109,192,45662,1,0,0:0:0:80:FPC_Tom_12inPr_004.wav
329,192,45662,1,0,0:0:0:70:normal-hitclap5.wav
64,192,45834,1,0,0:0:0:80:FPC_Tom_GtomMid_001.wav
256,192,45834,1,0,0:0:0:70:normal-hitclap5.wav
182,192,46005,1,0,0:0:0:85:FPC_Tom_14inPr_002.wav
402,192,46005,1,0,0:0:0:70:normal-hitclap5.wav
192,192,46177,1,0,0:0:0:85:FPC_Tom_14inPr_002.wav
329,192,46177,1,0,0:0:0:70:normal-hitclap5.wav
402,192,46348,1,0,0:0:0:70:normal-hitfinish2.wav
64,192,46348,128,0,47548:0:0:0:0:
109,192,46348,1,0,0:0:0:70:normal-hitclap5.wav
256,192,46520,1,0,0:0:0:70:normal-hitclap5.wav
256,192,46862,1,0,0:0:0:70:normal-hitclap5.wav
329,192,47034,1,0,0:0:0:70:soft-hitclap.wav
182,192,47034,1,0,0:0:0:0:
402,192,47205,1,0,0:0:0:70:soft-hitclap5.wav
256,192,47205,1,0,0:0:0:0:
329,192,47377,1,0,0:0:0:70:normal-hitclap5.wav
109,192,47377,1,0,0:0:0:0:
256,192,47548,1,0,0:0:0:70:normal-hitclap5.wav
448,192,47548,128,0,49091:0:0:0:70:normal-hitfinish2.wav
182,192,47548,1,0,0:0:0:0:
402,192,47891,1,0,0:0:0:70:normal-hitclap5.wav
256,192,48062,1,0,0:0:0:70:normal-hitclap5.wav
109,192,48234,1,0,0:0:0:70:soft-hitclap.wav
36,192,48234,1,0,0:0:0:0:
320,192,48405,1,0,0:0:0:70:soft-hitclap.wav
402,192,48405,1,0,0:0:0:0:
109,192,48577,1,0,0:0:0:70:normal-hitclap5.wav
320,192,48748,1,0,0:0:0:70:soft-hitclap.wav
402,192,48748,1,0,0:0:0:0:
256,192,49091,1,0,0:0:0:70:normal-hitclap5.wav
109,192,49091,128,0,49262:0:0:0:0:
329,192,49262,1,0,0:0:0:0:
256,192,49434,1,0,0:0:0:70:normal-hitclap5.wav
109,192,49434,128,0,49605:0:0:0:0:
329,192,49605,1,0,0:0:0:0:
256,192,49777,1,0,0:0:0:70:normal-hitclap5.wav
109,192,49777,128,0,49948:0:0:0:0:
329,192,49948,1,0,0:0:0:0:
256,192,50120,1,0,0:0:0:70:normal-hitclap5.wav
109,192,50120,128,0,50291:0:0:0:0:
402,192,50291,1,0,0:0:0:0:
329,192,50348,1,0,0:0:0:0:
256,192,50405,1,0,0:0:0:0:
182,192,50462,1,0,0:0:0:70:normal-hitclap5.wav
402,192,50462,128,0,50634:0:0:0:0:
182,192,50634,1,0,0:0:0:0:
256,192,50805,1,0,0:0:0:70:normal-hitclap5.wav
402,192,50805,128,0,50977:0:0:0:0:
182,192,50977,1,0,0:0:0:0:
256,192,51148,1,0,0:0:0:70:normal-hitclap5.wav
402,192,51148,128,0,51320:0:0:0:0:
182,192,51320,1,0,0:0:0:0:
256,192,51491,1,0,0:0:0:70:normal-hitclap5.wav
402,192,51491,128,0,51662:0:0:0:0:
182,192,51662,1,0,0:0:0:0:
256,192,51720,1,0,0:0:0:0:
329,192,51777,1,0,0:0:0:0:
36,192,51834,128,0,52091:0:0:0:70:normal-hitclap5.wav
402,192,51834,1,0,0:0:0:0:
182,192,52005,1,0,0:0:0:0:
182,192,52177,128,0,52434:0:0:0:70:normal-hitclap5.wav
329,192,52348,1,0,0:0:0:0:
329,192,52520,128,0,52777:0:0:0:70:normal-hitclap5.wav
475,192,52691,1,0,0:0:0:0:
475,192,52862,128,0,53120:0:0:0:70:normal-hitclap5.wav
256,192,53034,1,0,0:0:0:0:
109,192,53205,5,0,0:0:0:70:normal-hitclap5.wav
402,192,53205,1,0,0:0:0:0:
109,192,53377,1,0,0:0:0:70:normal-hitclap5.wav
402,192,53377,1,0,0:0:0:0:
109,192,53548,1,0,0:0:0:70:normal-hitclap5.wav
402,192,53548,1,0,0:0:0:0:
182,192,53720,1,0,0:0:0:70:normal-hitclap5.wav
329,192,53720,1,0,0:0:0:0:
109,192,53805,1,0,0:0:0:0:
36,192,53891,1,0,0:0:0:70:normal-hitclap5.wav
475,192,53891,1,0,0:0:0:0:
402,192,53977,1,0,0:0:0:0:
182,192,54062,1,0,0:0:0:70:normal-hitclap5.wav
329,192,54062,1,0,0:0:0:0:
109,192,54148,1,0,0:0:0:0:
36,192,54234,1,0,0:0:0:70:normal-hitclap5.wav
402,192,54234,1,0,0:0:0:0:
329,192,54320,1,0,0:0:0:0:
256,192,54405,1,0,0:0:0:70:normal-hitfinish2.wav
475,192,54405,128,0,55262:0:0:0:70:normal-hitclap5.wav
109,192,54405,1,0,0:0:0:0:
182,192,54491,1,0,0:0:0:0:
109,192,54577,1,0,0:0:0:0:
329,192,54577,128,0,55262:0:0:0:0:
64,192,55262,128,0,55605:0:0:0:0:
182,192,55262,1,0,0:0:0:0:
182,192,55605,128,0,55948:0:0:0:70:soft-hitclap5.wav
329,192,55605,1,4,0:0:0:0:
475,192,55605,1,0,0:0:0:0:
256,192,55777,1,0,0:0:0:0:
329,192,55862,1,0,0:0:0:0:
448,192,55948,128,0,58005:0:0:0:70:normal-hitfinish2.wav
36,192,55948,1,0,0:0:0:70:normal-hitclap5.wav
402,192,55948,1,0,0:0:0:0:
192,192,56291,1,2,0:0:0:70:soft-hitclap.wav
36,192,56291,1,0,0:0:0:0:
256,192,56634,1,0,0:0:0:70:normal-hitclap5.wav
256,192,56805,1,0,0:0:0:70:normal-hitclap5.wav
182,192,56977,1,0,0:0:0:70:soft-hitclap.wav
36,192,56977,1,0,0:0:0:0:
329,192,57148,1,0,0:0:0:70:normal-hitclap5.wav
329,192,57491,1,0,0:0:0:70:normal-hitclap5.wav
182,192,57662,1,0,0:0:0:70:soft-hitclap.wav
36,192,57662,1,0,0:0:0:0:
256,192,58005,128,0,58691:0:0:0:0:
402,192,58005,1,0,0:0:0:70:normal-hitclap5.wav
329,192,58177,1,0,0:0:0:70:normal-hitclap5.wav
182,192,58348,1,0,0:0:0:70:soft-hitclap.wav
36,192,58348,1,0,0:0:0:0:
64,192,58691,128,0,60405:0:0:0:0:
329,192,58691,1,0,0:0:0:70:normal-hitclap5.wav
475,192,58691,1,0,0:0:0:0:
256,192,59034,1,0,0:0:0:70:soft-hitclap.wav
402,192,59034,1,0,0:0:0:0:
256,192,59377,1,0,0:0:0:70:normal-hitclap5.wav
182,192,59548,1,0,0:0:0:70:normal-hitclap5.wav
475,192,59720,1,0,0:0:0:0:
329,192,59720,1,0,0:0:0:70:soft-hitclap.wav
182,192,59891,1,0,0:0:0:70:normal-hitclap5.wav
109,192,60234,1,0,0:0:0:70:normal-hitclap5.wav
402,192,60405,1,0,0:0:0:70:soft-hitclap.wav
475,192,60405,128,0,60748:0:0:0:0:
256,192,60405,1,0,0:0:0:0:
36,192,60748,1,0,0:0:0:70:normal-hitclap5.wav
329,192,60748,128,0,61091:0:0:0:0:
109,192,60920,1,0,0:0:0:70:normal-hitclap5.wav
182,192,61091,128,0,61434:0:1:0:70:soft-hitclap.wav
402,192,61091,1,0,0:0:0:0:
256,192,61091,1,0,0:0:0:0:
256,192,61434,1,0,0:0:0:70:normal-hitclap5.wav
36,192,61434,128,0,63491:0:0:0:0:
329,192,61777,1,0,0:0:0:70:soft-hitclap.wav
475,192,61777,1,0,0:0:0:0:
182,192,62120,1,0,0:0:0:70:normal-hitclap5.wav
256,192,62291,1,0,0:0:0:70:normal-hitclap5.wav
109,192,62462,1,0,0:0:0:70:soft-hitclap.wav
402,192,62462,1,0,0:0:0:0:
256,192,62634,1,0,0:1:0:70:normal-hitclap5.wav
256,192,62977,1,0,0:0:0:70:normal-hitclap5.wav
448,192,63148,1,0,0:1:0:70:soft-hitclap.wav
329,192,63148,1,0,0:0:0:0:
109,192,63491,128,0,64177:0:0:0:0:
329,192,63491,1,0,0:0:0:70:normal-hitclap5.wav
256,192,63662,1,0,0:0:0:70:normal-hitclap5.wav
402,192,63834,1,0,0:0:0:0:
448,192,63834,1,0,0:0:0:70:soft-hitclap.wav
64,192,64177,128,0,64862:0:0:0:0:
402,192,64177,1,0,0:0:0:70:normal-hitclap5.wav
402,192,64348,1,0,0:0:0:70:normal-hitclap5.wav
329,192,64520,1,0,0:0:0:70:soft-hitclap.wav
192,192,64520,1,0,0:0:0:0:
329,192,64862,128,0,65377:0:0:0:0:
256,192,64862,1,0,0:0:0:70:normal-hitclap5.wav
256,192,65034,1,0,0:0:0:70:normal-hitclap5.wav
182,192,65205,1,0,0:0:0:70:soft-hitclap.wav
36,192,65205,1,0,0:0:0:0:
448,192,65377,128,0,66062:0:0:0:70:normal-hitclap5.wav
402,192,65377,1,0,0:0:0:70:normal-hitfinish2.wav
109,192,65377,1,0,0:0:0:0:
109,192,65720,1,0,0:0:0:70:normal-hitclap5.wav
182,192,65891,1,0,0:0:0:0:
329,192,65891,1,0,0:0:0:70:soft-hitclap.wav
402,192,66062,128,0,66405:0:0:0:0:
256,192,66062,1,0,0:0:0:70:normal-hitfinish2.wav
109,192,66062,1,0,0:0:0:70:normal-hitclap5.wav
256,192,66405,1,0,0:0:0:70:normal-hitclap5.wav
182,192,66405,128,0,66748:0:0:0:0:
329,192,66577,1,0,0:0:0:70:soft-hitclap.wav
475,192,66748,1,0,0:0:0:70:soft-hitclap.wav
109,192,66748,128,0,66920:0:0:0:0:
402,192,66834,1,0,0:0:0:70:soft-hitclap.wav
329,192,66920,1,0,0:0:0:70:normal-hitfinish2.wav
256,192,66920,1,0,0:0:0:70:normal-hitclap5.wav
36,192,66920,128,0,67777:0:0:0:0:
182,192,67262,1,0,0:0:0:70:soft-hitclap.wav
402,192,67262,1,0,0:0:0:0:
329,192,67605,1,0,0:0:0:70:normal-hitclap5.wav
329,192,67777,1,0,0:0:0:70:normal-hitclap5.wav
256,192,67948,1,0,0:0:0:70:soft-hitclap.wav
475,192,67948,1,0,0:0:0:0:
109,192,68120,128,0,69662:0:0:0:0:
402,192,68120,1,0,0:0:0:70:normal-hitclap5.wav
402,192,68462,1,0,0:0:0:70:normal-hitclap5.wav
448,192,68634,1,0,0:0:0:70:soft-hitclap.wav
256,192,68634,1,0,0:0:0:0:
402,192,68977,1,0,0:0:0:70:normal-hitclap5.wav
182,192,69148,1,0,0:0:0:70:normal-hitclap5.wav
256,192,69320,1,0,0:0:0:70:soft-hitclap.wav
475,192,69320,1,0,0:0:0:0:
329,192,69662,1,0,0:0:0:70:normal-hitclap5.wav
182,192,69662,128,0,70348:0:0:0:0:
329,192,69834,1,0,0:0:0:70:normal-hitclap5.wav
402,192,70005,1,0,0:0:0:70:soft-hitclap.wav
256,192,70005,1,0,0:0:0:0:
448,192,70348,1,0,0:0:0:70:normal-hitclap5.wav
320,192,70348,128,0,70520:0:0:0:0:
475,192,70520,1,0,0:0:0:70:normal-hitclap5.wav
182,192,70520,128,0,70691:0:0:0:0:
402,192,70691,1,0,0:0:0:70:soft-hitclap.wav
36,192,70691,128,0,70862:0:0:0:0:
448,192,70862,128,0,71205:0:0:0:70:normal-hitfinish2.wav
329,192,70862,1,0,0:0:0:70:normal-hitclap5.wav
256,192,70862,1,0,0:0:0:0:
256,192,71205,1,0,0:0:0:70:normal-hitclap5.wav
329,192,71205,128,0,71377:0:0:0:0:
192,192,71377,128,0,71548:0:0:0:70:soft-hitclap.wav
475,192,71377,1,0,0:0:0:0:
109,192,71377,1,0,0:0:0:0:
64,192,71548,128,0,72405:0:0:0:0:
475,192,71548,1,0,0:0:0:70:normal-hitclap5.wav
329,192,71548,1,0,0:0:0:0:
402,192,71720,1,0,0:0:0:0:
256,192,71720,1,0,0:0:0:70:normal-hitclap5.wav
329,192,71891,1,0,0:0:0:0:
182,192,71891,1,0,0:0:0:70:normal-hitclap5.wav
329,192,72062,1,0,0:0:0:70:soft-hitclap.wav
182,192,72234,1,0,0:0:0:70:soft-hitclap.wav
329,192,72320,1,0,0:0:0:70:soft-hitclap.wav
475,192,72405,1,0,0:0:0:70:normal-hitclap5.wav
109,192,72405,128,0,72577:0:0:0:0:
329,192,72577,1,0,0:0:0:70:normal-hitclap5.wav
109,192,72748,128,0,72920:0:0:0:0:
256,192,72748,1,0,0:0:0:70:soft-hitclap.wav
402,192,72748,1,0,0:0:0:0:
475,192,73091,1,0,0:0:0:70:normal-hitclap5.wav
109,192,73091,128,0,73434:0:0:0:0:
475,192,73262,1,0,0:0:0:70:normal-hitclap5.wav
256,192,73434,1,0,0:0:0:70:soft-hitclap.wav
329,192,73434,1,0,0:0:0:0:
475,192,73605,1,0,0:0:0:70:normal-hitclap5.wav
182,192,73605,1,0,0:0:0:70:normal-hitfinish2.wav
64,192,73605,128,0,73948:0:0:0:0:
329,192,73948,1,0,0:0:0:70:normal-hitclap5.wav
64,192,74120,128,0,74291:0:0:0:0:
402,192,74120,1,0,0:0:0:70:soft-hitclap.wav
256,192,74120,1,0,0:0:0:0:
64,192,74462,128,0,74634:0:0:0:0:
329,192,74462,1,0,0:0:0:70:normal-hitclap5.wav
329,192,74634,1,0,0:0:0:70:normal-hitclap5.wav
475,192,74805,1,0,0:0:0:70:soft-hitclap.wav
182,192,74805,128,0,74977:0:0:0:0:
402,192,74805,1,0,0:0:0:0:
36,192,75148,5,0,0:0:0:70:normal-hitclap5.wav
329,192,75148,128,0,75320:0:0:0:0:
36,192,75320,1,0,0:0:0:70:normal-hitclap5.wav
475,192,75491,128,0,75662:0:0:0:70:soft-hitclap.wav
182,192,75491,1,0,0:0:0:0:
402,192,75491,1,0,0:0:0:0:
64,192,75662,1,0,0:0:0:70:normal-hitclap5.wav
329,192,75834,128,0,76005:0:0:0:70:soft-hitclap.wav
182,192,75834,1,0,0:0:0:0:
402,192,75834,1,0,0:0:0:0:
36,192,76005,1,0,0:0:0:70:normal-hitclap5.wav
36,192,76177,1,0,0:0:0:70:normal-hitclap5.wav
192,192,76348,1,0,0:0:0:70:soft-hitclap.wav
448,192,76348,128,0,76520:0:0:0:0:
256,192,76348,1,0,0:0:0:0:
64,192,76691,1,0,0:0:0:70:soft-hitclap2.wav
320,192,76691,1,0,0:0:0:0:
182,192,76862,1,0,0:0:0:70:soft-hitclap5.wav
475,192,76862,1,0,0:0:0:0:
329,192,77034,1,0,0:0:0:70:normal-hitclap5.wav
329,192,77205,1,0,0:0:0:70:normal-hitclap5.wav
182,192,77377,5,0,0:0:0:70:soft-hitclap4.wav
475,192,77377,1,0,0:0:0:0:
109,192,77548,1,0,0:0:0:70:soft-hitclap.wav
402,192,77548,1,0,0:0:0:0:
36,192,77720,1,0,0:0:0:70:normal-hitclap5.wav
329,192,77720,1,0,0:0:0:0:
109,192,77891,1,0,0:0:0:70:normal-hitclap5.wav
256,192,77891,1,0,0:0:0:70:normal-hitfinish2.wav
402,192,77891,1,0,0:0:0:0:
182,192,78405,1,0,0:0:0:70:normal-hitclap5.wav
256,192,78577,1,0,0:0:0:70:soft-hitclap.wav
329,192,78577,128,0,79091:0:0:0:0:
109,192,78577,1,0,0:0:0:0:
36,192,78920,1,0,0:0:0:0:
109,192,79091,1,0,0:0:0:70:normal-hitclap5.wav
182,192,79091,1,0,0:0:0:70:normal-hitfinish2.wav
475,192,79091,128,0,79434:0:0:0:0:
109,192,79434,1,0,0:0:0:70:soft-hitclap5.wav
329,192,79434,128,0,79605:0:0:0:70:soft-hitnormal5.wav
36,192,79434,1,0,0:0:0:0:
182,192,79605,128,0,79777:0:0:0:0:
36,192,79777,128,0,79948:0:0:0:0:
329,192,79777,1,0,0:0:0:70:FPC_Tom_12inPr_004.wav
475,192,79777,1,0,0:0:0:0:
329,192,79948,1,0,0:0:0:70:FPC_Tom_12inPr_004.wav
475,192,79948,1,0,0:0:0:0:
256,192,80120,1,0,0:0:0:70:soft-hitclap5.wav
109,192,80120,128,0,80634:0:0:0:0:
402,192,80120,1,0,0:0:0:0:
402,192,80291,1,0,0:0:0:70:soft-hitclap5.wav
256,192,80291,1,0,0:0:0:0:
329,192,80462,1,0,0:0:0:70:FPC_Tom_14inPr_002.wav
448,192,80634,128,0,81920:0:0:0:70:soft-hitnormal5.wav
320,192,80634,1,0,0:0:0:70:RD_Kick_2.wav
182,192,80634,1,0,0:0:0:70:FPC_Tom_14inPr_002.wav
320,192,80977,1,0,0:0:0:70:soft-hitnormal5.wav
182,192,81320,1,0,0:0:0:70:normal-hitfinish2.wav
109,192,81320,1,0,0:0:0:0:
36,192,81320,1,0,0:0:0:0:
320,192,81662,1,0,0:0:0:70:soft-hitnormal5.wav
109,192,82005,5,0,0:0:0:70:RD_Kick_2.wav
402,192,82005,1,0,0:0:0:70:RD_Kick_2.wav
109,192,82177,1,0,0:0:0:70:RD_Kick_2.wav
402,192,82177,1,0,0:0:0:70:RD_Kick_2.wav
109,192,82348,1,0,0:0:0:70:RD_Kick_2.wav
402,192,82348,1,0,0:0:0:70:RD_Kick_2.wav
320,192,82520,1,0,0:0:0:0:
192,192,82520,1,0,0:0:0:70:soft-hitclap5.wav
448,192,82605,1,0,0:0:0:0:
64,192,82605,1,0,0:0:0:70:soft-hitclap5.wav
320,192,82691,1,0,0:0:0:0:
192,192,82691,1,0,0:0:0:70:soft-hitclap5.wav
256,192,82862,1,0,0:0:0:70:RD_Kick_2.wav
36,192,83205,128,0,84577:0:0:0:70:normal-hitfinish2.wav
402,192,83205,1,0,0:0:0:70:normal-hitclap5.wav
109,192,83205,128,0,84577:0:0:0:0:
475,192,83205,1,0,0:0:0:0:
402,192,83677,1,0,0:0:0:70:soft-hitclap5.wav
256,192,83677,1,0,0:0:0:0:
320,192,84020,1,0,0:0:0:70:normal-hitclap5.wav
320,192,84191,1,0,0:0:0:70:normal-hitclap5.wav
448,192,84577,128,0,85948:0:0:0:70:soft-hitclap4.wav
402,192,84577,128,0,85948:0:0:0:0:
256,192,84577,1,0,0:0:0:0:
329,192,84577,1,0,0:0:0:0:
192,192,84877,1,0,0:0:0:70:normal-hitclap5.wav
109,192,85048,1,0,0:0:0:70:soft-hitclap5.wav
256,192,85048,1,0,0:0:0:0:
329,192,85434,1,0,0:0:0:70:normal-hitclap5.wav
36,192,85605,1,0,0:0:0:100:FPC_Tom_GtomMid_001.wav
182,192,85605,1,0,0:0:0:0:
182,192,85777,1,0,0:0:0:100:FPC_Tom_GtomMid_001.wav
36,192,85777,1,0,0:0:0:0:
320,192,85948,1,0,0:0:0:70:normal-hitclap5.wav
64,192,86120,128,0,88862:0:0:0:70:normal-hitclap5.wav
192,192,86120,128,0,88862:0:0:0:0:
448,192,86120,128,0,88862:0:0:0:70:normal-hitfinish2.wav
320,192,86120,128,0,88862:0:0:0:0:
