osu file format v14

[General]
AudioFilename: audio.mp3
AudioLeadIn: 0
PreviewTime: 51777
Countdown: 0
SampleSet: Soft
StackLeniency: 0.7
Mode: 3
LetterboxInBreaks: 0
SpecialStyle: 0
WidescreenStoryboard: 0

[Editor]
DistanceSpacing: 0.8
BeatDivisor: 4
GridSize: 4
TimelineZoom: 4.999997

[Metadata]
Title:Ashita no Kimi sae Ireba Ii. (TV Size)
TitleUnicode:明日の君さえいればいい。(TV Size)
Artist:ChouCho
ArtistUnicode:ChouCho
Creator:Scotty
Version:Your Story
Source:妹さえいればいい。
Tags:anime japanese 伊藤賢 itou ken imosae imouto imoto opening jpop j-pop LACM-14658 A Sister's all you need. 松井洋平 Matsui Youhei yuxuki waga 和賀裕希 keppsado
BeatmapID:2390948
BeatmapSetID:1145173

[Difficulty]
HPDrainRate:8
CircleSize:4
OverallDifficulty:7.5
ApproachRate:5
SliderMultiplier:1.4
SliderTickRate:1

[Events]
//Background and Video events
0,0,"a.jpg",0,0
//Break Periods
//Storyboard Layer 0 (Background)
//Storyboard Layer 1 (Fail)
//Storyboard Layer 2 (Pass)
//Storyboard Layer 3 (Foreground)
//Storyboard Layer 4 (Overlay)
//Storyboard Sound Samples

[TimingPoints]
1300,337.078651685393,4,2,1,45,1,0
52535,-100,4,2,1,45,0,1
68715,-100,4,2,1,45,0,0

[HitObjects]
192,192,625,128,0,878:0:0:0:0:
320,192,878,128,0,1131:0:0:0:0:
448,192,1131,1,0,0:0:0:0:
64,192,1300,128,0,1637:0:0:0:0:
192,192,1300,128,0,1637:0:0:0:0:
320,192,1637,1,0,0:0:0:0:
64,192,1805,128,0,2142:0:0:0:0:
448,192,2142,128,0,2479:0:0:0:0:
192,192,2479,1,0,0:0:0:0:
448,192,2648,128,0,2985:0:0:0:0:
320,192,2648,128,0,2985:0:0:0:0:
64,192,2985,1,0,0:0:0:0:
448,192,3153,128,0,3491:0:0:0:0:
320,192,3153,128,0,3491:0:0:0:0:
64,192,3322,128,0,3575:0:0:0:0:
192,192,3575,128,0,3828:0:0:0:0:
448,192,3828,1,0,0:0:0:0:
448,192,3996,128,0,4333:0:0:0:0:
64,192,3996,128,0,4333:0:0:0:0:
192,192,4333,128,0,4417:0:0:0:0:
192,192,4502,128,0,4839:0:0:0:0:
448,192,4502,128,0,4839:0:0:0:0:
64,192,4839,128,0,5176:0:0:0:0:
320,192,4839,128,0,5092:0:0:0:0:
320,192,5176,128,0,5260:0:0:0:0:
64,192,5344,128,0,5682:0:0:0:0:
192,192,5344,128,0,5682:0:0:0:0:
320,192,5682,1,0,0:0:0:0:
64,192,5850,128,0,6187:0:0:0:0:
192,192,5850,128,0,6187:0:0:0:0:
448,192,6019,1,0,0:0:0:0:
320,192,6187,1,0,0:0:0:0:
192,192,6356,1,0,0:0:0:0:
192,192,6693,128,0,7030:0:0:0:0:
448,192,6693,128,0,7030:0:0:0:0:
64,192,7030,1,0,0:0:0:0:
64,192,7198,128,0,7535:0:0:0:0:
320,192,7535,128,0,7873:0:0:0:0:
64,192,7873,128,0,7957:0:0:0:0:
448,192,8041,128,0,8378:0:0:0:0:
320,192,8041,128,0,8378:0:0:0:0:
192,192,8210,128,0,8294:0:0:0:0:
192,192,8378,128,0,8462:0:0:0:0:
320,192,8715,128,0,8884:0:0:0:0:
320,192,8968,128,0,9221:0:0:0:0:
192,192,9221,128,0,9389:0:0:0:0:
64,192,9389,1,0,0:0:0:0:
448,192,9389,128,0,9895:0:0:0:0:
192,192,9895,128,0,9979:0:0:0:0:
192,192,10064,128,0,10759:0:0:0:0:
64,192,10759,1,0,0:0:0:20:soft-hitfinish.wav
448,192,10759,1,0,0:0:0:0:
448,192,11103,1,0,0:0:0:0:
64,192,11103,1,0,0:0:0:20:soft-hitfinish.wav
192,192,11412,128,2,11496:0:0:0:0:
64,192,11496,128,2,11580:0:0:0:0:
320,192,11580,128,8,11665:0:0:0:0:
192,192,11665,128,8,11749:0:0:0:0:
448,192,11749,128,8,12002:0:0:0:0:
320,192,11833,128,2,12002:0:0:0:0:
192,192,11917,128,2,12002:0:0:0:0:
448,192,12086,1,2,0:0:0:0:
320,192,12086,1,4,0:0:0:0:
64,192,12086,128,0,12339:0:0:0:0:
192,192,12255,128,0,12339:0:0:0:0:
64,192,12423,128,8,12760:0:0:0:0:
320,192,12423,1,4,0:0:0:0:
448,192,12423,1,0,0:0:0:0:
320,192,12760,128,2,12844:0:0:0:0:
448,192,12760,128,0,12844:0:0:0:0:
192,192,12929,128,2,13013:0:0:0:0:
64,192,12929,128,0,13013:0:0:0:0:
448,192,13097,1,0,0:0:0:0:
448,192,13266,128,8,13687:0:0:0:0:
64,192,13266,128,0,13603:0:0:0:0:
192,192,13603,1,2,0:0:0:0:
448,192,13771,128,8,14108:0:0:0:0:
64,192,13771,1,0,0:0:0:0:
320,192,13940,1,0,0:0:0:0:
192,192,14024,1,2,0:0:0:0:
64,192,14108,128,8,14361:0:0:0:0:
320,192,14108,128,0,14193:0:0:0:0:
192,192,14277,128,2,14361:0:0:0:0:
448,192,14277,128,0,14530:0:0:0:0:
320,192,14446,128,8,14530:0:0:0:0:
64,192,14446,128,0,14698:0:0:0:0:
192,192,14614,128,0,14698:0:0:0:0:
448,192,14783,128,2,14867:0:0:0:0:
64,192,14783,1,0,0:0:0:0:
448,192,14951,128,0,15457:0:0:0:0:
192,192,15120,1,8,0:0:0:0:
64,192,15120,1,0,0:0:0:0:
320,192,15288,128,0,15457:0:0:0:0:
64,192,15457,128,2,15541:0:0:0:0:
192,192,15541,128,0,15625:0:0:0:0:
320,192,15625,128,2,15710:0:0:0:0:
448,192,15710,128,0,15794:0:0:0:0:
64,192,15794,128,0,15962:0:0:0:0:
192,192,15878,128,0,15962:0:0:0:0:
320,192,15962,128,8,16047:0:0:0:0:
448,192,15962,128,4,16805:0:0:0:0:
320,192,16131,128,0,16637:0:0:0:0:
64,192,16299,1,2,0:0:0:0:
192,192,16468,1,8,0:0:0:0:
192,192,16637,1,8,0:0:0:0:
64,192,16805,128,2,17395:0:0:0:0:
320,192,16805,1,4,0:0:0:0:
448,192,16974,1,8,0:0:0:0:
192,192,17058,1,8,0:0:0:0:
448,192,17142,1,2,0:0:0:0:
320,192,17226,1,2,0:0:0:0:
192,192,17311,128,2,17395:0:0:0:0:
320,192,17479,1,2,0:0:0:0:
448,192,17479,1,4,0:0:0:0:
64,192,17479,128,0,17816:0:0:0:0:
192,192,17816,1,8,0:0:0:0:
448,192,17816,1,0,0:0:0:0:
64,192,17985,128,0,18153:0:0:0:0:
320,192,18153,1,2,0:0:0:0:
64,192,18322,128,2,18659:0:0:0:0:
320,192,18322,1,0,0:0:0:0:
448,192,18491,1,8,0:0:0:0:
192,192,18491,1,0,0:0:0:0:
320,192,18659,128,0,18996:0:0:0:0:
192,192,18828,1,2,0:0:0:0:
448,192,18996,128,0,19165:0:0:0:0:
192,192,19165,128,8,19333:0:0:0:0:
64,192,19165,1,0,0:0:0:0:
448,192,19333,128,0,19502:0:0:0:0:
320,192,19417,1,8,0:0:0:0:
192,192,19502,128,0,19670:0:0:0:0:
448,192,19586,1,8,0:0:0:0:
320,192,19670,128,2,19839:0:0:0:0:
64,192,19670,1,0,0:0:0:0:
64,192,19839,128,8,20176:0:0:0:0:
448,192,19839,1,0,0:0:0:0:
192,192,20007,128,0,20176:0:0:0:0:
448,192,20176,1,2,0:0:0:0:
320,192,20176,128,0,20260:0:0:0:0:
320,192,20344,128,0,20513:0:0:0:0:
64,192,20513,128,8,20682:0:0:0:0:
192,192,20513,1,0,0:0:0:0:
320,192,20682,128,0,20766:0:0:0:0:
448,192,20766,1,8,0:0:0:0:
192,192,20850,1,2,0:0:0:0:
448,192,21019,128,2,21103:0:0:0:0:
192,192,21019,1,0,0:0:0:0:
64,192,21187,1,8,0:0:0:0:
320,192,21187,1,0,0:0:0:0:
192,192,21356,128,0,21440:0:0:0:0:
64,192,21524,128,2,21608:0:0:0:0:
448,192,21524,1,0,0:0:0:0:
320,192,21693,128,0,21777:0:0:0:0:
192,192,21861,128,8,21946:0:0:0:0:
64,192,21861,1,0,0:0:0:0:
448,192,22030,128,0,22114:0:0:0:0:
320,192,22114,1,8,0:0:0:0:
64,192,22198,128,0,22283:0:0:0:0:
64,192,22367,128,2,22451:0:0:0:0:
320,192,22367,1,0,0:0:0:0:
192,192,22535,128,8,22620:0:0:0:0:
448,192,22535,128,0,22620:0:0:0:0:
320,192,22704,128,0,22788:0:0:0:0:
448,192,22704,128,0,22788:0:0:0:0:
448,192,22873,1,2,0:0:0:0:
192,192,22873,1,4,0:0:0:0:
64,192,22873,128,0,22957:0:0:0:0:
64,192,23041,128,0,23547:0:0:0:0:
192,192,23210,128,8,23547:0:0:0:0:
448,192,23210,1,0,0:0:0:0:
448,192,23547,128,2,23631:0:0:0:0:
320,192,23547,1,0,0:0:0:0:
448,192,23715,128,2,24221:0:0:0:0:
192,192,23715,1,0,0:0:0:0:
320,192,23884,128,8,24221:0:0:0:0:
64,192,23884,1,0,0:0:0:0:
64,192,24221,128,2,24305:0:0:0:0:
192,192,24221,1,0,0:0:0:0:
64,192,24389,128,2,24895:0:0:0:0:
448,192,24389,1,0,0:0:0:0:
320,192,24558,1,8,0:0:0:0:
192,192,24558,128,4,24895:0:0:0:0:
448,192,24558,1,0,0:0:0:0:
448,192,24895,128,2,25064:0:0:0:0:
320,192,24895,1,0,0:0:0:0:
192,192,25064,1,8,0:0:0:0:
64,192,25064,1,0,0:0:0:0:
448,192,25232,1,8,0:0:0:0:
64,192,25232,128,0,25485:0:0:0:0:
192,192,25401,128,0,25485:0:0:0:0:
64,192,25569,128,2,25906:0:0:0:0:
448,192,25569,128,4,25822:0:0:0:0:
320,192,25569,1,0,0:0:0:0:
448,192,25906,1,8,0:0:0:0:
320,192,25906,1,0,0:0:0:0:
448,192,26075,128,2,26243:0:0:0:0:
192,192,26075,1,0,0:0:0:0:
64,192,26243,128,8,26412:0:0:0:0:
320,192,26243,1,0,0:0:0:0:
448,192,26412,128,2,26580:0:0:0:0:
192,192,26412,1,0,0:0:0:0:
64,192,26580,128,8,26749:0:0:0:0:
320,192,26580,1,0,0:0:0:0:
320,192,26749,128,2,26917:0:0:0:0:
448,192,26749,128,4,27086:0:0:0:0:
192,192,26749,1,0,0:0:0:0:
192,192,27086,128,2,27255:0:0:0:0:
320,192,27086,1,0,0:0:0:0:
64,192,27255,128,8,27423:0:0:0:0:
448,192,27255,1,0,0:0:0:0:
320,192,27423,128,0,27592:0:0:0:0:
448,192,27592,128,0,27760:0:0:0:0:
64,192,27760,128,2,27929:0:0:0:0:
320,192,27760,1,0,0:0:0:0:
320,192,27929,128,8,28182:0:0:0:0:
192,192,27929,128,4,28182:0:0:0:0:
448,192,27929,128,0,28182:0:0:0:0:
64,192,28266,128,4,28519:0:0:0:0:
448,192,28266,128,2,28519:0:0:0:0:
192,192,28266,128,0,28519:0:0:0:0:
320,192,28603,128,0,28687:0:0:0:0:
192,192,28771,128,0,28856:0:0:0:0:
64,192,28940,128,0,29108:0:0:0:0:
320,192,29108,128,0,29277:0:0:0:0:
192,192,29277,128,0,29446:0:0:0:0:
64,192,29446,128,2,29698:0:0:0:0:
320,192,29446,128,4,29698:0:0:0:0:
448,192,29446,128,0,29698:0:0:0:0:
64,192,29783,128,2,29867:0:0:0:0:
448,192,29783,128,0,29867:0:0:0:0:
320,192,29951,1,8,0:0:0:0:
192,192,29951,1,0,0:0:0:0:
320,192,30120,1,2,0:0:0:0:
448,192,30120,1,0,0:0:0:0:
64,192,30288,128,8,30373:0:0:0:0:
448,192,30288,128,0,30373:0:0:0:0:
192,192,30288,128,0,30373:0:0:0:0:
320,192,30541,128,8,30625:0:0:0:0:
64,192,30541,128,0,30625:0:0:0:0:
448,192,30541,128,0,30625:0:0:0:0:
320,192,30794,128,8,30878:0:0:0:0:
192,192,30794,128,0,30878:0:0:0:0:
64,192,30794,128,0,30878:0:0:0:0:
64,192,30962,128,2,31215:0:0:0:0:
448,192,30962,1,0,0:0:0:0:
320,192,31131,1,2,0:0:0:0:
64,192,31299,128,8,31637:0:0:0:0:
192,192,31299,1,4,0:0:0:0:
448,192,31299,1,0,0:0:0:0:
448,192,31637,128,2,31974:0:0:0:0:
192,192,31637,1,0,0:0:0:0:
320,192,31805,128,2,31974:0:0:0:0:
64,192,31805,1,0,0:0:0:0:
192,192,31974,1,8,0:0:0:0:
64,192,31974,1,0,0:0:0:0:
320,192,32142,1,2,0:0:0:0:
448,192,32142,128,0,32226:0:0:0:0:
64,192,32311,1,0,0:0:0:0:
192,192,32479,128,2,32564:0:0:0:0:
448,192,32479,1,0,0:0:0:0:
320,192,32648,128,8,32732:0:0:0:0:
64,192,32648,1,0,0:0:0:0:
448,192,32816,128,0,32901:0:0:0:0:
320,192,32901,1,8,0:0:0:0:
192,192,32985,1,2,0:0:0:0:
64,192,33153,1,8,0:0:0:0:
320,192,33238,1,8,0:0:0:0:
64,192,33322,1,2,0:0:0:0:
448,192,33406,1,8,0:0:0:0:
192,192,33491,1,8,0:0:0:0:
448,192,33659,128,2,33743:0:0:0:0:
64,192,33659,1,0,0:0:0:0:
448,192,33828,128,2,34333:0:0:0:0:
320,192,33828,1,0,0:0:0:0:
192,192,33996,1,8,0:0:0:0:
64,192,33996,128,4,34249:0:0:0:0:
320,192,34165,128,0,34333:0:0:0:0:
64,192,34333,128,2,34417:0:0:0:0:
192,192,34333,1,0,0:0:0:0:
64,192,34502,128,2,35007:0:0:0:0:
448,192,34502,1,0,0:0:0:0:
448,192,34670,128,8,34923:0:0:0:0:
320,192,34670,1,4,0:0:0:0:
192,192,34839,128,0,35007:0:0:0:0:
448,192,35007,128,2,35092:0:0:0:0:
320,192,35007,1,0,0:0:0:0:
448,192,35176,128,2,35682:0:0:0:0:
64,192,35176,1,0,0:0:0:0:
64,192,35344,128,8,35597:0:0:0:0:
192,192,35344,1,4,0:0:0:0:
320,192,35513,128,0,35682:0:0:0:0:
64,192,35682,128,2,35766:0:0:0:0:
192,192,35682,1,0,0:0:0:0:
448,192,35850,1,2,0:0:0:0:
64,192,35850,128,0,36271:0:0:0:0:
448,192,36019,1,8,0:0:0:0:
320,192,36019,1,0,0:0:0:0:
192,192,36187,128,0,36271:0:0:0:0:
448,192,36356,1,4,0:0:0:0:
320,192,36356,1,2,0:0:0:0:
64,192,36356,1,0,0:0:0:0:
192,192,36524,1,2,0:0:0:0:
64,192,36524,1,0,0:0:0:0:
448,192,36693,1,8,0:0:0:0:
192,192,36693,1,0,0:0:0:0:
320,192,36861,1,2,0:0:0:0:
448,192,36861,1,0,0:0:0:0:
320,192,37030,1,8,0:0:0:0:
64,192,37030,1,0,0:0:0:0:
192,192,37198,1,2,0:0:0:0:
64,192,37198,1,0,0:0:0:0:
448,192,37367,1,8,0:0:0:0:
192,192,37367,1,0,0:0:0:0:
320,192,37535,1,2,0:0:0:0:
448,192,37535,1,4,0:0:0:0:
64,192,37535,128,0,37873:0:0:0:0:
320,192,37873,128,2,38041:0:0:0:0:
192,192,37873,1,0,0:0:0:0:
448,192,38041,128,8,38210:0:0:0:0:
64,192,38041,1,4,0:0:0:0:
192,192,38210,128,0,38378:0:0:0:0:
320,192,38378,128,8,38715:0:0:0:0:
448,192,38378,1,0,0:0:0:0:
192,192,38547,1,8,0:0:0:0:
448,192,38715,1,2,0:0:0:0:
64,192,38715,128,0,39052:0:0:0:0:
192,192,38884,128,2,39052:0:0:0:0:
320,192,39052,128,8,39137:0:0:0:0:
448,192,39052,128,0,39137:0:0:0:0:
320,192,39558,128,8,39642:0:0:0:0:
64,192,39558,128,0,39642:0:0:0:0:
320,192,39895,1,2,0:0:0:0:
448,192,39895,1,0,0:0:0:0:
448,192,40064,1,8,0:0:0:0:
64,192,40064,1,0,0:0:0:0:
192,192,40232,128,2,40316:0:0:0:0:
64,192,40232,128,0,40316:0:0:0:0:
448,192,40569,128,2,40653:0:0:0:0:
64,192,40569,128,4,40653:0:0:0:0:
192,192,40569,128,0,40653:0:0:0:0:
320,192,40738,1,8,0:0:0:0:
192,192,40738,1,0,0:0:0:0:
64,192,40906,128,2,41665:0:0:0:0:
448,192,40906,128,4,41328:0:0:0:0:
320,192,40906,128,0,41328:0:0:0:0:
192,192,41412,128,8,41665:0:0:0:0:
448,192,41412,1,4,0:0:0:0:
64,192,41749,1,2,0:0:0:0:
320,192,41749,128,4,41833:0:0:0:0:
448,192,41749,128,0,41833:0:0:0:0:
64,192,42086,1,8,0:0:0:0:
448,192,42086,1,0,0:0:0:0:
448,192,42255,128,0,42339:0:0:0:0:
320,192,42255,128,0,42339:0:0:0:0:
192,192,42423,1,2,0:0:0:0:
64,192,42423,1,0,0:0:0:0:
320,192,42592,1,2,0:0:0:0:
448,192,42592,1,0,0:0:0:0:
448,192,42760,1,8,0:0:0:0:
64,192,42760,1,0,0:0:0:0:
64,192,42929,128,2,43013:0:0:0:0:
192,192,42929,128,0,43013:0:0:0:0:
64,192,43266,128,2,43350:0:0:0:0:
320,192,43266,128,0,43350:0:0:0:0:
448,192,43434,1,8,0:0:0:0:
192,192,43434,1,0,0:0:0:0:
320,192,43603,128,2,43687:0:0:0:0:
448,192,43603,128,4,43687:0:0:0:0:
64,192,43603,128,0,43687:0:0:0:0:
64,192,43771,1,2,0:0:0:0:
448,192,43771,1,0,0:0:0:0:
192,192,43856,1,2,0:0:0:0:
320,192,43940,1,8,0:0:0:0:
192,192,44024,1,8,0:0:0:0:
64,192,44108,1,8,0:0:0:0:
448,192,44108,128,4,44361:0:0:0:0:
320,192,44193,128,0,44361:0:0:0:0:
192,192,44277,128,0,44361:0:0:0:0:
64,192,44446,128,2,44614:0:0:0:0:
448,192,44446,1,0,0:0:0:0:
320,192,44698,1,0,0:0:0:0:
64,192,44698,128,8,44867:0:0:0:0:
192,192,44951,1,0,0:0:0:0:
64,192,44951,128,8,45035:0:0:0:0:
448,192,45120,128,2,45288:0:0:0:0:
64,192,45120,1,0,0:0:0:0:
448,192,45373,128,8,45541:0:0:0:0:
192,192,45373,1,0,0:0:0:0:
448,192,45625,128,8,45710:0:0:0:0:
320,192,45625,1,0,0:0:0:0:
192,192,45794,1,2,0:0:0:0:
448,192,45794,1,4,0:0:0:0:
64,192,45794,128,0,46131:0:0:0:0:
320,192,46131,128,2,46468:0:0:0:0:
192,192,46131,1,0,0:0:0:0:
448,192,46299,1,8,0:0:0:0:
64,192,46299,1,0,0:0:0:0:
192,192,46468,128,2,46805:0:0:0:0:
64,192,46468,1,0,0:0:0:0:
320,192,46637,1,8,0:0:0:0:
448,192,46637,1,0,0:0:0:0:
448,192,46805,128,2,46889:0:0:0:0:
64,192,46805,1,0,0:0:0:0:
448,192,46974,128,8,47058:0:0:0:0:
192,192,46974,1,0,0:0:0:0:
64,192,47142,128,2,47395:0:0:0:0:
192,192,47142,128,4,47395:0:0:0:0:
320,192,47142,128,0,47395:0:0:0:0:
64,192,47479,1,2,0:0:0:0:
192,192,47479,1,0,0:0:0:0:
448,192,47564,1,8,0:0:0:0:
64,192,47648,1,8,0:0:0:0:
192,192,47732,1,8,0:0:0:0:
320,192,47816,1,2,0:0:0:0:
448,192,47816,1,0,0:0:0:0:
64,192,47901,1,8,0:0:0:0:
448,192,47985,1,8,0:0:0:0:
320,192,48069,1,8,0:0:0:0:
192,192,48153,1,2,0:0:0:0:
64,192,48153,1,0,0:0:0:0:
448,192,48238,1,8,0:0:0:0:
64,192,48322,1,8,0:0:0:0:
192,192,48406,1,8,0:0:0:0:
448,192,48491,128,2,48575:0:0:0:0:
320,192,48491,128,0,48575:0:0:0:0:
320,192,48659,128,8,48743:0:0:0:0:
192,192,48659,128,0,48743:0:0:0:0:
320,192,48828,128,2,48912:0:0:0:0:
64,192,48828,128,0,48912:0:0:0:0:
192,192,48996,128,8,49080:0:0:0:0:
64,192,48996,128,0,49080:0:0:0:0:
448,192,49165,128,2,49333:0:0:0:0:
320,192,49165,1,0,0:0:0:0:
192,192,49249,1,8,0:0:0:0:
64,192,49333,1,2,0:0:0:0:
320,192,49417,1,8,0:0:0:0:
64,192,49502,128,2,49670:0:0:0:0:
192,192,49502,1,0,0:0:0:0:
448,192,49586,1,8,0:0:0:0:
320,192,49670,1,2,0:0:0:0:
192,192,49755,1,2,0:0:0:0:
320,192,49839,128,2,49923:0:0:0:0:
448,192,49839,128,4,49923:0:0:0:0:
64,192,49839,128,0,49923:0:0:0:0:
192,192,50007,1,2,0:0:0:0:
320,192,50092,1,8,0:0:0:0:
192,192,50176,1,2,0:0:0:0:
64,192,50344,128,8,50429:0:0:0:0:
192,192,50344,128,4,50429:0:0:0:0:
448,192,50344,128,0,50429:0:0:0:0:
320,192,50513,1,2,0:0:0:0:
192,192,50597,1,8,0:0:0:0:
320,192,50682,1,2,0:0:0:0:
448,192,50850,1,8,0:0:0:0:
64,192,50850,1,0,0:0:0:0:
64,192,51019,128,2,51271:0:0:0:0:
448,192,51019,128,4,51271:0:0:0:0:
320,192,51019,128,0,51271:0:0:0:0:
64,192,51356,128,8,51440:0:0:0:0:
192,192,51356,128,0,51440:0:0:0:0:
64,192,51524,128,8,51608:0:0:0:0:
192,192,51524,128,0,51608:0:0:0:0:
64,192,51861,1,2,0:0:0:0:
448,192,51861,1,0,0:0:0:0:
320,192,52030,1,8,0:0:0:0:
448,192,52114,1,8,0:0:0:0:
192,192,52198,1,8,0:0:0:0:
64,192,52198,1,0,0:0:0:0:
320,192,52283,1,8,0:0:0:0:
64,192,52367,1,8,0:0:0:0:
320,192,52451,1,8,0:0:0:0:
448,192,52535,1,2,0:0:0:0:
64,192,52535,128,4,52873:0:0:0:0:
192,192,52535,1,0,0:0:0:0:
192,192,52873,1,8,0:0:0:0:
320,192,52873,128,4,52957:0:0:0:0:
448,192,52873,128,0,52957:0:0:0:0:
320,192,53041,128,0,53125:0:0:0:0:
448,192,53041,128,0,53125:0:0:0:0:
192,192,53210,128,2,53294:0:0:0:0:
64,192,53210,1,0,0:0:0:0:
320,192,53378,128,2,53462:0:0:0:0:
192,192,53378,1,0,0:0:0:0:
64,192,53547,1,8,0:0:0:0:
448,192,53547,1,0,0:0:0:0:
448,192,53715,128,2,54052:0:0:0:0:
192,192,53715,1,0,0:0:0:0:
320,192,53884,1,0,0:0:0:0:
192,192,54052,128,2,54389:0:0:0:0:
64,192,54052,1,0,0:0:0:0:
320,192,54221,1,8,0:0:0:0:
448,192,54221,1,0,0:0:0:0:
64,192,54389,128,0,54726:0:0:0:0:
320,192,54474,1,8,0:0:0:0:
448,192,54558,128,2,55148:0:0:0:0:
192,192,54558,1,0,0:0:0:0:
320,192,54726,128,2,55148:0:0:0:0:
64,192,54895,128,8,54979:0:0:0:0:
192,192,55064,128,0,55148:0:0:0:0:
64,192,55232,1,2,0:0:0:0:
448,192,55232,128,0,55569:0:0:0:0:
64,192,55401,1,2,0:0:0:0:
192,192,55569,128,8,55653:0:0:0:0:
320,192,55569,1,0,0:0:0:0:
64,192,55738,128,0,56075:0:0:0:0:
320,192,55906,1,2,0:0:0:0:
320,192,56075,1,2,0:0:0:0:
192,192,56243,128,8,56328:0:0:0:0:
448,192,56243,1,0,0:0:0:0:
320,192,56412,128,0,56749:0:0:0:0:
192,192,56580,1,2,0:0:0:0:
192,192,56749,1,2,0:0:0:0:
64,192,56917,128,8,57255:0:0:0:0:
320,192,56917,1,0,0:0:0:0:
192,192,57086,128,8,57255:0:0:0:0:
448,192,57086,1,0,0:0:0:0:
448,192,57255,128,2,57592:0:0:0:0:
320,192,57255,1,0,0:0:0:0:
192,192,57423,1,2,0:0:0:0:
320,192,57592,128,8,57929:0:0:0:0:
64,192,57592,1,0,0:0:0:0:
192,192,57929,1,2,0:0:0:0:
448,192,57929,1,4,0:0:0:0:
64,192,57929,128,0,58266:0:0:0:0:
320,192,58210,1,2,0:0:0:0:
192,192,58266,1,8,0:0:0:0:
448,192,58266,1,0,0:0:0:0:
320,192,58434,128,0,58519:0:0:0:0:
64,192,58603,128,2,58940:0:0:0:0:
192,192,58603,1,0,0:0:0:0:
448,192,58884,1,2,0:0:0:0:
320,192,58940,128,8,59024:0:0:0:0:
192,192,58940,1,0,0:0:0:0:
448,192,59108,128,0,59446:0:0:0:0:
64,192,59108,128,0,59277:0:0:0:0:
192,192,59193,128,0,59277:0:0:0:0:
320,192,59277,128,2,59446:0:0:0:0:
192,192,59558,1,2,0:0:0:0:
64,192,59614,128,8,59951:0:0:0:0:
448,192,59614,1,0,0:0:0:0:
448,192,59951,128,2,60120:0:0:0:0:
320,192,59951,1,0,0:0:0:0:
64,192,60035,128,8,60120:0:0:0:0:
192,192,60120,1,8,0:0:0:0:
320,192,60204,1,8,0:0:0:0:
64,192,60288,1,2,0:0:0:0:
192,192,60373,1,8,0:0:0:0:
448,192,60457,1,8,0:0:0:0:
320,192,60457,1,0,0:0:0:0:
64,192,60625,128,2,60710:0:0:0:0:
192,192,60625,128,4,60710:0:0:0:0:
448,192,60625,128,0,60878:0:0:0:0:
192,192,60794,128,2,60962:0:0:0:0:
64,192,60794,128,0,60962:0:0:0:0:
448,192,60962,1,8,0:0:0:0:
320,192,60962,1,0,0:0:0:0:
64,192,61131,128,2,61384:0:0:0:0:
192,192,61131,128,4,61384:0:0:0:0:
320,192,61131,128,0,61384:0:0:0:0:
448,192,61468,128,2,61721:0:0:0:0:
320,192,61468,1,0,0:0:0:0:
192,192,61637,1,8,0:0:0:0:
64,192,61637,1,0,0:0:0:0:
448,192,61805,128,2,62058:0:0:0:0:
64,192,61805,128,4,62058:0:0:0:0:
320,192,61805,128,0,62058:0:0:0:0:
192,192,62142,128,2,62226:0:0:0:0:
320,192,62142,1,0,0:0:0:0:
448,192,62311,1,8,0:0:0:0:
64,192,62311,1,0,0:0:0:0:
320,192,62479,128,8,62564:0:0:0:0:
192,192,62479,1,4,0:0:0:0:
320,192,62648,128,2,62732:0:0:0:0:
448,192,62648,1,0,0:0:0:0:
64,192,62816,1,8,0:0:0:0:
320,192,62901,1,8,0:0:0:0:
448,192,62985,1,2,0:0:0:0:
64,192,62985,1,0,0:0:0:0:
192,192,63069,1,8,0:0:0:0:
448,192,63153,1,8,0:0:0:0:
192,192,63238,1,8,0:0:0:0:
320,192,63322,1,2,0:0:0:0:
64,192,63322,1,4,0:0:0:0:
448,192,63322,128,0,63659:0:0:0:0:
192,192,63596,1,2,0:0:0:0:
320,192,63659,1,8,0:0:0:0:
64,192,63659,128,4,63743:0:0:0:0:
448,192,63828,128,0,63912:0:0:0:0:
64,192,63996,1,2,0:0:0:0:
192,192,64165,128,2,64502:0:0:0:0:
64,192,64165,1,0,0:0:0:0:
320,192,64333,1,8,0:0:0:0:
448,192,64333,1,0,0:0:0:0:
64,192,64502,128,2,64755:0:0:0:0:
448,192,64502,1,0,0:0:0:0:
64,192,64839,128,2,65176:0:0:0:0:
192,192,64839,1,0,0:0:0:0:
320,192,65007,1,8,0:0:0:0:
448,192,65007,1,0,0:0:0:0:
448,192,65176,128,0,65513:0:0:0:0:
192,192,65176,1,0,0:0:0:0:
64,192,65260,1,8,0:0:0:0:
320,192,65344,1,2,0:0:0:0:
64,192,65513,1,2,0:0:0:0:
192,192,65682,128,8,65766:0:0:0:0:
448,192,65682,1,0,0:0:0:0:
64,192,65850,128,8,65934:0:0:0:0:
448,192,65850,1,0,0:0:0:0:
320,192,66019,128,2,66356:0:0:0:0:
192,192,66019,1,0,0:0:0:0:
192,192,66187,1,2,0:0:0:0:
64,192,66356,128,8,66440:0:0:0:0:
448,192,66356,1,0,0:0:0:0:
448,192,66524,128,2,66861:0:0:0:0:
192,192,66524,1,0,0:0:0:0:
64,192,66693,1,8,0:0:0:0:
320,192,66693,1,0,0:0:0:0:
192,192,66861,128,2,67114:0:0:0:0:
64,192,66861,1,0,0:0:0:0:
320,192,67030,128,8,67114:0:0:0:0:
448,192,67030,1,0,0:0:0:0:
64,192,67198,128,2,67283:0:0:0:0:
192,192,67198,128,0,67283:0:0:0:0:
448,192,67198,128,0,67283:0:0:0:0:
64,192,67535,128,2,67620:0:0:0:0:
320,192,67535,128,0,67620:0:0:0:0:
448,192,67535,128,0,67620:0:0:0:0:
192,192,67704,1,8,0:0:0:0:
448,192,67704,1,0,0:0:0:0:
64,192,67873,128,2,67957:0:0:0:0:
192,192,67873,128,0,67957:0:0:0:0:
320,192,67873,128,0,67957:0:0:0:0:
448,192,68041,1,8,0:0:0:0:
64,192,68041,1,0,0:0:0:0:
320,192,68210,1,8,0:0:0:0:
192,192,68294,1,8,0:0:0:0:
320,192,68378,1,2,0:0:0:0:
64,192,68462,1,2,0:0:0:0:
192,192,68547,1,2,0:0:0:0:
320,192,68631,1,2,0:0:0:0:
64,192,68715,128,8,68799:0:0:0:0:
448,192,68715,128,0,68884:0:0:0:0:
448,192,68968,128,0,69137:0:0:0:0:
192,192,68968,128,8,69052:0:0:0:0:
448,192,69221,128,0,69305:0:0:0:0:
320,192,69221,128,8,69305:0:0:0:0:
448,192,69389,128,8,69558:0:0:0:0:
320,192,69389,128,0,69558:0:0:0:0:
64,192,69726,1,2,0:0:0:0:
192,192,69726,1,0,0:0:0:0:
64,192,70064,128,8,70232:0:0:0:0:
448,192,70064,128,0,70148:0:0:0:0:
64,192,70316,128,8,70485:0:0:0:0:
320,192,70316,128,0,70401:0:0:0:0:
64,192,70569,128,8,70653:0:0:0:0:
192,192,70569,128,0,70653:0:0:0:0:
64,192,70738,128,8,70906:0:0:0:0:
192,192,70738,128,0,70906:0:0:0:0:
320,192,70991,1,8,0:0:0:0:
448,192,70991,1,0,0:0:0:0:
192,192,71075,1,8,0:0:0:0:
64,192,71075,1,0,0:0:0:0:
320,192,71243,1,2,0:0:0:0:
64,192,71243,1,4,0:0:0:0:
448,192,71243,128,0,72086:0:0:0:0:
192,192,71580,1,2,0:0:0:0:
64,192,71749,1,8,0:0:0:0:
320,192,71749,1,0,0:0:0:0:
192,192,72086,1,2,0:0:0:0:
320,192,72255,128,2,72423:0:0:0:0:
192,192,72255,1,0,0:0:0:0:
64,192,72423,128,8,72676:0:0:0:0:
448,192,72423,1,4,0:0:0:0:
192,192,72592,128,2,72676:0:0:0:0:
64,192,72760,128,8,72844:0:0:0:0:
320,192,72760,128,0,72844:0:0:0:0:
448,192,72760,128,0,72844:0:0:0:0:
64,192,72929,128,8,73013:0:0:0:0:
448,192,72929,128,0,73013:0:0:0:0:
192,192,72929,128,0,73013:0:0:0:0:
320,192,73097,128,8,73266:0:0:0:0:
448,192,73097,128,0,73266:0:0:0:0:
64,192,73097,128,0,73266:0:0:0:0:
320,192,73434,128,2,73519:0:0:0:0:
64,192,73434,1,0,0:0:0:0:
192,192,73603,128,0,73687:0:0:0:0:
320,192,73687,1,8,0:0:0:0:
64,192,73771,128,8,73856:0:0:0:0:
448,192,73771,1,0,0:0:0:0:
320,192,73940,128,2,74361:0:0:0:0:
448,192,73940,128,4,74361:0:0:0:0:
64,192,73940,1,0,0:0:0:0:
192,192,74277,128,2,74361:0:0:0:0:
64,192,74446,1,8,0:0:0:0:
448,192,74446,1,0,0:0:0:0:
64,192,74614,128,2,75035:0:0:0:0:
448,192,74614,128,4,75035:0:0:0:0:
320,192,74614,1,0,0:0:0:0:
192,192,74951,128,2,75035:0:0:0:0:
448,192,75120,1,8,0:0:0:0:
64,192,75120,1,0,0:0:0:0:
192,192,75288,128,4,75710:0:0:0:0:
64,192,75288,128,2,75710:0:0:0:0:
448,192,75288,1,0,0:0:0:0:
448,192,75625,128,2,75710:0:0:0:0:
320,192,75794,1,8,0:0:0:0:
448,192,75794,1,0,0:0:0:0:
64,192,75794,1,0,0:0:0:0:
192,192,75962,128,2,76299:0:0:0:0:
448,192,76047,1,0,0:0:0:0:
320,192,76131,1,2,0:0:0:0:
448,192,76299,128,8,76384:0:0:0:0:
320,192,76384,1,2,0:0:0:0:
64,192,76468,128,2,76552:0:0:0:0:
320,192,76637,128,0,76721:0:0:0:0:
192,192,76805,128,4,76889:0:0:0:0:
448,192,76805,128,8,77226:0:0:0:0:
64,192,76805,1,0,0:0:0:0:
192,192,76974,128,2,77058:0:0:0:0:
192,192,77142,128,2,77226:0:0:0:0:
64,192,77311,128,8,77732:0:0:0:0:
448,192,77311,128,4,77479:0:0:0:0:
320,192,77311,1,0,0:0:0:0:
192,192,77479,128,2,77732:0:0:0:0:
320,192,77648,128,2,77732:0:0:0:0:
448,192,77816,1,8,0:0:0:0:
64,192,77816,1,0,0:0:0:0:
192,192,77985,1,4,0:0:0:0:
448,192,77985,128,2,78491:0:0:0:0:
64,192,77985,128,0,78238:0:0:0:0:
64,192,78322,128,8,78406:0:0:0:0:
320,192,78491,128,8,78575:0:0:0:0:
192,192,78659,128,8,78743:0:0:0:0:
448,192,78659,1,0,0:0:0:0:
320,192,78828,1,8,0:0:0:0:
64,192,78996,1,8,0:0:0:0:
448,192,79080,1,8,0:0:0:0:
64,192,79165,1,2,0:0:0:0:
320,192,79249,1,8,0:0:0:0:
192,192,79333,1,8,0:0:0:0:
320,192,79417,1,8,0:0:0:0:
448,192,79502,1,2,0:0:0:0:
192,192,79502,128,0,79586:0:0:0:0:
64,192,79502,128,0,79586:0:0:0:0:
320,192,79839,1,0,0:0:0:0:
192,192,80007,128,2,80344:0:0:0:0:
64,192,80007,128,4,80344:0:0:0:0:
448,192,80007,1,0,0:0:0:0:
320,192,80344,1,8,0:0:0:0:
448,192,80344,1,0,0:0:0:0:
320,192,80513,1,8,0:0:0:0:
448,192,80513,1,0,0:0:0:0:
448,192,80682,128,2,81187:0:0:0:0:
64,192,80682,128,4,81187:0:0:0:0:
192,192,80682,1,0,0:0:0:0:
320,192,81019,1,2,0:0:0:0:
192,192,81187,1,8,0:0:0:0:
64,192,81356,1,8,0:0:0:0:
192,192,81440,1,8,0:0:0:0:
448,192,81524,1,2,0:0:0:0:
320,192,81524,1,0,0:0:0:0:
192,192,81693,1,2,0:0:0:0:
448,192,81861,1,8,0:0:0:0:
64,192,81861,1,4,0:0:0:0:
320,192,82030,1,0,0:0:0:0:
320,192,82198,128,2,82283:0:0:0:0:
448,192,82198,128,4,82283:0:0:0:0:
64,192,82198,1,0,0:0:0:0:
192,192,82367,1,2,0:0:0:0:
64,192,82367,1,0,0:0:0:0:
448,192,82535,1,8,0:0:0:0:
64,192,82535,1,0,0:0:0:0:
320,192,82704,128,2,82873:0:0:0:0:
448,192,82704,128,0,82873:0:0:0:0:
192,192,83041,1,8,0:0:0:0:
64,192,83041,1,0,0:0:0:0:
192,192,83210,1,8,0:0:0:0:
64,192,83210,1,0,0:0:0:0:
320,192,83378,128,2,83884:0:0:0:0:
448,192,83378,128,4,83884:0:0:0:0:
64,192,83378,1,0,0:0:0:0:
192,192,83715,1,2,0:0:0:0:
64,192,83884,1,8,0:0:0:0:
448,192,84052,1,2,0:0:0:0:
64,192,84221,1,2,0:0:0:0:
192,192,84221,1,0,0:0:0:0:
448,192,84389,1,8,0:0:0:0:
64,192,84389,1,0,0:0:0:0:
448,192,84558,1,8,0:0:0:0:
64,192,84558,1,0,0:0:0:0:
320,192,84726,1,2,0:0:0:0:
192,192,84726,1,0,0:0:0:0:
192,192,84895,1,8,0:0:0:0:
448,192,84895,1,4,0:0:0:0:
64,192,84895,128,0,85232:0:0:0:0:
320,192,85064,1,2,0:0:0:0:
448,192,85064,1,0,0:0:0:0:
192,192,85232,128,8,85316:0:0:0:0:
448,192,85401,128,2,85653:0:0:0:0:
320,192,85401,128,0,85653:0:0:0:0:
64,192,85401,1,0,0:0:0:0:
64,192,85738,128,2,85991:0:0:0:0:
448,192,85906,1,8,0:0:0:0:
320,192,85906,1,0,0:0:0:0:
192,192,86075,128,2,86328:0:0:0:0:
64,192,86075,128,4,86328:0:0:0:0:
448,192,86075,128,0,86328:0:0:0:0:
448,192,86412,128,8,86496:0:0:0:0:
192,192,86412,1,0,0:0:0:0:
64,192,86580,128,2,86917:0:0:0:0:
320,192,86580,1,0,0:0:0:0:
448,192,86917,128,2,87507:0:0:0:0:
320,192,86917,128,4,87086:0:0:0:0:
192,192,86917,1,0,0:0:0:0:
320,192,87170,128,0,87507:0:0:0:0:
192,192,87423,128,0,87507:0:0:0:0:
448,192,87592,128,4,88940:0:0:0:0:
64,192,87592,1,2,0:0:0:0:
320,192,87592,128,0,88182:0:0:0:0:
64,192,88097,128,0,88771:0:0:0:0:
320,192,88266,128,0,88856:0:0:0:0:
