osu file format v14

[General]
AudioFilename: audio.mp3
AudioLeadIn: 0
PreviewTime: 51777
Countdown: 0
SampleSet: Soft
StackLeniency: 0.7
Mode: 3
LetterboxInBreaks: 0
SpecialStyle: 0
WidescreenStoryboard: 1

[Editor]
DistanceSpacing: 0.8
BeatDivisor: 4
GridSize: 4
TimelineZoom: 4.499998

[Metadata]
Title:Ashita no Kimi sae Ireba Ii. (TV Size)
TitleUnicode:明日の君さえいればいい。(TV Size)
Artist:ChouCho
ArtistUnicode:ChouCho
Creator:Scotty
Version:Normal
Source:妹さえいればいい。
Tags:anime japanese 伊藤賢 itou ken imosae imouto imoto opening jpop j-pop LACM-14658 A Sister's all you need. 松井洋平 Matsui Youhei yuxuki waga 和賀裕希 keppsado
BeatmapID:2391928
BeatmapSetID:1145173

[Difficulty]
HPDrainRate:7.5
CircleSize:4
OverallDifficulty:7
ApproachRate:5
SliderMultiplier:1.4
SliderTickRate:1

[Events]
//Background and Video events
0,0,"a.jpg",0,0
//Break Periods
//Storyboard Layer 0 (Background)
//Storyboard Layer 1 (Fail)
//Storyboard Layer 2 (Pass)
//Storyboard Layer 3 (Foreground)
//Storyboard Layer 4 (Overlay)
//Storyboard Sound Samples

[TimingPoints]
1300,337.078651685393,4,2,1,45,1,0
52535,-100,4,2,1,45,0,1
68715,-100,4,2,1,45,0,0

[HitObjects]
192,192,625,5,0,0:0:0:0:
320,192,878,1,0,0:0:0:0:
448,192,1131,1,0,0:0:0:0:
192,192,1300,1,0,0:0:0:0:
64,192,1300,1,0,0:0:0:0:
320,192,1637,1,0,0:0:0:0:
192,192,1805,1,0,0:0:0:0:
64,192,2142,1,0,0:0:0:0:
320,192,2479,1,0,0:0:0:0:
64,192,2648,1,0,0:0:0:0:
448,192,2648,1,0,0:0:0:0:
192,192,2985,1,0,0:0:0:0:
448,192,3153,1,0,0:0:0:0:
64,192,3153,1,0,0:0:0:0:
320,192,3322,1,0,0:0:0:0:
192,192,3575,1,0,0:0:0:0:
448,192,3828,1,0,0:0:0:0:
64,192,3996,1,0,0:0:0:0:
320,192,3996,1,0,0:0:0:0:
192,192,4333,1,0,0:0:0:0:
320,192,4502,1,0,0:0:0:0:
448,192,4502,1,0,0:0:0:0:
192,192,4839,1,0,0:0:0:0:
64,192,4839,1,0,0:0:0:0:
320,192,5176,1,0,0:0:0:0:
192,192,5344,1,0,0:0:0:0:
448,192,5344,1,0,0:0:0:0:
64,192,5682,1,0,0:0:0:0:
192,192,5850,1,0,0:0:0:0:
448,192,5850,1,0,0:0:0:0:
320,192,6019,1,0,0:0:0:0:
64,192,6187,1,0,0:0:0:0:
192,192,6356,1,0,0:0:0:0:
320,192,6693,1,0,0:0:0:0:
448,192,6693,1,0,0:0:0:0:
192,192,7030,1,0,0:0:0:0:
64,192,7198,1,0,0:0:0:0:
320,192,7535,1,0,0:0:0:0:
192,192,7873,1,0,0:0:0:0:
448,192,8041,1,0,0:0:0:0:
64,192,8041,1,0,0:0:0:0:
320,192,8210,1,0,0:0:0:0:
320,192,8378,1,0,0:0:0:0:
192,192,8715,1,0,0:0:0:0:
64,192,8968,1,0,0:0:0:0:
320,192,9221,1,0,0:0:0:0:
64,192,9389,1,0,0:0:0:0:
448,192,9389,1,0,0:0:0:0:
192,192,9895,1,0,0:0:0:0:
192,192,10064,128,0,10759:0:0:0:0:
320,192,10759,5,0,0:0:0:20:soft-hitfinish.wav
320,192,11103,1,0,0:0:0:20:soft-hitfinish.wav
64,192,11412,128,2,11580:0:0:0:0:
192,192,11580,128,8,11749:0:0:0:0:
448,192,11749,128,8,12086:0:0:0:0:
320,192,11917,128,2,12086:0:0:0:0:
192,192,12086,1,2,0:0:0:0:
64,192,12086,128,4,12760:0:0:0:0:
448,192,12423,1,8,0:0:0:0:
320,192,12423,1,4,0:0:0:0:
320,192,12760,1,2,0:0:0:0:
192,192,12929,1,2,0:0:0:0:
448,192,13266,128,8,14108:0:0:0:0:
64,192,13266,1,0,0:0:0:0:
320,192,13603,1,2,0:0:0:0:
64,192,13771,1,8,0:0:0:0:
192,192,13771,1,0,0:0:0:0:
192,192,14108,128,8,14277:0:0:0:0:
320,192,14108,1,0,0:0:0:0:
64,192,14277,128,2,14446:0:0:0:0:
448,192,14446,128,8,14614:0:0:0:0:
192,192,14446,1,0,0:0:0:0:
320,192,14614,128,0,14783:0:0:0:0:
64,192,14783,1,2,0:0:0:0:
64,192,14951,128,0,15457:0:0:0:0:
448,192,15120,1,8,0:0:0:0:
320,192,15120,1,0,0:0:0:0:
192,192,15457,128,2,15625:0:0:0:0:
448,192,15625,128,2,15962:0:0:0:0:
320,192,15794,128,0,15962:0:0:0:0:
192,192,15962,1,8,0:0:0:0:
64,192,15962,128,4,16805:0:0:0:0:
448,192,16299,1,2,0:0:0:0:
192,192,16468,1,8,0:0:0:0:
320,192,16637,1,8,0:0:0:0:
448,192,16805,128,6,17479:0:0:0:0:
192,192,16974,1,8,0:0:0:0:
64,192,17142,1,2,0:0:0:0:
320,192,17311,128,2,17479:0:0:0:0:
192,192,17479,1,2,0:0:0:0:
64,192,17479,1,4,0:0:0:0:
448,192,17816,1,8,0:0:0:0:
320,192,17816,1,0,0:0:0:0:
192,192,18153,1,2,0:0:0:0:
320,192,18322,1,2,0:0:0:0:
192,192,18491,1,8,0:0:0:0:
64,192,18491,1,0,0:0:0:0:
320,192,18828,1,2,0:0:0:0:
64,192,19165,1,8,0:0:0:0:
448,192,19165,1,0,0:0:0:0:
192,192,19417,1,8,0:0:0:0:
320,192,19502,1,0,0:0:0:0:
64,192,19670,1,2,0:0:0:0:
320,192,19839,1,8,0:0:0:0:
448,192,19839,1,0,0:0:0:0:
192,192,20176,1,2,0:0:0:0:
64,192,20513,1,8,0:0:0:0:
320,192,20513,1,0,0:0:0:0:
192,192,20766,1,8,0:0:0:0:
448,192,20850,1,2,0:0:0:0:
320,192,21019,1,2,0:0:0:0:
192,192,21187,1,8,0:0:0:0:
64,192,21187,1,0,0:0:0:0:
320,192,21524,128,2,21693:0:0:0:0:
64,192,21693,128,0,21861:0:0:0:0:
448,192,21861,128,8,22030:0:0:0:0:
320,192,21861,1,0,0:0:0:0:
192,192,22030,128,0,22198:0:0:0:0:
64,192,22198,128,0,22367:0:0:0:0:
448,192,22367,128,2,22535:0:0:0:0:
192,192,22535,128,8,22704:0:0:0:0:
64,192,22535,1,0,0:0:0:0:
320,192,22704,128,0,22873:0:0:0:0:
448,192,22873,1,2,0:0:0:0:
64,192,22873,1,4,0:0:0:0:
448,192,23041,128,0,23547:0:0:0:0:
192,192,23210,1,8,0:0:0:0:
64,192,23210,1,0,0:0:0:0:
64,192,23547,1,2,0:0:0:0:
64,192,23715,128,2,24221:0:0:0:0:
448,192,23884,1,8,0:0:0:0:
320,192,23884,1,0,0:0:0:0:
320,192,24221,1,2,0:0:0:0:
320,192,24389,128,2,24895:0:0:0:0:
64,192,24558,1,4,0:0:0:0:
192,192,24558,1,8,0:0:0:0:
192,192,24895,1,2,0:0:0:0:
448,192,25064,1,8,0:0:0:0:
448,192,25232,1,8,0:0:0:0:
64,192,25401,1,0,0:0:0:0:
448,192,25569,1,2,0:0:0:0:
320,192,25569,128,4,25906:0:0:0:0:
192,192,25906,1,8,0:0:0:0:
64,192,25906,1,0,0:0:0:0:
320,192,26075,1,2,0:0:0:0:
448,192,26243,1,8,0:0:0:0:
64,192,26243,1,0,0:0:0:0:
192,192,26412,1,2,0:0:0:0:
320,192,26580,1,8,0:0:0:0:
448,192,26580,1,0,0:0:0:0:
64,192,26749,128,2,27086:0:0:0:0:
192,192,26749,1,4,0:0:0:0:
320,192,27086,1,2,0:0:0:0:
192,192,27255,1,8,0:0:0:0:
448,192,27255,1,0,0:0:0:0:
64,192,27423,1,0,0:0:0:0:
320,192,27592,1,0,0:0:0:0:
64,192,27760,1,2,0:0:0:0:
192,192,27929,128,8,28266:0:0:0:0:
448,192,27929,1,4,0:0:0:0:
448,192,28266,128,4,28603:0:0:0:0:
64,192,28266,1,2,0:0:0:0:
192,192,28603,1,0,0:0:0:0:
320,192,28771,1,0,0:0:0:0:
64,192,28940,1,0,0:0:0:0:
448,192,29108,1,0,0:0:0:0:
320,192,29277,1,0,0:0:0:0:
64,192,29446,1,2,0:0:0:0:
192,192,29446,128,4,29783:0:0:0:0:
320,192,29783,1,2,0:0:0:0:
448,192,29951,1,8,0:0:0:0:
64,192,29951,1,0,0:0:0:0:
192,192,30120,1,2,0:0:0:0:
320,192,30288,1,8,0:0:0:0:
448,192,30288,1,0,0:0:0:0:
192,192,30541,1,8,0:0:0:0:
320,192,30541,1,0,0:0:0:0:
192,192,30794,1,8,0:0:0:0:
64,192,30794,1,0,0:0:0:0:
320,192,30962,1,2,0:0:0:0:
448,192,30962,1,0,0:0:0:0:
192,192,31131,1,2,0:0:0:0:
64,192,31299,1,4,0:0:0:0:
448,192,31299,1,8,0:0:0:0:
192,192,31637,128,2,31805:0:0:0:0:
64,192,31805,128,2,31974:0:0:0:0:
320,192,31974,1,8,0:0:0:0:
448,192,31974,1,0,0:0:0:0:
192,192,32142,1,2,0:0:0:0:
192,192,32479,1,2,0:0:0:0:
448,192,32648,1,8,0:0:0:0:
64,192,32648,1,0,0:0:0:0:
320,192,32816,1,0,0:0:0:0:
64,192,32985,1,2,0:0:0:0:
320,192,33153,1,8,0:0:0:0:
192,192,33322,1,2,0:0:0:0:
448,192,33491,1,8,0:0:0:0:
64,192,33659,1,2,0:0:0:0:
64,192,33828,128,2,34333:0:0:0:0:
320,192,33996,1,4,0:0:0:0:
448,192,33996,1,8,0:0:0:0:
448,192,34333,1,2,0:0:0:0:
448,192,34502,128,2,35007:0:0:0:0:
64,192,34670,1,4,0:0:0:0:
192,192,34670,1,8,0:0:0:0:
192,192,35007,1,2,0:0:0:0:
192,192,35176,128,2,35682:0:0:0:0:
448,192,35344,1,8,0:0:0:0:
320,192,35344,1,4,0:0:0:0:
320,192,35682,1,2,0:0:0:0:
320,192,35850,128,2,36356:0:0:0:0:
192,192,36019,1,8,0:0:0:0:
64,192,36356,1,4,0:0:0:0:
448,192,36356,1,2,0:0:0:0:
192,192,36524,1,2,0:0:0:0:
320,192,36693,1,8,0:0:0:0:
448,192,36693,1,0,0:0:0:0:
192,192,36861,1,2,0:0:0:0:
64,192,37030,1,8,0:0:0:0:
448,192,37030,1,0,0:0:0:0:
320,192,37198,1,2,0:0:0:0:
192,192,37367,1,8,0:0:0:0:
64,192,37367,1,0,0:0:0:0:
320,192,37535,1,2,0:0:0:0:
448,192,37535,128,4,37873:0:0:0:0:
192,192,37873,1,2,0:0:0:0:
64,192,38041,1,8,0:0:0:0:
320,192,38041,1,4,0:0:0:0:
448,192,38378,1,8,0:0:0:0:
64,192,38547,1,8,0:0:0:0:
320,192,38715,1,2,0:0:0:0:
192,192,38884,1,2,0:0:0:0:
448,192,39052,128,8,39389:0:0:0:0:
448,192,39558,128,8,39726:0:0:0:0:
192,192,39895,1,2,0:0:0:0:
448,192,40064,1,8,0:0:0:0:
320,192,40064,1,0,0:0:0:0:
192,192,40232,128,2,40401:0:0:0:0:
64,192,40232,128,0,40401:0:0:0:0:
192,192,40569,128,2,40738:0:0:0:0:
320,192,40569,128,4,40738:0:0:0:0:
64,192,40906,128,2,41412:0:0:0:0:
448,192,40906,128,4,41412:0:0:0:0:
320,192,41412,128,8,41749:0:0:0:0:
192,192,41412,1,4,0:0:0:0:
448,192,41749,1,2,0:0:0:0:
64,192,41749,128,4,41917:0:0:0:0:
448,192,42086,1,8,0:0:0:0:
192,192,42086,1,0,0:0:0:0:
320,192,42255,128,0,42423:0:0:0:0:
64,192,42423,1,2,0:0:0:0:
448,192,42592,1,2,0:0:0:0:
320,192,42760,1,8,0:0:0:0:
64,192,42929,128,2,43097:0:0:0:0:
192,192,42929,128,0,43097:0:0:0:0:
320,192,43266,128,2,43434:0:0:0:0:
192,192,43434,1,8,0:0:0:0:
448,192,43603,128,2,43771:0:0:0:0:
64,192,43603,128,4,43771:0:0:0:0:
320,192,43771,1,2,0:0:0:0:
192,192,43940,1,8,0:0:0:0:
64,192,44108,128,8,44446:0:0:0:0:
448,192,44108,1,4,0:0:0:0:
448,192,44446,128,2,44698:0:0:0:0:
192,192,44698,128,8,44951:0:0:0:0:
320,192,44951,128,8,45120:0:0:0:0:
64,192,45120,128,2,45373:0:0:0:0:
320,192,45373,128,8,45625:0:0:0:0:
192,192,45625,128,8,45794:0:0:0:0:
448,192,45794,128,2,46131:0:0:0:0:
64,192,45794,1,4,0:0:0:0:
320,192,46131,128,2,46468:0:0:0:0:
192,192,46299,1,8,0:0:0:0:
64,192,46468,128,2,46805:0:0:0:0:
448,192,46637,1,8,0:0:0:0:
192,192,46805,128,2,47142:0:0:0:0:
320,192,46974,1,8,0:0:0:0:
64,192,47142,1,2,0:0:0:0:
448,192,47142,128,4,48491:0:0:0:0:
192,192,47479,1,2,0:0:0:0:
64,192,47648,1,8,0:0:0:0:
320,192,47816,1,2,0:0:0:0:
192,192,47985,1,8,0:0:0:0:
64,192,48153,1,2,0:0:0:0:
320,192,48322,1,8,0:0:0:0:
192,192,48491,128,2,48659:0:0:0:0:
64,192,48659,128,8,48828:0:0:0:0:
320,192,48828,128,2,48996:0:0:0:0:
192,192,48996,128,8,49165:0:0:0:0:
448,192,49165,1,2,0:0:0:0:
320,192,49333,1,2,0:0:0:0:
64,192,49502,1,2,0:0:0:0:
192,192,49670,1,2,0:0:0:0:
320,192,49839,1,2,0:0:0:0:
448,192,49839,1,4,0:0:0:0:
64,192,50007,1,2,0:0:0:0:
192,192,50092,1,8,0:0:0:0:
320,192,50176,1,2,0:0:0:0:
192,192,50344,1,8,0:0:0:0:
64,192,50344,1,4,0:0:0:0:
448,192,50513,1,2,0:0:0:0:
320,192,50597,1,8,0:0:0:0:
192,192,50682,1,2,0:0:0:0:
64,192,50850,1,8,0:0:0:0:
448,192,50850,1,0,0:0:0:0:
320,192,51019,1,2,0:0:0:0:
192,192,51019,1,4,0:0:0:0:
192,192,51356,1,8,0:0:0:0:
64,192,51356,1,0,0:0:0:0:
320,192,51524,1,8,0:0:0:0:
448,192,51524,1,0,0:0:0:0:
192,192,51861,1,2,0:0:0:0:
64,192,52030,1,8,0:0:0:0:
448,192,52198,1,8,0:0:0:0:
320,192,52367,1,8,0:0:0:0:
64,192,52535,128,2,52873:0:0:0:0:
192,192,52535,1,4,0:0:0:0:
448,192,52873,1,8,0:0:0:0:
320,192,52873,1,4,0:0:0:0:
448,192,53041,1,0,0:0:0:0:
192,192,53210,1,2,0:0:0:0:
320,192,53378,1,2,0:0:0:0:
448,192,53547,1,8,0:0:0:0:
64,192,53547,1,0,0:0:0:0:
192,192,53715,1,2,0:0:0:0:
448,192,53884,1,0,0:0:0:0:
320,192,54052,1,2,0:0:0:0:
64,192,54221,1,8,0:0:0:0:
192,192,54221,1,0,0:0:0:0:
320,192,54474,1,8,0:0:0:0:
192,192,54558,1,2,0:0:0:0:
64,192,54726,1,2,0:0:0:0:
320,192,54895,1,8,0:0:0:0:
448,192,54895,1,0,0:0:0:0:
192,192,55232,1,2,0:0:0:0:
320,192,55401,1,2,0:0:0:0:
192,192,55569,1,8,0:0:0:0:
64,192,55569,1,0,0:0:0:0:
320,192,55906,1,2,0:0:0:0:
64,192,56075,1,2,0:0:0:0:
192,192,56243,1,8,0:0:0:0:
448,192,56243,1,0,0:0:0:0:
64,192,56580,1,2,0:0:0:0:
192,192,56749,1,2,0:0:0:0:
320,192,56917,1,8,0:0:0:0:
448,192,56917,1,0,0:0:0:0:
192,192,57086,1,8,0:0:0:0:
64,192,57086,1,0,0:0:0:0:
448,192,57255,1,2,0:0:0:0:
64,192,57423,1,2,0:0:0:0:
320,192,57592,1,8,0:0:0:0:
448,192,57592,1,0,0:0:0:0:
64,192,57929,1,2,0:0:0:0:
192,192,57929,128,4,58266:0:0:0:0:
448,192,58266,1,8,0:0:0:0:
320,192,58266,1,0,0:0:0:0:
64,192,58603,1,2,0:0:0:0:
192,192,58940,1,8,0:0:0:0:
448,192,58940,1,0,0:0:0:0:
320,192,59108,1,0,0:0:0:0:
64,192,59277,128,2,59614:0:0:0:0:
448,192,59614,1,8,0:0:0:0:
320,192,59614,1,0,0:0:0:0:
320,192,59951,128,2,60288:0:0:0:0:
192,192,60120,1,8,0:0:0:0:
64,192,60288,1,2,0:0:0:0:
448,192,60457,1,8,0:0:0:0:
192,192,60625,128,2,60962:0:0:0:0:
64,192,60625,128,4,60962:0:0:0:0:
320,192,60962,1,8,0:0:0:0:
192,192,61131,128,2,61468:0:0:0:0:
448,192,61131,128,4,61468:0:0:0:0:
64,192,61468,1,2,0:0:0:0:
192,192,61637,1,8,0:0:0:0:
448,192,61805,128,2,62142:0:0:0:0:
320,192,61805,128,4,62142:0:0:0:0:
192,192,62142,1,2,0:0:0:0:
64,192,62311,1,8,0:0:0:0:
448,192,62311,1,0,0:0:0:0:
320,192,62479,1,12,0:0:0:0:
192,192,62648,1,2,0:0:0:0:
448,192,62816,1,8,0:0:0:0:
64,192,62985,1,2,0:0:0:0:
192,192,63153,1,8,0:0:0:0:
320,192,63322,1,2,0:0:0:0:
448,192,63322,128,4,63659:0:0:0:0:
192,192,63659,1,8,0:0:0:0:
64,192,63659,1,4,0:0:0:0:
320,192,63996,1,2,0:0:0:0:
192,192,64165,1,2,0:0:0:0:
320,192,64333,1,8,0:0:0:0:
448,192,64333,1,0,0:0:0:0:
64,192,64502,1,2,0:0:0:0:
64,192,64839,1,2,0:0:0:0:
192,192,65007,1,8,0:0:0:0:
448,192,65007,1,0,0:0:0:0:
64,192,65260,1,8,0:0:0:0:
320,192,65344,1,2,0:0:0:0:
448,192,65513,1,2,0:0:0:0:
192,192,65682,1,8,0:0:0:0:
64,192,65682,1,0,0:0:0:0:
320,192,65850,1,8,0:0:0:0:
448,192,65850,1,0,0:0:0:0:
192,192,66019,1,2,0:0:0:0:
320,192,66187,1,2,0:0:0:0:
64,192,66356,1,8,0:0:0:0:
448,192,66356,1,0,0:0:0:0:
192,192,66524,1,2,0:0:0:0:
320,192,66693,1,8,0:0:0:0:
448,192,66693,1,0,0:0:0:0:
192,192,66861,1,2,0:0:0:0:
64,192,67030,1,8,0:0:0:0:
448,192,67030,1,0,0:0:0:0:
192,192,67198,128,2,67367:0:0:0:0:
320,192,67198,128,0,67367:0:0:0:0:
64,192,67535,128,2,67704:0:0:0:0:
192,192,67535,128,0,67704:0:0:0:0:
320,192,67704,1,8,0:0:0:0:
448,192,67873,128,2,68041:0:0:0:0:
64,192,67873,128,0,68041:0:0:0:0:
192,192,68041,1,8,0:0:0:0:
320,192,68210,1,8,0:0:0:0:
64,192,68378,1,2,0:0:0:0:
192,192,68547,1,2,0:0:0:0:
448,192,68715,1,8,0:0:0:0:
320,192,68715,1,0,0:0:0:0:
64,192,68968,1,8,0:0:0:0:
320,192,68968,1,0,0:0:0:0:
192,192,69221,1,8,0:0:0:0:
64,192,69221,1,0,0:0:0:0:
320,192,69389,1,8,0:0:0:0:
448,192,69389,1,0,0:0:0:0:
320,192,69726,1,2,0:0:0:0:
192,192,70064,1,8,0:0:0:0:
64,192,70064,1,0,0:0:0:0:
192,192,70316,1,8,0:0:0:0:
448,192,70316,1,0,0:0:0:0:
320,192,70569,1,8,0:0:0:0:
448,192,70569,1,0,0:0:0:0:
192,192,70738,1,8,0:0:0:0:
64,192,70738,1,0,0:0:0:0:
320,192,70991,1,8,0:0:0:0:
192,192,71075,1,8,0:0:0:0:
64,192,71243,1,2,0:0:0:0:
448,192,71243,128,4,71580:0:0:0:0:
192,192,71580,1,2,0:0:0:0:
320,192,71749,1,8,0:0:0:0:
448,192,71749,1,0,0:0:0:0:
64,192,71917,1,0,0:0:0:0:
192,192,72086,1,2,0:0:0:0:
448,192,72255,1,2,0:0:0:0:
64,192,72423,1,8,0:0:0:0:
320,192,72423,1,4,0:0:0:0:
192,192,72592,1,2,0:0:0:0:
320,192,72760,1,8,0:0:0:0:
448,192,72760,1,0,0:0:0:0:
192,192,72929,1,8,0:0:0:0:
64,192,72929,1,0,0:0:0:0:
320,192,73097,1,8,0:0:0:0:
448,192,73097,1,0,0:0:0:0:
64,192,73434,1,2,0:0:0:0:
320,192,73687,1,8,0:0:0:0:
192,192,73771,1,8,0:0:0:0:
64,192,73940,128,2,74108:0:0:0:0:
448,192,73940,1,4,0:0:0:0:
64,192,74277,128,2,74446:0:0:0:0:
448,192,74446,1,8,0:0:0:0:
192,192,74446,1,0,0:0:0:0:
320,192,74614,128,2,74783:0:0:0:0:
64,192,74614,1,4,0:0:0:0:
320,192,74951,128,2,75120:0:0:0:0:
64,192,75120,1,8,0:0:0:0:
192,192,75120,1,0,0:0:0:0:
448,192,75288,128,4,75457:0:0:0:0:
320,192,75288,1,2,0:0:0:0:
448,192,75625,128,2,75794:0:0:0:0:
192,192,75794,1,8,0:0:0:0:
64,192,75794,1,0,0:0:0:0:
320,192,75962,1,2,0:0:0:0:
64,192,76131,1,2,0:0:0:0:
448,192,76299,1,8,0:0:0:0:
192,192,76468,1,2,0:0:0:0:
320,192,76637,1,0,0:0:0:0:
192,192,76805,1,4,0:0:0:0:
64,192,76805,1,8,0:0:0:0:
320,192,76974,1,2,0:0:0:0:
320,192,77142,1,2,0:0:0:0:
448,192,77311,1,8,0:0:0:0:
64,192,77311,1,4,0:0:0:0:
192,192,77479,1,2,0:0:0:0:
192,192,77648,1,2,0:0:0:0:
320,192,77816,1,8,0:0:0:0:
448,192,77816,1,0,0:0:0:0:
192,192,77985,1,4,0:0:0:0:
64,192,77985,128,2,78322:0:0:0:0:
448,192,78322,1,8,0:0:0:0:
320,192,78491,1,8,0:0:0:0:
192,192,78659,1,8,0:0:0:0:
320,192,78828,1,8,0:0:0:0:
64,192,78996,1,8,0:0:0:0:
192,192,79165,1,2,0:0:0:0:
320,192,79333,1,8,0:0:0:0:
448,192,79502,1,2,0:0:0:0:
64,192,79502,1,0,0:0:0:0:
192,192,79839,1,0,0:0:0:0:
448,192,80007,1,2,0:0:0:0:
320,192,80007,128,4,80344:0:0:0:0:
192,192,80344,1,8,0:0:0:0:
192,192,80513,1,8,0:0:0:0:
448,192,80682,1,2,0:0:0:0:
64,192,80682,128,4,81019:0:0:0:0:
320,192,81019,1,2,0:0:0:0:
192,192,81187,1,8,0:0:0:0:
64,192,81187,1,0,0:0:0:0:
448,192,81356,1,8,0:0:0:0:
192,192,81524,1,2,0:0:0:0:
320,192,81693,1,2,0:0:0:0:
64,192,81861,1,8,0:0:0:0:
448,192,81861,1,4,0:0:0:0:
192,192,82198,1,2,0:0:0:0:
64,192,82198,1,4,0:0:0:0:
320,192,82367,1,2,0:0:0:0:
448,192,82535,1,8,0:0:0:0:
64,192,82535,1,0,0:0:0:0:
192,192,82704,128,2,83041:0:0:0:0:
320,192,83041,1,8,0:0:0:0:
448,192,83041,1,0,0:0:0:0:
192,192,83210,1,8,0:0:0:0:
64,192,83210,1,0,0:0:0:0:
448,192,83378,128,2,83715:0:0:0:0:
320,192,83378,1,4,0:0:0:0:
192,192,83715,1,2,0:0:0:0:
64,192,83884,1,8,0:0:0:0:
448,192,83884,1,0,0:0:0:0:
320,192,84052,1,2,0:0:0:0:
448,192,84221,1,2,0:0:0:0:
192,192,84389,1,8,0:0:0:0:
64,192,84389,1,0,0:0:0:0:
320,192,84558,1,8,0:0:0:0:
448,192,84558,1,0,0:0:0:0:
192,192,84726,1,2,0:0:0:0:
64,192,84895,1,8,0:0:0:0:
448,192,84895,1,4,0:0:0:0:
320,192,85064,1,2,0:0:0:0:
192,192,85232,1,8,0:0:0:0:
448,192,85401,1,2,0:0:0:0:
64,192,85401,128,0,85569:0:0:0:0:
192,192,85738,1,2,0:0:0:0:
320,192,85906,1,8,0:0:0:0:
64,192,85906,1,0,0:0:0:0:
448,192,86075,128,2,86917:0:0:0:0:
192,192,86075,1,4,0:0:0:0:
320,192,86412,1,8,0:0:0:0:
64,192,86580,1,2,0:0:0:0:
192,192,86917,128,2,87592:0:0:0:0:
64,192,86917,1,4,0:0:0:0:
448,192,87592,128,4,88940:0:0:0:0:
64,192,87592,128,2,88940:0:0:0:0:
