osu file format v14

[General]
AudioFilename: audio.mp3
AudioLeadIn: 0
PreviewTime: 51777
Countdown: 0
SampleSet: Soft
StackLeniency: 0.7
Mode: 3
LetterboxInBreaks: 0
SpecialStyle: 0
WidescreenStoryboard: 1

[Editor]
DistanceSpacing: 0.8
BeatDivisor: 4
GridSize: 4
TimelineZoom: 4.099998

[Metadata]
Title:Ashita no Kimi sae Ireba Ii. (TV Size)
TitleUnicode:明日の君さえいればいい。(TV Size)
Artist:ChouCho
ArtistUnicode:ChouCho
Creator:Scotty
Version:Easy
Source:妹さえいればいい。
Tags:anime japanese 伊藤賢 itou ken imosae imouto imoto opening jpop j-pop LACM-14658 A Sister's all you need. 松井洋平 Matsui Youhei yuxuki waga 和賀裕希 keppsado
BeatmapID:2391927
BeatmapSetID:1145173

[Difficulty]
HPDrainRate:7
CircleSize:4
OverallDifficulty:7
ApproachRate:5
SliderMultiplier:1.4
SliderTickRate:1

[Events]
//Background and Video events
0,0,"a.jpg",0,0
//Break Periods
//Storyboard Layer 0 (Background)
//Storyboard Layer 1 (Fail)
//Storyboard Layer 2 (Pass)
//Storyboard Layer 3 (Foreground)
//Storyboard Layer 4 (Overlay)
//Storyboard Sound Samples

[TimingPoints]
1300,337.078651685393,4,2,1,45,1,0
52535,-100,4,2,1,45,0,1
68715,-100,4,2,1,45,0,0

[HitObjects]
64,192,1300,5,0,0:0:0:0:
192,192,1300,1,0,0:0:0:0:
320,192,1637,1,0,0:0:0:0:
192,192,1805,1,0,0:0:0:0:
64,192,2648,1,0,0:0:0:0:
448,192,2648,1,0,0:0:0:0:
448,192,3153,1,0,0:0:0:0:
64,192,3153,1,0,0:0:0:0:
192,192,3659,1,0,0:0:0:0:
320,192,3996,1,0,0:0:0:0:
64,192,3996,1,0,0:0:0:0:
192,192,4502,1,0,0:0:0:0:
448,192,4502,1,0,0:0:0:0:
192,192,4839,1,0,0:0:0:0:
64,192,4839,1,0,0:0:0:0:
320,192,5344,1,0,0:0:0:0:
64,192,5344,1,0,0:0:0:0:
64,192,5850,1,0,0:0:0:0:
448,192,5850,1,0,0:0:0:0:
320,192,6693,1,0,0:0:0:0:
448,192,6693,1,0,0:0:0:0:
64,192,8041,1,0,0:0:0:0:
320,192,8041,1,0,0:0:0:0:
192,192,8715,1,0,0:0:0:0:
448,192,9389,1,0,0:0:0:0:
320,192,10759,1,0,0:0:0:20:soft-hitfinish.wav
320,192,11103,1,0,0:0:0:20:soft-hitfinish.wav
192,192,11412,128,2,11749:0:0:0:0:
320,192,11749,128,8,12086:0:0:0:0:
64,192,12086,1,2,0:0:0:0:
448,192,12086,1,4,0:0:0:0:
448,192,12423,1,8,0:0:0:0:
320,192,12423,1,4,0:0:0:0:
192,192,12760,1,2,0:0:0:0:
320,192,12929,1,2,0:0:0:0:
64,192,13266,1,8,0:0:0:0:
320,192,13603,1,2,0:0:0:0:
192,192,13771,1,8,0:0:0:0:
448,192,14108,128,8,14446:0:0:0:0:
192,192,14446,128,8,14783:0:0:0:0:
320,192,14783,1,2,0:0:0:0:
64,192,15120,1,8,0:0:0:0:
320,192,15457,128,2,15962:0:0:0:0:
64,192,15962,1,8,0:0:0:0:
448,192,15962,1,4,0:0:0:0:
192,192,16299,1,2,0:0:0:0:
448,192,16468,1,8,0:0:0:0:
320,192,16637,1,8,0:0:0:0:
192,192,16805,128,6,17479:0:0:0:0:
448,192,17479,1,2,0:0:0:0:
64,192,17479,1,4,0:0:0:0:
320,192,17816,1,8,0:0:0:0:
192,192,18153,1,2,0:0:0:0:
64,192,18491,1,8,0:0:0:0:
320,192,18828,1,2,0:0:0:0:
192,192,19165,1,8,0:0:0:0:
448,192,19502,1,0,0:0:0:0:
64,192,19839,1,8,0:0:0:0:
192,192,20176,1,2,0:0:0:0:
448,192,20513,1,8,0:0:0:0:
192,192,20850,1,2,0:0:0:0:
64,192,21187,1,8,0:0:0:0:
320,192,21524,128,2,21861:0:0:0:0:
64,192,21861,128,8,22198:0:0:0:0:
192,192,22198,128,0,22535:0:0:0:0:
448,192,22535,128,8,22873:0:0:0:0:
192,192,22873,1,2,0:0:0:0:
64,192,22873,128,4,23210:0:0:0:0:
320,192,23210,1,8,0:0:0:0:
448,192,23547,128,2,23884:0:0:0:0:
64,192,23884,1,8,0:0:0:0:
192,192,24221,128,2,24558:0:0:0:0:
448,192,24558,1,12,0:0:0:0:
320,192,24895,128,2,25232:0:0:0:0:
192,192,25232,1,8,0:0:0:0:
64,192,25569,1,2,0:0:0:0:
448,192,25569,1,4,0:0:0:0:
192,192,25906,1,8,0:0:0:0:
192,192,26243,1,8,0:0:0:0:
192,192,26580,1,8,0:0:0:0:
320,192,26749,1,2,0:0:0:0:
448,192,26749,1,4,0:0:0:0:
192,192,27086,1,2,0:0:0:0:
448,192,27255,1,8,0:0:0:0:
64,192,27423,1,0,0:0:0:0:
192,192,27592,1,0,0:0:0:0:
320,192,27929,1,8,0:0:0:0:
448,192,27929,1,4,0:0:0:0:
192,192,28266,1,4,0:0:0:0:
64,192,28266,1,2,0:0:0:0:
320,192,29446,1,2,0:0:0:0:
448,192,29446,1,4,0:0:0:0:
64,192,29783,1,2,0:0:0:0:
320,192,29951,1,8,0:0:0:0:
448,192,30120,1,2,0:0:0:0:
64,192,30288,1,8,0:0:0:0:
320,192,30541,1,8,0:0:0:0:
192,192,30794,1,8,0:0:0:0:
448,192,30962,1,2,0:0:0:0:
320,192,31131,1,2,0:0:0:0:
192,192,31299,1,8,0:0:0:0:
64,192,31299,1,4,0:0:0:0:
320,192,31637,1,2,0:0:0:0:
448,192,31974,1,8,0:0:0:0:
64,192,32142,1,2,0:0:0:0:
64,192,32479,1,2,0:0:0:0:
320,192,32648,1,8,0:0:0:0:
448,192,32985,128,2,33322:0:0:0:0:
192,192,33322,128,2,33659:0:0:0:0:
320,192,33659,128,2,33996:0:0:0:0:
192,192,33996,1,12,0:0:0:0:
64,192,34333,128,2,34670:0:0:0:0:
320,192,34670,1,12,0:0:0:0:
448,192,35007,128,2,35344:0:0:0:0:
192,192,35344,1,12,0:0:0:0:
192,192,35682,128,2,36019:0:0:0:0:
320,192,36019,1,8,0:0:0:0:
448,192,36356,1,4,0:0:0:0:
64,192,36356,1,2,0:0:0:0:
320,192,36693,1,8,0:0:0:0:
320,192,37030,1,8,0:0:0:0:
320,192,37367,1,8,0:0:0:0:
192,192,37535,1,2,0:0:0:0:
64,192,37535,1,4,0:0:0:0:
448,192,37873,1,2,0:0:0:0:
320,192,38041,1,12,0:0:0:0:
192,192,38378,1,8,0:0:0:0:
64,192,38547,1,8,0:0:0:0:
448,192,38715,1,2,0:0:0:0:
320,192,38884,1,2,0:0:0:0:
192,192,39052,128,8,39389:0:0:0:0:
192,192,39558,1,8,0:0:0:0:
320,192,39895,1,2,0:0:0:0:
64,192,40064,1,8,0:0:0:0:
448,192,40232,1,2,0:0:0:0:
192,192,40569,1,2,0:0:0:0:
320,192,40569,1,4,0:0:0:0:
192,192,40906,1,2,0:0:0:0:
64,192,40906,128,4,41412:0:0:0:0:
448,192,41412,1,8,0:0:0:0:
320,192,41412,1,4,0:0:0:0:
192,192,41749,1,2,0:0:0:0:
64,192,41749,1,4,0:0:0:0:
448,192,42086,1,8,0:0:0:0:
192,192,42255,1,0,0:0:0:0:
64,192,42592,1,2,0:0:0:0:
320,192,42760,1,8,0:0:0:0:
192,192,42929,1,2,0:0:0:0:
320,192,43266,1,2,0:0:0:0:
64,192,43603,1,2,0:0:0:0:
448,192,43603,128,4,44108:0:0:0:0:
192,192,44108,1,8,0:0:0:0:
64,192,44108,1,4,0:0:0:0:
320,192,44446,1,2,0:0:0:0:
192,192,44698,1,8,0:0:0:0:
320,192,44951,1,8,0:0:0:0:
64,192,45120,1,2,0:0:0:0:
448,192,45373,1,8,0:0:0:0:
64,192,45625,1,8,0:0:0:0:
320,192,45794,1,2,0:0:0:0:
448,192,45794,128,4,46131:0:0:0:0:
192,192,46131,128,2,46468:0:0:0:0:
64,192,46468,128,2,46805:0:0:0:0:
448,192,46805,128,2,47142:0:0:0:0:
64,192,47142,1,4,0:0:0:0:
192,192,47142,1,2,0:0:0:0:
320,192,47479,1,2,0:0:0:0:
192,192,47816,1,2,0:0:0:0:
320,192,48153,1,2,0:0:0:0:
64,192,48491,128,2,48828:0:0:0:0:
448,192,48828,128,2,49165:0:0:0:0:
320,192,49165,128,2,49502:0:0:0:0:
192,192,49502,128,2,49839:0:0:0:0:
64,192,49839,1,2,0:0:0:0:
448,192,49839,1,4,0:0:0:0:
192,192,50344,1,8,0:0:0:0:
64,192,50344,1,4,0:0:0:0:
320,192,50850,1,8,0:0:0:0:
64,192,51019,1,2,0:0:0:0:
448,192,51019,1,4,0:0:0:0:
192,192,51356,1,8,0:0:0:0:
320,192,51524,1,8,0:0:0:0:
64,192,51861,128,2,52198:0:0:0:0:
448,192,52198,128,8,52535:0:0:0:0:
64,192,52535,1,2,0:0:0:0:
192,192,52535,1,4,0:0:0:0:
320,192,52873,1,8,0:0:0:0:
448,192,52873,1,4,0:0:0:0:
192,192,53210,1,2,0:0:0:0:
448,192,53547,1,8,0:0:0:0:
64,192,53715,1,2,0:0:0:0:
64,192,54052,1,2,0:0:0:0:
320,192,54221,1,8,0:0:0:0:
192,192,54558,1,2,0:0:0:0:
448,192,54895,1,8,0:0:0:0:
64,192,55232,1,2,0:0:0:0:
320,192,55569,1,8,0:0:0:0:
192,192,55906,1,2,0:0:0:0:
448,192,56243,1,8,0:0:0:0:
64,192,56580,1,2,0:0:0:0:
320,192,56917,1,8,0:0:0:0:
448,192,57086,1,8,0:0:0:0:
64,192,57255,1,2,0:0:0:0:
192,192,57592,1,8,0:0:0:0:
320,192,57929,1,2,0:0:0:0:
448,192,57929,1,4,0:0:0:0:
64,192,58266,1,8,0:0:0:0:
192,192,58603,1,2,0:0:0:0:
448,192,58940,1,8,0:0:0:0:
320,192,59277,128,2,59614:0:0:0:0:
64,192,59614,1,8,0:0:0:0:
192,192,59951,128,2,60288:0:0:0:0:
320,192,60288,1,2,0:0:0:0:
448,192,60625,1,2,0:0:0:0:
64,192,60625,128,4,60962:0:0:0:0:
320,192,60962,1,8,0:0:0:0:
192,192,61131,128,2,61468:0:0:0:0:
448,192,61131,1,4,0:0:0:0:
320,192,61468,1,2,0:0:0:0:
64,192,61637,1,8,0:0:0:0:
448,192,61805,128,2,62142:0:0:0:0:
320,192,61805,1,4,0:0:0:0:
192,192,62142,1,2,0:0:0:0:
320,192,62311,1,8,0:0:0:0:
64,192,62479,1,12,0:0:0:0:
448,192,62648,1,2,0:0:0:0:
192,192,62816,128,8,63322:0:0:0:0:
448,192,63322,1,2,0:0:0:0:
64,192,63322,1,4,0:0:0:0:
320,192,63659,1,12,0:0:0:0:
448,192,63659,1,0,0:0:0:0:
192,192,63996,1,2,0:0:0:0:
64,192,64333,1,8,0:0:0:0:
320,192,64502,1,2,0:0:0:0:
320,192,64839,1,2,0:0:0:0:
192,192,65007,1,8,0:0:0:0:
64,192,65344,1,2,0:0:0:0:
192,192,65682,1,8,0:0:0:0:
320,192,65850,1,8,0:0:0:0:
448,192,66019,1,2,0:0:0:0:
192,192,66356,1,8,0:0:0:0:
192,192,66693,1,8,0:0:0:0:
192,192,67030,1,8,0:0:0:0:
320,192,67198,1,2,0:0:0:0:
64,192,67535,1,2,0:0:0:0:
448,192,67873,1,2,0:0:0:0:
320,192,68378,128,2,68715:0:0:0:0:
64,192,68715,1,8,0:0:0:0:
192,192,68968,1,8,0:0:0:0:
320,192,69221,1,8,0:0:0:0:
448,192,69389,1,8,0:0:0:0:
64,192,69726,1,2,0:0:0:0:
448,192,70064,1,8,0:0:0:0:
320,192,70316,1,8,0:0:0:0:
192,192,70569,1,8,0:0:0:0:
64,192,70738,1,8,0:0:0:0:
192,192,71075,1,8,0:0:0:0:
320,192,71243,1,2,0:0:0:0:
448,192,71243,128,4,72255:0:0:0:0:
192,192,72255,1,2,0:0:0:0:
64,192,72423,1,8,0:0:0:0:
320,192,72423,1,4,0:0:0:0:
448,192,72760,1,8,0:0:0:0:
64,192,72929,1,8,0:0:0:0:
448,192,73097,1,8,0:0:0:0:
192,192,73434,1,2,0:0:0:0:
448,192,73940,1,2,0:0:0:0:
64,192,73940,1,4,0:0:0:0:
64,192,74277,1,2,0:0:0:0:
192,192,74446,1,8,0:0:0:0:
320,192,74614,1,2,0:0:0:0:
448,192,74614,1,4,0:0:0:0:
448,192,74951,1,2,0:0:0:0:
320,192,75120,1,8,0:0:0:0:
64,192,75288,1,4,0:0:0:0:
192,192,75288,1,2,0:0:0:0:
64,192,75625,1,2,0:0:0:0:
448,192,75794,1,8,0:0:0:0:
320,192,76131,1,2,0:0:0:0:
192,192,76468,1,2,0:0:0:0:
448,192,76805,1,4,0:0:0:0:
64,192,76805,128,8,77311:0:0:0:0:
448,192,77311,128,8,77816:0:0:0:0:
320,192,77311,1,4,0:0:0:0:
192,192,77816,1,8,0:0:0:0:
320,192,77985,128,4,78491:0:0:0:0:
64,192,77985,1,2,0:0:0:0:
192,192,78491,1,8,0:0:0:0:
64,192,78659,1,8,0:0:0:0:
448,192,78828,1,8,0:0:0:0:
320,192,78996,128,8,79502:0:0:0:0:
64,192,79502,1,2,0:0:0:0:
448,192,80007,1,2,0:0:0:0:
192,192,80007,1,4,0:0:0:0:
64,192,80344,1,8,0:0:0:0:
192,192,80513,1,8,0:0:0:0:
320,192,80682,1,2,0:0:0:0:
448,192,80682,128,4,81019:0:0:0:0:
192,192,81019,1,2,0:0:0:0:
64,192,81187,1,8,0:0:0:0:
320,192,81524,1,2,0:0:0:0:
192,192,81861,1,8,0:0:0:0:
64,192,81861,1,4,0:0:0:0:
448,192,82198,1,2,0:0:0:0:
320,192,82198,1,4,0:0:0:0:
192,192,82535,1,8,0:0:0:0:
320,192,82704,1,2,0:0:0:0:
448,192,83041,1,8,0:0:0:0:
320,192,83210,1,8,0:0:0:0:
192,192,83378,128,2,83715:0:0:0:0:
64,192,83378,1,4,0:0:0:0:
448,192,83715,1,2,0:0:0:0:
320,192,83884,1,8,0:0:0:0:
64,192,84221,1,2,0:0:0:0:
192,192,84389,1,8,0:0:0:0:
448,192,84558,1,8,0:0:0:0:
320,192,84726,1,2,0:0:0:0:
192,192,84895,1,8,0:0:0:0:
64,192,84895,1,4,0:0:0:0:
448,192,85232,1,8,0:0:0:0:
320,192,85401,1,2,0:0:0:0:
64,192,85738,1,2,0:0:0:0:
192,192,85906,1,8,0:0:0:0:
320,192,86075,128,2,86917:0:0:0:0:
448,192,86075,1,4,0:0:0:0:
192,192,86917,128,2,87592:0:0:0:0:
64,192,86917,1,4,0:0:0:0:
448,192,87592,1,4,0:0:0:0:
64,192,87592,128,2,88940:0:0:0:0:
