osu file format v14

[General]
AudioFilename: audio.mp3
AudioLeadIn: 0
PreviewTime: 67129
Countdown: 0
SampleSet: Soft
StackLeniency: 0.7
Mode: 0
LetterboxInBreaks: 0
WidescreenStoryboard: 1

[Editor]
Bookmarks: 22827,33990,45153,56315,67478,78641,89804,100967,112129,117711,128874,140036,151199,156781,169339,180502,199164,205618
DistanceSpacing: 0.7
BeatDivisor: 4
GridSize: 16
TimelineZoom: 2.2

[Metadata]
Title:White Prism
TitleUnicode:White Prism
Artist:Chouchou-P feat. Hatsune Miku
ArtistUnicode:蝶々P feat. 初音ミク
Creator:dkblaze
Version:Nexus' Insane
Source:
Tags:Satellite Yuuma Ogura Yui frozz -Keqing NexusQI kuragehime papiyon Chouchoup Japanese pop rock Vocaloid Fictional World EXIT TUNES
BeatmapID:3041562
BeatmapSetID:1408763

[Difficulty]
HPDrainRate:5
CircleSize:3.8
OverallDifficulty:8
ApproachRate:9
SliderMultiplier:1.65
SliderTickRate:1

[Events]
//Background and Video events
0,0,"BG.jpg",0,0
//Break Periods
2,156981,161762
//Storyboard Layer 0 (Background)
//Storyboard Layer 1 (Fail)
//Storyboard Layer 2 (Pass)
//Storyboard Layer 3 (Foreground)
//Storyboard Layer 4 (Overlay)
//Storyboard Sound Samples

[TimingPoints]
502,348.837209302326,4,2,2,60,1,0
502,-166.666666666667,4,2,2,60,0,0
6083,-142.857142857143,4,2,2,60,0,0
8874,-125,4,2,2,60,0,0
10095,-111.111111111111,4,2,2,60,0,0
11664,-90.9090909090909,4,2,2,80,0,0
22827,-117.647058823529,4,2,2,70,0,0
33990,-90.9090909090909,4,2,2,75,0,0
45153,-105.263157894737,4,2,2,70,0,0
56315,-125,4,2,2,65,0,0
64339,-125,4,2,2,65,0,0
64688,-111.111111111111,4,2,2,65,0,0
67478,-83.3333333333333,4,2,2,80,0,1
77246,-76.9230769230769,4,2,2,80,0,1
78292,-100,4,2,2,80,0,1
78641,-90.9090909090909,4,2,2,80,0,0
89804,-105.263157894737,4,2,2,70,0,0
112129,-105.263157894737,4,2,2,70,0,0
117711,-83.3333333333333,4,2,2,80,0,1
128874,-90.9090909090909,4,2,2,80,0,0
151199,-105.263157894737,4,2,2,80,0,0
162362,-181.818181818183,4,2,2,55,0,0
166548,-133.333333333333,4,2,2,70,0,0
167071,-111.111111111111,4,2,2,70,0,0
167595,-90.9090909090909,4,2,2,70,0,0
169339,-83.3333333333333,4,2,2,80,0,1
180502,-90.9090909090909,4,2,2,80,0,0

[Colours]
Combo1 : 243,41,97
Combo2 : 156,158,250
Combo3 : 188,119,244
Combo4 : 68,68,247

[HitObjects]
398,263,502,5,2,3:2:0:0:
398,263,589,1,2,0:0:0:0:
322,294,763,2,0,L|234:271,1,74.2499977340699,2|0,0:0|0:0,0:0:0:0:
182,210,1199,2,0,L|177:185,1,24.74999924469,2|2,3:2|0:0,0:0:0:0:
244,142,1460,2,0,P|260:107|250:66,1,74.2499977340699,2|0,0:0|0:0,0:0:0:0:
151,15,1897,5,2,3:2:0:0:
151,15,1984,1,2,0:0:0:0:
84,69,2158,2,0,P|95:100|101:142,1,74.2499977340699,2|0,0:0|0:0,0:0:0:0:
7,222,2595,2,0,L|42:232,1,24.74999924469,2|2,3:2|0:0,0:0:0:0:
95,284,2856,2,0,L|183:263,1,74.2499977340699,2|0,0:0|0:0,0:0:0:0:
266,330,3292,5,2,3:2:0:0:
266,330,3379,1,2,0:0:0:0:
305,257,3554,2,0,P|305:213|277:182,1,74.2499977340699,2|0,0:0|0:0,0:0:0:0:
386,141,3990,2,0,L|428:153,1,24.74999924469,2|2,3:2|0:0,0:0:0:0:
494,127,4252,2,0,P|487:162|480:199,1,74.2499977340699,2|0,0:0|0:0,0:0:0:0:
429,59,4688,5,2,3:2:0:0:
426,46,4775,1,2,0:0:0:0:
424,34,4862,1,2,0:0:0:0:
422,22,4949,2,0,P|377:32|332:35,1,74.2499977340699,2|0,0:0|0:0,0:0:0:0:
250,92,5385,1,2,3:2:0:0:
250,92,5472,1,2,0:0:0:0:
307,149,5647,2,0,P|291:188|280:222,1,74.2499977340699,2|0,0:0|0:0,0:0:0:0:
411,268,6083,5,2,3:2:0:0:
407,253,6170,1,2,0:0:0:0:
476,322,6345,1,2,0:0:0:0:
369,384,6606,1,2,0:0:0:0:
283,331,6781,5,2,3:2:0:0:
288,316,6868,1,2,0:0:0:0:
217,384,7042,2,0,P|176:372|129:352,1,86.6249973564149,2|2,0:0|0:0,0:0:0:0:
56,266,7478,5,2,3:2:0:0:
66,257,7565,1,2,0:0:0:0:
121,179,7740,1,2,0:0:0:0:
240,236,8001,1,2,0:0:0:0:
222,57,8176,6,0,L|195:20,1,28.874999118805,2|2,3:2|0:0,0:0:0:0:
212,137,8350,6,0,L|193:178,1,28.874999118805,2|2,0:0|0:0,0:0:0:0:
287,106,8525,6,0,L|332:101,1,28.874999118805,2|2,3:2|0:0,0:0:0:0:
242,102,8699,5,2,0:0:0:0:
395,172,8874,5,10,3:2:0:0:
401,177,8961,2,0,L|385:222,1,33,10|8,0:0|0:0,0:0:0:0:
464,294,9135,1,10,0:0:0:0:
469,286,9222,2,0,L|457:244,1,33,8|8,3:2|0:0,0:0:0:0:
402,330,9397,2,0,L|389:288,1,33,8|8,0:0|0:0,0:0:0:0:
274,245,9571,5,10,3:2:0:0:
285,232,9658,2,0,L|296:190,1,33,10|8,0:0|0:0,0:0:0:0:
189,279,9833,1,10,0:0:0:0:
201,295,9920,1,8,3:2:0:0:
92,160,10095,5,8,0:0:0:0:
95,175,10182,1,8,0:0:0:0:
99,189,10269,2,0,L|153:174,3,37.1249988670349,14|2|2|2,3:2|0:0|0:0|0:0,0:0:0:0:
26,238,10618,1,10,3:2:0:0:
4,267,10705,1,8,0:0:0:0:
4,304,10792,1,8,0:0:0:0:
25,333,10879,1,8,0:0:0:0:
60,345,10966,1,14,3:2:0:0:
465,126,11664,6,0,P|455:151|448:189,2,45.3750013847352,6|0|0,3:1|0:0|0:0,0:0:0:0:
401,41,12013,1,8,0:0:0:0:
394,22,12100,1,0,0:0:0:0:
389,6,12188,2,0,P|364:14|346:20,1,45.3750013847352,0|8,3:0|0:0,0:0:0:0:
283,118,12362,2,0,P|259:112|233:106,3,45.3750013847352,2|2|2|2,3:2|0:0|3:2|3:2,0:0:0:0:
314,212,12711,1,10,0:0:0:0:
314,212,12798,1,2,0:0:0:0:
314,212,12885,1,2,3:2:0:0:
206,362,13060,5,2,3:2:0:0:
191,331,13147,1,0,0:0:0:0:
166,308,13234,1,0,3:0:0:0:
134,298,13321,1,0,3:0:0:0:
100,302,13408,1,8,0:0:0:0:
97,307,13583,5,0,3:0:0:0:
130,310,13670,1,8,0:0:0:0:
162,299,13757,1,0,3:0:0:0:
187,276,13844,1,0,0:0:0:0:
201,245,13932,2,0,P|187:215|180:197,1,45.3750013847352,2|2,3:2|3:2,0:0:0:0:
102,141,14106,2,0,P|108:112|114:89,3,45.3750013847352,10|2|2|2,0:0|0:0|3:2|0:0,0:0:0:0:
231,122,14455,5,2,3:2:0:0:
231,122,14542,1,0,0:0:0:0:
231,122,14629,1,0,0:0:0:0:
349,28,14804,1,8,0:0:0:0:
324,17,14891,1,0,0:0:0:0:
299,6,14978,2,0,P|310:51|313:63,1,45.3750013847352,0|8,3:2|0:0,0:0:0:0:
376,127,15153,2,0,P|371:149|366:172,3,45.3750013847352,2|2|2|2,3:2|0:0|3:2|3:2,0:0:0:0:
478,47,15502,1,10,0:0:0:0:
481,65,15589,1,2,0:0:0:0:
485,82,15676,2,0,P|463:76|439:72,1,45.3750013847352,2|2,3:2|0:0,0:0:0:0:
286,143,15850,5,2,3:2:0:0:
252,148,15937,1,0,0:0:0:0:
220,138,16024,1,0,3:0:0:0:
195,116,16111,1,0,3:0:0:0:
182,84,16198,1,8,0:0:0:0:
117,230,16374,1,0,3:0:0:0:
117,230,16461,1,8,0:0:0:0:
117,230,16548,2,0,L|170:213,1,45.3750013847352,0|0,3:0|0:0,0:0:0:0:
202,286,16722,2,0,L|255:269,1,45.3750013847352,0|0,3:0|3:0,0:0:0:0:
128,384,16897,2,0,P|84:371|38:360,1,90.7500027694703,14|10,0:0|0:0,0:0:0:0:
17,337,17158,5,10,0:0:0:0:
23,329,17246,2,0,L|40:276,2,45.3750013847352,6|0|0,3:1|0:0|0:0,0:0:0:0:
10,156,17595,1,8,0:0:0:0:
0,177,17682,1,0,0:0:0:0:
5,201,17769,2,0,L|64:184,1,45.3750013847352,0|8,3:0|0:0,0:0:0:0:
102,119,17944,2,0,P|124:124|146:129,3,45.3750013847352,2|2|2|2,3:2|0:0|3:2|3:2,0:0:0:0:
43,55,18293,1,10,0:0:0:0:
43,55,18380,1,2,0:0:0:0:
43,55,18467,1,2,3:2:0:0:
152,212,18641,5,2,3:2:0:0:
185,203,18728,1,0,0:0:0:0:
218,195,18815,1,0,3:0:0:0:
251,187,18902,1,0,3:0:0:0:
284,179,18989,1,8,0:0:0:0:
291,187,19164,5,0,3:0:0:0:
257,195,19251,1,8,0:0:0:0:
224,203,19338,1,0,3:0:0:0:
191,211,19425,1,0,0:0:0:0:
158,219,19513,2,0,P|165:188|170:172,1,45.3750013847352,2|2,3:2|3:2,0:0:0:0:
84,268,19688,2,0,L|105:332,3,45.3750013847352,10|2|2|2,0:0|0:0|3:2|0:0,0:0:0:0:
181,357,20036,6,0,P|201:344|229:336,2,45.3750013847352,6|0|0,3:2|0:0|0:0,0:0:0:0:
320,328,20385,1,8,0:0:0:0:
345,331,20472,1,0,0:0:0:0:
375,335,20559,2,0,P|364:290|361:278,1,45.3750013847352,0|8,3:2|0:0,0:0:0:0:
310,175,20734,2,0,L|299:219,3,45.3750013847352,2|2|2|2,3:2|0:0|3:2|3:2,0:0:0:0:
406,127,21083,1,10,0:0:0:0:
407,107,21170,1,2,0:0:0:0:
398,92,21257,2,0,P|367:98|350:102,1,45.3750013847352,2|2,3:2|0:0,0:0:0:0:
192,24,21432,5,2,3:2:0:0:
223,12,21519,1,0,0:0:0:0:
255,20,21606,1,0,3:0:0:0:
276,47,21693,1,0,3:0:0:0:
276,80,21780,1,8,0:0:0:0:
178,254,21955,1,0,3:0:0:0:
178,254,22042,1,8,0:0:0:0:
178,254,22129,2,0,L|238:237,1,45.3750013847352,0|0,3:0|0:0,0:0:0:0:
231,157,22304,2,0,L|274:169,1,45.3750013847352,0|0,3:0|3:0,0:0:0:0:
158,106,22478,2,0,P|152:80|147:57,3,45.3750013847352,14|2|10|10,0:0|0:0|0:0|0:0,0:0:0:0:
63,147,22827,6,0,P|40:182|50:235,1,70.1250013375282,6|0,3:1|0:0,0:0:0:0:
29,236,23089,2,0,P|40:261|42:281,1,35.0625006687641,0|10,0:0|0:0,0:0:0:0:
186,365,23350,2,0,B|97:349|97:349|82:379|35:387,1,140.250002675056,2|2,0:0|3:0,0:0:0:0:
186,365,23874,1,8,0:0:0:0:
280,255,24048,5,2,0:0:0:0:
180,213,24222,2,0,P|192:252|206:303,1,70.1250013375282,0|2,3:0|0:0,0:0:0:0:
104,173,24571,1,10,0:0:0:0:
244,126,24746,2,0,P|188:127|126:70,1,140.250002675056,2|2,0:0|3:2,0:0:0:0:
290,49,25269,1,8,0:0:0:0:
405,150,25443,5,2,3:2:0:0:
405,150,25618,2,0,P|390:117|381:74,1,70.1250013375282,2|0,3:2|0:0,0:0:0:0:
408,70,25879,2,0,P|412:50|423:21,1,35.0625006687641,2|8,0:0|0:0,0:0:0:0:
512,209,26141,2,0,P|440:225|408:294,1,140.250002675056,2|2,0:0|3:2,0:0:0:0:
253,254,26664,1,8,0:0:0:0:
381,384,26839,5,2,0:0:0:0:
289,384,27013,2,0,P|306:343|318:304,1,70.1250013375282,2|0,3:2|0:0,0:0:0:0:
336,298,27275,1,0,3:0:0:0:
336,298,27362,2,0,P|330:270|327:246,1,35.0625006687641,10|0,0:0|0:0,0:0:0:0:
200,348,27536,2,0,B|38:379,1,140.250002675056,2|2,3:2|3:2,0:0:0:0:
0,286,28060,2,0,P|8:266|18:228,3,35.0625006687641,10|8|8|8,0:0|0:0|0:0|0:0,0:0:0:0:
71,194,28408,6,0,P|58:157|49:114,1,70.1250013375282,2|0,3:1|0:0,0:0:0:0:
63,108,28670,2,0,P|84:114|110:119,1,35.0625006687641,0|10,0:0|0:0,0:0:0:0:
277,49,28932,2,0,B|210:63|209:26|126:43,1,140.250002675056,2|2,0:0|3:0,0:0:0:0:
138,40,29455,1,8,0:0:0:0:
200,168,29629,5,2,0:0:0:0:
287,150,29804,2,0,P|327:143|379:132,1,70.1250013375282,0|2,3:0|0:0,0:0:0:0:
173,315,30153,1,10,0:0:0:0:
254,258,30327,2,0,P|196:219|124:227,1,140.250002675056,2|2,0:0|3:2,0:0:0:0:
28,359,30850,1,8,0:0:0:0:
171,325,31025,5,2,3:2:0:0:
171,325,31199,2,0,P|129:314|90:305,1,70.1250013375282,2|0,3:2|0:0,0:0:0:0:
89,293,31461,2,0,L|40:280,1,35.0625006687641,2|8,0:0|0:0,0:0:0:0:
98,102,31722,2,0,P|136:149|125:229,1,140.250002675056,2|2,0:0|3:2,0:0:0:0:
206,317,32246,1,8,0:0:0:0:
328,226,32420,5,2,0:0:0:0:
328,226,32595,2,0,P|293:219|231:206,1,70.1250013375282,2|0,3:2|0:0,0:0:0:0:
237,216,32856,1,0,3:0:0:0:
237,216,32943,1,10,0:0:0:0:
312,350,33118,2,0,P|356:316|439:323,1,140.250002675056,2|2,3:2|3:2,0:0:0:0:
482,193,33641,2,0,L|466:248,3,35.0625006687641,10|8|8|8,0:0|0:0|0:0|0:0,0:0:0:0:
424,131,33990,6,0,P|418:106|407:68,2,45.3750013847352,6|0|0,3:1|0:0|0:0,0:0:0:0:
310,211,34339,1,8,0:0:0:0:
306,192,34426,1,0,0:0:0:0:
318,177,34514,2,0,P|343:185|361:191,1,45.3750013847352,0|8,3:0|0:0,0:0:0:0:
263,103,34688,2,0,P|240:107|219:120,3,45.3750013847352,2|2|2|2,3:2|0:0|3:2|3:2,0:0:0:0:
144,60,35036,1,10,0:0:0:0:
144,60,35123,1,2,0:0:0:0:
144,60,35211,1,2,3:2:0:0:
54,231,35385,5,2,3:2:0:0:
60,198,35472,1,0,0:0:0:0:
84,174,35559,1,0,3:0:0:0:
117,167,35646,1,0,3:0:0:0:
148,178,35733,1,8,0:0:0:0:
158,185,35908,5,0,3:0:0:0:
127,174,35995,1,8,0:0:0:0:
94,181,36082,1,0,3:0:0:0:
70,205,36169,1,0,0:0:0:0:
64,238,36257,2,0,P|93:251|117:256,1,45.3750013847352,2|2,3:2|3:2,0:0:0:0:
146,329,36432,2,0,P|178:328|201:326,3,45.3750013847352,10|2|2|2,0:0|0:0|3:2|0:0,0:0:0:0:
261,234,36781,5,2,3:2:0:0:
261,234,36868,1,0,0:0:0:0:
261,234,36955,1,0,0:0:0:0:
332,115,37130,1,8,0:0:0:0:
342,93,37217,1,0,0:0:0:0:
351,67,37304,2,0,P|346:42|334:11,1,45.3750013847352,0|8,3:2|0:0,0:0:0:0:
417,142,37479,2,0,P|442:135|467:127,3,45.3750013847352,2|2|2|2,3:2|0:0|3:2|3:2,0:0:0:0:
400,222,37827,1,10,0:0:0:0:
380,231,37914,1,2,0:0:0:0:
364,241,38002,2,0,P|371:266|379:291,1,45.3750013847352,2|2,3:2|0:0,0:0:0:0:
329,371,38176,5,2,3:2:0:0:
307,344,38263,1,0,0:0:0:0:
276,329,38350,1,0,3:0:0:0:
243,329,38437,1,0,3:0:0:0:
212,343,38524,1,8,0:0:0:0:
241,224,38700,1,0,3:0:0:0:
257,212,38787,1,8,0:0:0:0:
272,201,38874,2,0,L|289:254,1,45.3750013847352,0|0,3:0|0:0,0:0:0:0:
331,139,39048,2,0,P|334:114|337:95,1,45.3750013847352,0|0,3:0|3:0,0:0:0:0:
234,15,39223,2,0,P|193:32|137:45,1,90.7500027694703,14|10,0:0|0:0,0:0:0:0:
112,28,39484,5,10,0:0:0:0:
108,34,39572,2,0,L|125:87,2,45.3750013847352,6|0|0,3:1|0:0|0:0,0:0:0:0:
46,191,39921,1,8,0:0:0:0:
67,197,40008,1,0,0:0:0:0:
86,201,40095,2,0,L|70:146,1,45.3750013847352,0|8,3:0|0:0,0:0:0:0:
17,274,40270,2,0,P|3:291|5:314,3,45.3750013847352,2|2|2|2,3:2|0:0|3:2|3:2,0:0:0:0:
76,380,40619,1,10,0:0:0:0:
76,380,40706,1,2,0:0:0:0:
76,380,40793,1,2,3:2:0:0:
185,274,40967,5,2,3:2:0:0:
218,280,41054,1,0,0:0:0:0:
252,285,41141,1,0,3:0:0:0:
285,290,41228,1,0,3:0:0:0:
319,295,41315,1,8,0:0:0:0:
328,284,41490,5,0,3:0:0:0:
294,288,41577,1,8,0:0:0:0:
260,290,41664,1,0,3:0:0:0:
227,293,41751,1,0,0:0:0:0:
193,296,41839,2,0,L|180:354,1,45.3750013847352,2|2,3:2|3:2,0:0:0:0:
123,247,42013,2,0,L|134:199,3,45.3750013847352,10|2|2|2,0:0|0:0|3:2|0:0,0:0:0:0:
107,98,42362,6,0,P|90:113|86:151,2,45.3750013847352,6|0|0,3:2|0:0|0:0,0:0:0:0:
218,203,42711,1,8,0:0:0:0:
247,206,42798,1,0,0:0:0:0:
266,185,42885,2,0,P|255:140|252:128,1,45.3750013847352,0|8,3:2|0:0,0:0:0:0:
305,59,43060,2,0,L|312:14,3,45.3750013847352,2|2|2|2,3:2|0:0|3:2|3:2,0:0:0:0:
375,155,43409,1,10,0:0:0:0:
375,155,43496,1,2,0:0:0:0:
375,155,43583,2,0,L|382:110,1,45.3750013847352,2|2,3:2|0:0,0:0:0:0:
453,207,43757,5,2,3:2:0:0:
486,211,43844,1,0,0:0:0:0:
508,236,43931,1,0,3:0:0:0:
512,269,44018,1,0,3:0:0:0:
494,297,44105,1,8,0:0:0:0:
310,367,44281,1,0,3:0:0:0:
310,367,44368,1,8,0:0:0:0:
310,367,44455,2,0,L|372:354,1,45.3750013847352,0|0,3:0|0:0,0:0:0:0:
445,384,44630,2,0,P|436:363|425:328,1,45.3750013847352,0|0,3:0|3:0,0:0:0:0:
356,256,44804,2,0,P|356:241|365:205,3,45.3750013847352,14|2|10|10,0:0|0:0|0:0|0:0,0:0:0:0:
421,136,45153,6,0,P|427:102|392:60,1,78.3749979071618,6|0,3:1|0:0,0:0:0:0:
348,6,45414,2,0,P|330:14|306:18,1,39.1874989535809,0|10,0:0|0:0,0:0:0:0:
257,124,45676,2,0,B|91:91,1,156.749995814324,2|2,0:0|3:0,0:0:0:0:
201,18,46199,1,8,0:0:0:0:
26,151,46374,5,2,0:0:0:0:
126,169,46548,2,0,P|112:129|104:94,1,78.3749979071618,0|2,3:0|0:0,0:0:0:0:
63,243,46897,1,10,0:0:0:0:
238,232,47071,1,2,0:0:0:0:
221,226,47158,2,0,L|180:243,1,39.1874989535809,0|0,0:0|3:0,0:0:0:0:
248,86,47420,2,0,P|264:120|273:163,1,78.3749979071618,2|8,3:2|0:0,0:0:0:0:
329,300,47769,5,2,3:2:0:0:
329,300,47943,2,0,L|351:208,1,78.3749979071618,2|0,3:2|0:0,0:0:0:0:
387,153,48205,2,0,L|397:110,1,39.1874989535809,2|8,0:0|0:0,0:0:0:0:
494,217,48467,2,0,B|482:291|525:291|505:383,1,156.749995814324,2|2,0:0|3:2,0:0:0:0:
494,217,48990,1,8,0:0:0:0:
428,384,49164,5,2,0:0:0:0:
326,275,49339,1,2,3:2:0:0:
310,365,49513,2,0,P|332:361|360:348,1,39.1874989535809,0|0,3:0|3:0,0:0:0:0:
410,298,49688,1,10,0:0:0:0:
239,227,49862,2,0,P|214:153|268:82,1,156.749995814324,2|2,3:2|3:2,0:0:0:0:
169,193,50385,2,0,P|143:196|106:170,3,39.1874989535809,10|8|8|8,0:0|0:0|0:0|0:0,0:0:0:0:
63,121,50734,6,0,L|41:199,1,78.3749979071618,6|0,3:1|0:0,0:0:0:0:
0,261,50996,2,0,P|4:283|8:304,1,39.1874989535809,0|10,0:0|0:0,0:0:0:0:
189,313,51257,2,0,P|84:340|67:398,1,156.749995814324,2|2,0:0|3:0,0:0:0:0:
189,313,51781,1,8,0:0:0:0:
338,384,51955,5,2,0:0:0:0:
257,262,52129,2,0,P|263:301|268:341,1,78.3749979071618,0|2,3:0|0:0,0:0:0:0:
164,225,52478,1,10,0:0:0:0:
347,180,52653,2,0,P|285:178|201:116,1,156.749995814324,2|2,0:0|3:2,0:0:0:0:
54,170,53176,1,8,0:0:0:0:
208,126,53350,5,2,3:2:0:0:
208,126,53525,2,0,P|174:112|116:90,1,78.3749979071618,2|0,3:2|0:0,0:0:0:0:
77,35,53786,2,0,L|60:76,1,39.1874989535809,2|8,0:0|0:0,0:0:0:0:
166,220,54048,2,0,P|238:163|317:176,1,156.749995814324,2|2,0:0|3:2,0:0:0:0:
438,267,54571,1,8,0:0:0:0:
344,259,54746,5,2,0:0:0:0:
344,259,54920,2,0,P|359:302|369:343,1,78.3749979071618,2|0,3:2|0:0,0:0:0:0:
367,333,55182,1,0,3:0:0:0:
367,333,55269,1,10,0:0:0:0:
452,181,55443,2,0,L|468:103,1,78.3749979071618,2|0,3:2|3:0,0:0:0:0:
404,40,55792,1,2,3:2:0:0:
335,149,55967,2,0,P|357:141|393:127,3,39.1874989535809,10|8|8|8,0:0|0:0|0:0|0:0,0:0:0:0:
270,94,56315,6,0,P|229:55|174:64,2,99,6|0|0,3:1|3:0|3:0,0:0:0:0:
127,150,57013,2,0,P|110:102|86:36,2,99,10|0|0,0:0|3:0|3:0,0:0:0:0:
248,193,57711,6,0,P|210:209|183:223,1,66,2|0,3:2|0:0,0:0:0:0:
166,244,57972,2,0,P|133:237|96:226,1,66,0|0,3:0|0:0,0:0:0:0:
75,216,58234,1,0,3:0:0:0:
201,367,58408,2,0,L|220:303,1,66,10|0,0:0|3:0,0:0:0:0:
242,287,58670,1,0,3:0:0:0:
242,287,58757,1,10,0:0:0:0:
118,334,58932,1,0,3:0:0:0:
301,384,59106,6,0,P|331:371|393:359,1,66,6|2,3:2|0:0,0:0:0:0:
385,352,59368,2,0,L|355:263,1,66,0|0,3:0|0:0,0:0:0:0:
346,272,59629,1,0,3:0:0:0:
395,106,59804,2,0,P|421:138|414:181,1,66,10|0,0:0|0:0,0:0:0:0:
412,188,60065,2,0,P|381:182|320:166,1,66,0|0,3:0|0:0,0:0:0:0:
321,177,60327,1,0,3:0:0:0:
225,53,60502,6,0,P|281:44|316:-2,2,99,2|0|2,3:2|3:0|3:2,0:0:0:0:
394,116,61199,2,0,L|271:82,1,99,14|0,0:0|0:0,0:0:0:0:
239,147,61548,2,0,L|249:197,3,33,8|8|8|8,0:0|0:0|0:0|0:0,0:0:0:0:
334,253,61897,6,0,P|262:302|151:290,1,198,6|0,3:1|3:0,0:0:0:0:
236,190,62595,2,0,P|197:164|129:168,1,99,10|8,0:0|0:0,0:0:0:0:
143,171,62943,2,0,P|161:167|206:131,1,66,2|8,3:2|0:0,0:0:0:0:
30,44,63292,6,0,L|48:112,1,66,2|8,3:2|0:0,0:0:0:0:
2,188,63641,1,2,3:2:0:0:
131,89,63815,1,2,3:2:0:0:
2,188,63990,2,0,L|75:213,1,66,10|0,0:0|3:0,0:0:0:0:
88,246,64252,1,0,3:0:0:0:
88,246,64339,1,14,0:0:0:0:
228,114,64513,5,0,0:0:0:0:
228,114,64600,1,0,0:0:0:0:
228,114,64688,2,0,L|197:26,1,74.2499977340699,6|0,3:2|0:0,0:0:0:0:
317,157,65036,2,0,L|405:126,1,74.2499977340699,8|0,0:0|0:0,0:0:0:0:
269,237,65385,2,0,L|300:325,1,74.2499977340699,2|0,3:2|3:0,0:0:0:0:
179,200,65734,1,8,0:0:0:0:
97,224,65908,1,0,0:0:0:0:
225,117,66083,5,2,3:2:0:0:
225,117,66257,1,2,0:0:0:0:
383,189,66432,1,10,0:0:0:0:
269,237,66606,1,2,3:2:0:0:
276,220,66694,1,8,0:0:0:0:
283,199,66781,1,2,3:2:0:0:
336,63,66955,1,8,0:0:0:0:
355,43,67042,1,8,0:0:0:0:
382,44,67129,2,0,L|401:103,1,37.1249988670349,8|8,3:2|0:0,0:0:0:0:
474,100,67304,2,0,L|455:159,1,37.1249988670349,8|8,0:0|0:0,0:0:0:0:
484,311,67478,6,0,P|506:285|489:214,1,98.9999969787599,6|2,3:2|0:0,0:0:0:0:
422,199,67740,1,0,3:0:0:0:
412,193,67827,2,0,P|374:208|349:210,1,49.4999984893799,10|2,0:0|0:0,0:0:0:0:
462,135,68002,1,2,3:2:0:0:
341,1,68176,2,0,P|357:53|378:107,1,98.9999969787599,2|2,3:2|0:0,0:0:0:0:
369,116,68438,1,0,3:0:0:0:
369,116,68525,1,10,0:0:0:0:
442,5,68699,1,0,3:0:0:0:
261,173,68874,5,2,3:2:0:0:
261,173,69048,2,0,L|274:125,1,49.4999984893799,0|0,3:0|3:0,0:0:0:0:
182,0,69222,5,10,0:0:0:0:
182,0,69398,2,0,L|204:56,1,49.4999984893799,0|8,3:0|0:0,0:0:0:0:
115,166,69571,5,2,3:2:0:0:
115,166,69746,1,0,3:0:0:0:
15,218,69920,1,10,0:0:0:0:
187,331,70095,1,2,3:2:0:0:
5,313,70269,6,0,P|60:294|120:276,1,98.9999969787599,2|2,3:2|0:0,0:0:0:0:
166,234,70531,1,0,3:0:0:0:
166,234,70618,1,10,0:0:0:0:
341,372,70792,1,2,3:2:0:0:
312,376,70879,1,8,0:0:0:0:
286,380,70967,2,0,P|298:321|309:274,1,98.9999969787599,2|2,3:2|3:2,0:0:0:0:
330,285,71228,1,0,3:0:0:0:
330,285,71315,1,10,0:0:0:0:
202,115,71490,1,2,3:2:0:0:
398,225,71664,5,2,3:2:0:0:
404,189,71751,1,0,0:0:0:0:
386,157,71838,1,0,3:0:0:0:
352,145,71925,1,0,3:0:0:0:
318,157,72013,2,0,L|308:207,3,49.4999984893799,10|0|0|8,0:0|0:0|3:0|0:0,0:0:0:0:
454,113,72362,2,0,L|430:15,1,98.9999969787599,10|8,3:2|0:0,0:0:0:0:
355,0,72624,1,8,0:0:0:0:
355,0,72711,2,0,L|307:17,1,49.4999984893799,10|8,3:2|0:0,0:0:0:0:
264,83,72885,2,0,L|197:72,1,49.4999984893799,10|8,0:0|0:0,0:0:0:0:
116,114,73060,6,0,P|93:177|111:220,1,98.9999969787599,6|2,3:2|0:0,0:0:0:0:
125,285,73321,1,0,3:0:0:0:
132,290,73408,2,0,P|178:271|241:256,1,98.9999969787599,10|2,0:0|3:2,0:0:0:0:
25,285,73757,1,2,3:2:0:0:
194,188,73932,1,2,0:0:0:0:
194,188,74019,1,0,3:0:0:0:
194,188,74106,1,10,0:0:0:0:
20,86,74281,1,2,3:2:0:0:
102,209,74455,5,2,3:2:0:0:
102,209,74629,2,0,L|86:159,1,49.4999984893799,0|0,3:0|3:0,0:0:0:0:
191,19,74803,5,10,0:0:0:0:
191,19,74979,2,0,L|175:73,1,49.4999984893799,0|8,3:0|0:0,0:0:0:0:
291,152,75152,5,2,3:2:0:0:
355,43,75327,1,0,3:0:0:0:
355,43,75414,1,0,3:0:0:0:
355,43,75501,1,10,0:0:0:0:
197,152,75676,1,2,3:2:0:0:
370,225,75850,6,0,P|418:261|520:260,1,148.49999546814,6|0,3:2|3:0,0:0:0:0:
512,268,76199,2,0,L|476:372,1,98.9999969787599,8|0,0:2|3:0,0:0:0:0:
403,384,76461,1,8,0:0:0:0:
403,384,76548,2,0,P|352:367|303:355,1,98.9999969787599,0|0,3:2|3:0,0:0:0:0:
217,250,76897,2,0,L|119:268,1,98.9999969787599,8|0,0:2|3:0,0:0:0:0:
250,62,77246,6,0,B|286:99|286:99|253:168,1,107.249995090485,12|0,3:2|0:0,0:0:0:0:
259,59,77507,2,0,B|295:96|295:96|270:146,1,107.249995090485,10|0,3:2|0:0,0:0:0:0:
182,144,77769,6,0,B|163:122|163:122|182:81,1,53.6249975452424,10|0,3:2|0:0,0:0:0:0:
175,148,77943,2,0,B|156:126|156:126|175:85,1,53.6249975452424,10|0,3:2|0:0,0:0:0:0:
119,36,78118,1,8,0:0:0:0:
119,36,78205,1,8,0:0:0:0:
119,36,78292,2,0,P|97:50|75:56,3,41.25,8|8|8|8,3:2|0:0|0:0|0:0,0:0:0:0:
7,132,78641,6,0,P|25:160|32:195,2,45.3750013847352,6|0|0,3:1|0:0|0:0,0:0:0:0:
0,328,78990,1,8,0:0:0:0:
6,312,79077,1,0,0:0:0:0:
15,295,79165,2,0,L|68:313,1,45.3750013847352,0|8,3:0|0:0,0:0:0:0:
138,217,79339,2,0,L|90:233,3,45.3750013847352,2|2|2|2,3:2|0:0|3:2|3:2,0:0:0:0:
189,131,79688,1,10,0:0:0:0:
189,131,79775,1,2,0:0:0:0:
189,131,79862,1,2,3:2:0:0:
307,59,80036,5,2,3:2:0:0:
299,95,80123,1,2,0:0:0:0:
292,131,80210,1,2,3:2:0:0:
284,168,80297,1,2,3:2:0:0:
277,204,80384,1,10,0:0:0:0:
266,210,80560,5,2,3:2:0:0:
273,173,80647,1,10,0:0:0:0:
280,137,80734,1,2,3:2:0:0:
288,100,80821,1,2,0:0:0:0:
295,64,80908,2,0,P|327:76|344:83,1,45.3750013847352,2|2,3:2|3:2,0:0:0:0:
401,153,81083,2,0,P|424:146|461:132,3,45.3750013847352,10|2|2|2,0:0|0:0|3:2|0:0,0:0:0:0:
364,242,81432,5,2,3:2:0:0:
364,242,81519,1,0,0:0:0:0:
364,242,81606,1,0,0:0:0:0:
215,360,81781,1,8,0:0:0:0:
246,365,81868,1,0,0:0:0:0:
270,342,81955,2,0,P|259:297|253:286,1,45.3750013847352,0|8,3:2|0:0,0:0:0:0:
207,198,82129,2,0,L|192:264,3,45.3750013847352,2|2|2|2,3:2|0:0|3:2|3:2,0:0:0:0:
130,144,82479,1,10,0:0:0:0:
127,126,82566,1,2,0:0:0:0:
124,106,82653,2,0,L|171:94,1,45.3750013847352,2|2,3:2|0:0,0:0:0:0:
78,17,82827,5,2,3:2:0:0:
44,14,82914,1,0,0:0:0:0:
15,30,83001,1,0,3:0:0:0:
0,59,83088,1,0,3:0:0:0:
2,93,83175,1,8,0:0:0:0:
122,184,83350,1,0,3:0:0:0:
137,167,83437,1,8,0:0:0:0:
130,144,83524,2,0,P|108:130|82:133,1,45.3750013847352,0|0,3:0|0:0,0:0:0:0:
195,91,83699,2,0,P|189:65|168:49,1,45.3750013847352,0|0,3:0|3:0,0:0:0:0:
261,159,83874,2,0,P|304:139|359:123,1,90.7500027694703,14|10,0:0|0:0,0:0:0:0:
377,101,84135,5,10,0:0:0:0:
389,96,84223,2,0,L|374:161,2,45.3750013847352,6|0|0,3:1|0:0|0:0,0:0:0:0:
443,233,84572,1,8,0:0:0:0:
466,241,84659,1,0,0:0:0:0:
488,239,84746,2,0,L|473:181,1,45.3750013847352,0|8,3:0|0:0,0:0:0:0:
421,314,84921,2,0,P|400:320|376:326,3,45.3750013847352,2|2|2|2,3:2|0:0|3:0|3:0,0:0:0:0:
284,266,85269,1,10,0:0:0:0:
284,266,85356,1,2,0:0:0:0:
284,266,85443,1,2,3:0:0:0:
93,168,85618,5,2,3:2:0:0:
124,180,85705,1,2,0:0:0:0:
156,173,85792,1,2,3:2:0:0:
180,149,85879,1,2,3:2:0:0:
186,116,85966,1,10,0:0:0:0:
184,103,86141,5,2,3:2:0:0:
152,90,86228,1,10,0:0:0:0:
120,97,86315,1,2,3:2:0:0:
96,121,86402,1,2,0:0:0:0:
90,154,86490,2,0,P|109:189|117:217,1,45.3750013847352,2|2,3:2|3:2,0:0:0:0:
18,102,86665,2,0,P|24:79|32:58,3,45.3750013847352,10|2|2|2,0:0|0:0|3:2|0:0,0:0:0:0:
139,0,87013,6,0,P|161:10|193:19,2,45.3750013847352,6|0|0,3:1|0:0|0:0,0:0:0:0:
285,96,87362,1,8,0:0:0:0:
285,96,87449,1,0,0:0:0:0:
285,96,87536,2,0,P|262:94|239:78,1,45.3750013847352,0|8,3:0|0:0,0:0:0:0:
171,128,87711,2,0,P|156:110|151:82,3,45.3750013847352,2|2|2|2,3:2|0:0|3:2|3:2,0:0:0:0:
57,90,88060,1,10,0:0:0:0:
49,69,88147,1,2,0:0:0:0:
58,48,88234,2,0,P|76:24|112:14,1,45.3750013847352,2|2,3:2|0:0,0:0:0:0:
166,122,88408,5,2,3:2:0:0:
157,154,88495,1,0,0:0:0:0:
149,187,88582,1,0,3:0:0:0:
140,220,88669,1,0,3:0:0:0:
132,253,88756,1,8,0:0:0:0:
287,231,88932,1,0,3:0:0:0:
280,209,89019,1,8,0:0:0:0:
273,189,89106,2,0,L|229:206,1,45.3750013847352,2|2,3:2|0:0,0:0:0:0:
187,282,89281,2,0,P|165:275|144:267,1,45.3750013847352,2|2,3:2|3:2,0:0:0:0:
238,384,89455,2,0,P|254:360|249:335,3,45.3750013847352,10|10|10|10,0:0|0:0|0:0|0:0,0:0:0:0:
326,303,89804,6,0,P|368:316|417:323,1,78.3749979071618,6|0,3:1|0:0,0:0:0:0:
478,337,90065,2,0,P|470:360|461:383,1,39.1874989535809,0|10,0:0|0:0,0:0:0:0:
381,224,90327,2,0,P|374:137|411:72,1,156.749995814324,2|2,0:0|3:0,0:0:0:0:
405,77,90763,1,0,3:0:0:0:
405,77,90850,1,8,0:0:0:0:
252,7,91025,5,2,3:2:0:0:
252,7,91199,2,0,P|265:52|275:104,1,78.3749979071618,0|2,3:0|0:0,0:0:0:0:
229,167,91548,1,10,0:0:0:0:
378,211,91722,2,0,P|305:257|227:256,1,156.749995814324,2|2,0:0|3:2,0:0:0:0:
101,210,92246,1,8,0:0:0:0:
142,346,92420,5,2,3:2:0:0:
142,346,92594,2,0,L|163:252,1,78.3749979071618,2|0,3:2|0:0,0:0:0:0:
101,210,92856,5,10,0:0:0:0:
101,210,93118,1,2,3:2:0:0:
267,306,93467,1,2,3:2:0:0:
267,306,93554,1,0,3:0:0:0:
267,306,93641,1,8,0:0:0:0:
462,229,93815,5,2,0:0:0:0:
352,359,93990,1,2,3:2:0:0:
371,239,94164,2,0,L|389:287,1,39.1874989535809,0|0,0:0|3:0,0:0:0:0:
449,329,94339,1,10,0:0:0:0:
279,209,94513,2,0,P|350:204|422:135,1,156.749995814324,2|2,3:2|3:2,0:0:0:0:
454,45,95036,2,0,L|442:8,3,39.1874989535809,10|8|8|8,0:0|0:0|0:0|0:0,0:0:0:0:
337,0,95385,6,0,P|353:47|367:83,1,78.3749979071618,6|0,3:1|0:0,0:0:0:0:
329,143,95647,2,0,L|351:196,1,39.1874989535809,0|10,0:0|0:0,0:0:0:0:
512,288,95908,2,0,B|434:304|437:263|346:276,1,156.749995814324,2|2,0:0|3:0,0:0:0:0:
357,274,96345,1,0,3:0:0:0:
357,274,96432,1,8,0:0:0:0:
216,384,96606,5,2,3:2:0:0:
216,384,96780,2,0,L|300:361,1,78.3749979071618,0|2,3:0|0:0,0:0:0:0:
387,384,97129,1,10,0:0:0:0:
262,266,97304,2,0,L|100:242,1,156.749995814324,2|2,0:0|3:2,0:0:0:0:
179,169,97827,1,8,0:0:0:0:
0,108,98001,5,2,3:2:0:0:
0,108,98176,2,0,L|88:82,1,78.3749979071618,2|0,3:2|0:0,0:0:0:0:
104,162,98438,5,10,0:0:0:0:
104,162,98699,1,2,3:2:0:0:
319,210,99048,1,2,3:2:0:0:
319,210,99135,1,0,3:0:0:0:
319,210,99222,1,8,0:0:0:0:
234,89,99397,5,2,0:0:0:0:
340,11,99571,2,0,P|327:56|311:103,1,78.3749979071618,2|0,3:2|0:0,0:0:0:0:
317,85,99833,1,0,3:0:0:0:
317,85,99920,1,10,0:0:0:0:
417,224,100094,2,0,P|427:179|441:137,1,78.3749979071618,2|0,3:2|3:0,0:0:0:0:
341,277,100443,1,2,3:2:0:0:
494,325,100618,2,0,L|457:338,3,39.1874989535809,10|8|8|8,0:0|0:0|0:0|0:0,0:0:0:0:
396,384,100967,6,0,L|291:371,1,78.3749979071618,6|0,3:1|0:0,0:0:0:0:
264,318,101228,2,0,L|249:265,1,39.1874989535809,0|10,3:0|0:0,0:0:0:0:
297,139,101490,2,0,P|346:208|331:295,1,156.749995814324,2|2,0:0|3:2,0:0:0:0:
353,294,101926,1,0,0:0:0:0:
353,294,102013,2,0,L|400:300,1,39.1874989535809,10|2,0:0|0:0,0:0:0:0:
474,294,102188,2,0,L|458:238,1,39.1874989535809,2|2,3:2|0:0,0:0:0:0:
503,178,102362,6,0,P|510:123|511:89,1,78.3749979071618,0|2,3:0|0:0,0:0:0:0:
424,143,102711,1,10,0:0:0:0:
294,22,102885,2,0,P|349:51|428:28,1,117.562496860743,2|0,0:0|0:0,0:0:0:0:
413,38,103234,1,2,3:2:0:0:
290,115,103408,2,0,P|275:162|268:196,1,78.3749979071618,8|2,0:0|3:2,0:0:0:0:
283,206,103670,5,0,0:0:0:0:
283,206,103757,2,0,P|271:243|259:287,1,78.3749979071618,2|0,3:2|0:0,0:0:0:0:
295,352,104019,2,0,P|278:361|258:362,1,39.1874989535809,2|8,0:0|0:0,0:0:0:0:
160,226,104281,2,0,B|79:245|85:201|-9:216,1,156.749995814324,2|2,0:0|3:2,0:0:0:0:
2,203,104717,1,0,3:0:0:0:
6,189,104804,2,0,L|14:138,1,39.1874989535809,10|2,0:0|0:0,0:0:0:0:
24,71,104978,2,0,L|33:23,1,39.1874989535809,2|2,0:0|0:0,0:0:0:0:
112,17,105153,6,0,L|205:44,1,78.3749979071618,2|0,3:2|0:0,0:0:0:0:
208,31,105414,1,0,3:0:0:0:
208,31,105502,1,10,0:0:0:0:
342,154,105676,2,0,P|268:161|188:114,1,156.749995814324,2|2,3:2|3:2,0:0:0:0:
300,39,106199,2,0,L|349:26,3,39.1874989535809,10|8|8|8,0:0|0:0|0:0|0:0,0:0:0:0:
404,66,106548,6,0,P|449:80|504:87,1,78.3749979071618,6|0,3:1|0:0,0:0:0:0:
512,154,106810,2,0,L|501:192,1,39.1874989535809,0|10,3:0|0:0,0:0:0:0:
359,246,107071,2,0,P|438:253|499:310,1,156.749995814324,2|2,0:0|3:2,0:0:0:0:
501,310,107507,1,0,0:0:0:0:
501,310,107595,2,0,L|484:355,1,39.1874989535809,10|2,0:0|0:0,0:0:0:0:
412,359,107769,2,0,L|350:342,1,39.1874989535809,2|2,3:2|0:0,0:0:0:0:
289,280,107943,6,0,L|207:305,1,78.3749979071618,0|2,3:0|0:0,0:0:0:0:
350,232,108292,1,10,0:0:0:0:
264,384,108467,2,0,P|205:334|128:334,1,156.749995814324,2|2,0:0|3:2,0:0:0:0:
25,259,108990,2,0,P|83:249|131:237,1,78.3749979071618,8|2,0:0|3:2,0:0:0:0:
122,215,109252,5,0,0:0:0:0:
122,215,109339,2,0,L|212:197,1,78.3749979071618,2|0,3:2|0:0,0:0:0:0:
275,214,109600,2,0,P|277:199|287:167,1,39.1874989535809,2|8,0:0|0:0,0:0:0:0:
335,21,109862,2,0,P|350:97|364:175,1,156.749995814324,2|2,0:0|3:2,0:0:0:0:
383,192,110298,1,0,3:0:0:0:
383,192,110385,2,0,L|396:253,1,39.1874989535809,10|2,0:0|0:0,0:0:0:0:
330,291,110560,2,0,L|318:248,1,39.1874989535809,2|2,0:0|0:0,0:0:0:0:
441,372,110734,6,0,P|460:322|459:286,1,78.3749979071618,2|0,3:2|0:0,0:0:0:0:
457,283,110996,1,0,3:0:0:0:
457,283,111083,1,10,0:0:0:0:
347,384,111257,2,0,P|273:362|188:334,1,156.749995814324,2|2,3:2|3:2,0:0:0:0:
322,287,111781,2,0,L|307:233,3,39.1874989535809,10|8|8|8,0:0|0:0|0:0|0:0,0:0:0:0:
371,170,112129,5,6,3:1:0:0:
461,142,112304,1,2,0:0:0:0:
395,71,112478,1,8,0:0:0:0:
305,100,112653,1,2,3:2:0:0:
232,200,112827,2,0,P|189:202|148:169,1,78.3749979071618,2|8,3:2|0:0,0:0:0:0:
152,168,113089,2,0,L|168:114,1,39.1874989535809,2|0,0:0|0:0,0:0:0:0:
48,9,113350,5,2,3:2:0:0:
0,97,113525,2,0,L|25:191,1,78.3749979071618,2|2,0:0|3:2,0:0:0:0:
20,172,113786,1,0,3:0:0:0:
20,172,113874,1,10,0:0:0:0:
67,289,114048,1,2,3:2:0:0:
107,210,114222,1,10,0:0:0:0:
246,344,114397,5,2,0:0:0:0:
168,371,114571,1,2,3:2:0:0:
168,371,114658,1,2,3:2:0:0:
168,371,114746,2,0,L|153:321,1,39.1874989535809,10|8,0:0|0:0,0:0:0:0:
195,258,114920,5,2,3:2:0:0:
214,168,115095,1,2,0:0:0:0:
307,188,115269,1,10,0:0:0:0:
287,275,115443,1,2,3:2:0:0:
379,118,115618,2,0,P|378:75|345:36,1,78.3749979071618,2|8,3:2|0:0,0:0:0:0:
336,38,115879,2,0,P|316:51|294:58,1,39.1874989535809,0|2,0:0|3:2,0:0:0:0:
107,61,116141,5,6,0:1:0:0:
148,128,116315,2,0,P|184:139|237:151,1,78.3749979071618,2|2,0:0|0:0,0:0:0:0:
358,238,116664,1,10,0:0:0:0:
358,238,116752,1,8,0:0:0:0:
358,238,116839,2,0,L|406:223,2,39.1874989535809,4|4|10,0:3|0:3|0:0,0:0:0:0:
204,384,117711,6,0,P|147:373|75:351,1,98.9999969787599,6|2,3:2|0:0,0:0:0:0:
82,291,117973,1,0,3:0:0:0:
77,282,118060,2,0,L|101:225,1,49.4999984893799,10|2,0:0|0:0,0:0:0:0:
12,232,118235,1,2,3:2:0:0:
126,59,118409,2,0,P|149:88|158:164,1,98.9999969787599,2|2,3:2|0:0,0:0:0:0:
146,165,118671,1,0,3:0:0:0:
146,165,118758,1,10,0:0:0:0:
90,301,118932,1,0,3:0:0:0:
275,236,119107,5,2,3:2:0:0:
275,236,119281,2,0,P|243:230|212:213,1,49.4999984893799,0|0,3:0|3:0,0:0:0:0:
377,339,119455,5,10,0:0:0:0:
377,339,119629,2,0,P|345:345|314:362,1,49.4999984893799,0|8,3:0|0:0,0:0:0:0:
459,209,119804,5,2,3:2:0:0:
284,120,119978,1,0,3:0:0:0:
284,120,120065,1,0,3:0:0:0:
284,120,120153,1,10,0:0:0:0:
354,258,120328,1,2,3:2:0:0:
481,49,120502,6,0,P|429:64|382:81,1,98.9999969787599,2|2,3:2|0:0,0:0:0:0:
365,156,120762,1,0,3:0:0:0:
365,156,120850,1,10,0:0:0:0:
190,52,121025,1,2,3:2:0:0:
190,20,121112,1,8,0:0:0:0:
220,0,121199,2,0,P|270:11|330:26,1,98.9999969787599,2|2,3:2|3:2,0:0:0:0:
350,11,121461,1,0,3:0:0:0:
350,11,121548,1,10,0:0:0:0:
198,134,121723,1,2,3:2:0:0:
400,217,121897,5,2,3:2:0:0:
392,181,121984,1,0,0:0:0:0:
365,156,122071,1,0,3:0:0:0:
329,152,122158,1,0,3:0:0:0:
297,170,122246,2,0,P|308:194|312:221,3,49.4999984893799,10|0|0|8,0:0|0:0|3:0|0:0,0:0:0:0:
356,319,122595,2,0,P|310:305|253:299,1,98.9999969787599,10|8,3:2|0:0,0:0:0:0:
213,363,122857,1,8,0:0:0:0:
213,363,122944,2,0,L|166:378,1,49.4999984893799,10|8,3:2|0:0,0:0:0:0:
97,339,123118,2,0,L|37:315,1,49.4999984893799,10|8,0:0|0:0,0:0:0:0:
142,267,123293,6,0,P|145:203|118:164,1,98.9999969787599,6|2,3:2|0:0,0:0:0:0:
46,121,123554,1,0,3:0:0:0:
54,115,123641,2,0,P|97:98|156:79,1,98.9999969787599,10|2,0:0|3:2,0:0:0:0:
312,146,123990,1,2,3:2:0:0:
172,0,124165,1,2,0:0:0:0:
179,8,124252,1,0,3:0:0:0:
179,8,124339,1,10,0:0:0:0:
379,70,124514,1,2,3:2:0:0:
228,185,124688,5,2,3:2:0:0:
228,185,124862,2,0,L|212:127,1,49.4999984893799,0|0,3:0|3:0,0:0:0:0:
309,278,125036,5,10,0:0:0:0:
309,278,125212,2,0,L|319:229,1,49.4999984893799,0|8,3:0|0:0,0:0:0:0:
233,365,125385,5,2,3:2:0:0:
385,291,125560,1,0,3:0:0:0:
392,298,125647,1,0,3:0:0:0:
392,298,125734,1,10,0:0:0:0:
228,185,125909,1,2,3:2:0:0:
345,384,126083,6,0,P|401:338|482:351,1,148.49999546814,6|0,3:2|3:0,0:0:0:0:
501,353,126432,2,0,L|481:251,1,98.9999969787599,8|0,0:2|3:0,0:0:0:0:
412,216,126693,1,8,0:0:0:0:
412,216,126781,2,0,P|420:165|435:103,1,98.9999969787599,0|0,3:2|3:0,0:0:0:0:
327,10,127130,2,0,L|306:129,1,98.9999969787599,8|0,0:2|3:0,0:0:0:0:
184,243,127478,6,0,P|228:214|285:214,1,98.9999969787599,12|0,3:2|0:0,0:0:0:0:
180,234,127740,2,0,P|224:205|281:205,1,98.9999969787599,10|0,3:2|0:0,0:0:0:0:
171,139,128002,6,0,P|143:136|113:114,1,49.4999984893799,10|0,3:2|0:0,0:0:0:0:
176,130,128176,2,0,P|148:127|118:105,1,49.4999984893799,10|0,3:2|0:0,0:0:0:0:
223,32,128351,1,8,0:0:0:0:
223,32,128438,1,8,0:0:0:0:
223,32,128525,2,0,P|201:46|173:49,3,49.4999984893799,8|8|8|8,3:2|0:0|0:0|0:0,0:0:0:0:
281,101,128874,6,0,B|354:107|345:73|423:85,1,136.125004154205,6|0,3:1|3:0,0:0:0:0:
422,82,129222,1,8,0:0:0:0:
481,192,129397,1,0,3:0:0:0:
481,192,129484,1,8,0:0:0:0:
481,192,129571,2,0,L|456:292,1,90.7500027694703,0|0,3:0|3:0,0:0:0:0:
458,280,129833,1,0,3:0:0:0:
458,280,129920,1,8,0:0:0:0:
383,214,130095,1,0,3:0:0:0:
512,367,130269,6,0,P|469:378|413:389,1,90.7500027694703,2|2,3:2|0:0,0:0:0:0:
401,370,130531,1,2,3:2:0:0:
401,370,130618,1,10,0:0:0:0:
225,265,130792,2,0,P|251:257|284:248,2,45.3750013847352,2|8|2,3:2|0:0|3:2,0:0:0:0:
309,384,131141,1,2,3:2:0:0:
309,384,131228,1,0,3:0:0:0:
309,384,131315,2,0,P|323:333|344:279,1,90.7500027694703,8|0,0:0|3:0,0:0:0:0:
412,143,131664,6,0,P|419:59|391:2,1,136.125004154205,2|0,3:2|3:0,0:0:0:0:
391,0,132013,1,10,0:0:0:0:
223,98,132188,1,0,3:0:0:0:
239,87,132275,2,0,P|289:98|336:111,1,90.7500027694703,8|0,0:0|0:0,0:0:0:0:
332,121,132536,2,0,L|277:108,1,45.3750013847352,0|0,3:0|3:0,0:0:0:0:
204,1,132711,2,0,P|162:23|112:32,1,90.7500027694703,8|0,0:0|3:0,0:0:0:0:
89,13,132972,5,0,0:0:0:0:
89,13,133060,2,0,P|98:51|104:71,3,45.3750013847352,2|2|2|2,3:2|0:0|3:2|3:2,0:0:0:0:
45,121,133408,2,0,L|65:181,3,45.3750013847352,10|2|2|10,0:0|0:0|3:2|0:0,0:0:0:0:
140,187,133757,1,2,3:2:0:0:
155,196,133845,1,2,0:0:0:0:
168,204,133932,2,0,P|158:231|151:260,1,45.3750013847352,2|2,3:2|3:2,0:0:0:0:
85,310,134106,2,0,P|129:324|180:345,1,90.7500027694703,14|10,0:0|0:0,0:0:0:0:
189,365,134368,5,10,0:0:0:0:
189,365,134455,2,0,P|226:328|323:345,1,136.125004154205,6|0,3:1|3:0,0:0:0:0:
311,343,134804,1,8,0:0:0:0:
374,218,134978,1,0,3:0:0:0:
374,218,135065,1,8,0:0:0:0:
374,218,135153,2,0,P|331:229|283:237,1,90.7500027694703,2|0,3:2|3:0,0:0:0:0:
257,220,135414,1,0,3:0:0:0:
257,220,135502,1,8,0:0:0:0:
388,118,135676,1,0,3:0:0:0:
258,30,135850,6,0,P|275:72|291:114,1,90.7500027694703,2|0,3:2|3:0,0:0:0:0:
282,128,136112,2,0,L|247:29,1,90.7500027694703,2|0,3:2|0:0,0:0:0:0:
180,14,136374,2,0,P|153:25|120:28,1,45.3750013847352,2|8,3:2|0:0,0:0:0:0:
67,71,136548,1,0,3:0:0:0:
60,75,136635,2,0,P|82:92|102:119,1,45.3750013847352,0|0,0:0|3:0,0:0:0:0:
163,153,136810,1,0,3:0:0:0:
173,149,136897,2,0,P|176:120|190:89,3,45.3750013847352,10|2|2|2,0:0|0:0|3:2|0:0,0:0:0:0:
243,199,137246,6,0,P|180:193|122:260,1,136.125004154205,6|0,3:1|3:0,0:0:0:0:
121,254,137595,1,10,0:0:0:0:
295,308,137769,1,0,3:0:0:0:
295,308,137856,1,8,0:0:0:0:
295,308,137943,2,0,P|250:293|187:278,1,90.7500027694703,0|0,3:0|3:0,0:0:0:0:
198,295,138205,1,0,3:0:0:0:
198,295,138292,1,8,0:0:0:0:
60,190,138467,1,0,3:0:0:0:
98,341,138641,6,0,P|109:297|121:254,1,90.7500027694703,2|0,3:2|3:0,0:0:0:0:
133,242,138903,1,0,3:0:0:0:
133,242,138990,1,10,0:0:0:0:
242,111,139164,2,0,P|237:86|232:63,2,45.3750013847352,0|8|0,3:0|0:0|3:0,0:0:0:0:
140,159,139513,1,0,3:0:0:0:
140,159,139600,1,0,3:0:0:0:
140,159,139687,2,0,P|191:173|215:187,1,45.3750013847352,10|10,0:0|0:0,0:0:0:0:
242,228,139862,2,0,P|270:220|318:204,1,45.3750013847352,10|10,0:0|0:0,0:0:0:0:
338,131,140036,6,0,P|391:182|456:162,1,136.125004154205,6|0,3:1|3:0,0:0:0:0:
463,153,140385,1,8,0:0:0:0:
482,325,140560,1,0,3:0:0:0:
482,325,140647,1,8,0:0:0:0:
482,325,140734,2,0,P|496:277|516:228,1,90.7500027694703,2|0,3:2|3:0,0:0:0:0:
501,231,140996,1,0,3:0:0:0:
501,231,141083,1,10,0:0:0:0:
421,384,141257,1,0,3:0:0:0:
293,285,141432,6,0,L|390:263,1,90.7500027694703,2|0,3:2|3:0,0:0:0:0:
396,276,141693,1,0,3:0:0:0:
396,276,141781,1,10,0:0:0:0:
290,174,141955,2,0,P|267:162|225:167,1,45.3750013847352,0|8,3:0|0:0,0:0:0:0:
229,85,142129,2,0,P|204:92|178:126,3,45.3750013847352,2|0|0|0,3:2|0:0|3:0|3:0,0:0:0:0:
101,108,142478,2,0,P|109:129|129:178,1,45.3750013847352,10|0,0:0|0:0,0:0:0:0:
45,177,142653,2,0,P|36:155|28:134,1,45.3750013847352,0|0,3:0|0:0,0:0:0:0:
33,254,142827,6,0,L|116:268,2,60.5000018463135,2|2|2,3:2|0:0|0:0,0:0:0:0:
123,343,143176,2,0,L|200:355,2,60.5000018463135,10|2|2,0:0|0:0|0:0,0:0:0:0:
259,373,143525,1,2,3:2:0:0:
305,238,143699,1,0,3:0:0:0:
305,238,143786,1,0,3:0:0:0:
305,238,143874,2,0,P|283:185|272:143,1,90.7500027694703,8|0,0:0|3:0,0:0:0:0:
294,117,144135,5,0,0:0:0:0:
294,117,144222,2,0,L|383:132,1,90.7500027694703,2|0,3:2|3:0,0:0:0:0:
408,111,144484,1,0,3:0:0:0:
408,111,144571,2,0,L|393:64,3,45.3750013847352,10|2|2|10,0:0|0:0|3:0|0:0,0:0:0:0:
439,2,144920,1,2,3:2:0:0:
512,153,145095,1,0,3:0:0:0:
512,153,145182,1,0,3:0:0:0:
512,153,145269,2,0,L|454:176,1,45.3750013847352,14|2,0:0|0:0,0:0:0:0:
451,254,145443,5,10,0:0:0:0:
445,270,145531,1,10,0:0:0:0:
435,285,145618,2,0,P|365:334|302:311,1,136.125004154205,6|2,3:1|3:2,0:0:0:0:
313,317,145967,1,8,0:0:0:0:
375,201,146141,2,0,P|366:183|357:160,2,45.3750013847352,2|8|0,3:2|0:0|3:0,0:0:0:0:
253,8,146490,1,0,3:0:0:0:
253,8,146577,1,0,3:0:0:0:
253,8,146665,2,0,L|278:103,1,90.7500027694703,8|0,0:0|3:0,0:0:0:0:
196,168,147013,6,0,L|94:155,1,90.7500027694703,2|0,3:2|3:0,0:0:0:0:
98,166,147275,1,0,3:0:0:0:
98,166,147362,1,8,0:0:0:0:
0,266,147536,1,0,3:0:0:0:
0,266,147624,1,8,0:0:0:0:
0,266,147711,2,0,L|100:241,1,90.7500027694703,2|0,3:2|3:0,0:0:0:0:
103,257,147972,1,0,3:0:0:0:
103,257,148060,1,8,0:0:0:0:
10,182,148234,1,0,3:0:0:0:
137,356,148408,6,0,P|203:354|264:303,1,136.125004154205,6|0,3:1|3:0,0:0:0:0:
264,302,148757,1,8,0:0:0:0:
173,165,148932,1,0,3:0:0:0:
173,165,149019,1,8,0:0:0:0:
173,165,149106,2,0,P|169:205|188:266,1,90.7500027694703,2|0,3:2|3:0,0:0:0:0:
181,253,149368,1,0,3:0:0:0:
181,253,149455,2,0,L|251:232,1,45.3750013847352,8|0,0:0|0:0,0:0:0:0:
287,185,149629,2,0,L|331:191,1,45.3750013847352,0|0,3:0|0:0,0:0:0:0:
451,241,149804,6,0,L|462:179,3,45.3750013847352,2|2|2|2,3:2|0:0|3:2|3:2,0:0:0:0:
512,84,150153,1,10,0:0:0:0:
512,84,150240,1,2,0:0:0:0:
512,84,150327,2,0,L|500:147,1,45.3750013847352,2|10,3:2|0:0,0:0:0:0:
404,117,150502,1,2,3:2:0:0:
404,117,150589,2,0,P|417:66|429:23,1,90.7500027694703,2|2,0:0|3:2,0:0:0:0:
396,14,150850,1,10,0:0:0:0:
363,22,150937,1,10,0:0:0:0:
330,31,151024,1,10,0:0:0:0:
297,39,151111,1,10,0:0:0:0:
264,48,151199,5,6,3:1:0:0:
277,128,151374,1,0,0:0:0:0:
317,251,151548,1,10,0:0:0:0:
344,175,151723,1,0,0:0:0:0:
188,291,151897,2,0,P|224:297|268:319,1,78.3749979071618,0|10,3:0|0:0,0:0:0:0:
267,334,152159,2,0,P|249:325|224:319,1,39.1874989535809,0|0,0:0|3:0,0:0:0:0:
28,266,152420,5,2,3:2:0:0:
126,384,152595,2,0,P|116:332|108:277,1,78.3749979071618,0|0,0:0|3:0,0:0:0:0:
103,299,152856,1,0,3:0:0:0:
103,299,152944,1,10,0:0:0:0:
201,147,153118,1,0,3:0:0:0:
167,224,153292,1,10,0:0:0:0:
66,62,153467,5,0,0:0:0:0:
72,149,153641,1,0,3:0:0:0:
72,149,153728,1,0,3:0:0:0:
72,149,153816,2,0,P|97:140|120:133,1,39.1874989535809,8|8,0:0|0:0,0:0:0:0:
212,25,153990,5,6,3:1:0:0:
287,53,154165,1,0,0:0:0:0:
360,134,154339,1,10,0:0:0:0:
435,104,154513,1,0,3:0:0:0:
300,249,154688,2,0,P|275:214|301:158,1,78.3749979071618,0|8,3:0|0:0,0:0:0:0:
286,174,154949,2,0,L|268:125,1,39.1874989535809,0|2,0:0|0:0,0:0:0:0:
109,37,155211,5,14,3:2:0:0:
205,15,155385,2,0,L|184:91,1,78.3749979071618,0|2,0:0|0:0,0:0:0:0:
83,205,155734,1,8,0:0:0:0:
83,205,155822,1,8,0:0:0:0:
83,205,155909,2,0,P|70:181|75:162,2,39.1874989535809,0|0|10,3:0|0:0|3:2,0:0:0:0:
185,300,156257,1,8,0:0:0:0:
185,300,156345,1,8,0:0:0:0:
185,300,156432,2,0,L|238:289,1,39.1874989535809,8|8,3:2|0:0,0:0:0:0:
111,363,156606,2,0,L|68:348,1,39.1874989535809,8|8,0:0|0:0,0:0:0:0:
186,211,156781,5,4,3:2:0:0:
49,66,162362,6,0,B|233:39,1,181.500005538941,2|2,0:0|0:0,0:0:0:0:
494,219,163583,2,0,B|262:174,1,226.875006923676,2|2,0:0|0:0,0:0:0:0:
58,384,165153,2,0,B|70:299|24:300|43:200,1,181.500005538941,2|2,0:0|0:0,0:0:0:0:
42,205,166548,6,0,L|64:156,2,30.937501180172,10|8|8,3:2|0:0|0:0,0:0:0:0:
104,267,166810,2,0,L|122:224,2,30.937501180172,10|8|8,0:0|3:2|0:0,0:0:0:0:
158,128,167071,2,0,L|178:180,1,37.1249988670349,10|8,0:0|0:0,0:0:0:0:
215,71,167246,1,8,3:2:0:0:
224,77,167333,2,0,L|240:121,1,37.1249988670349,10|8,0:0|0:0,0:0:0:0:
284,210,167507,1,8,0:0:0:0:
299,196,167595,2,0,P|321:130|330:104,1,90.7500027694703,10|8,3:2|0:0,0:0:0:0:
349,86,167856,1,10,0:0:0:0:
349,86,167943,1,4,3:1:0:0:
481,229,168118,6,0,L|499:177,2,45.3750013847352,2|0|0,0:0|0:0|3:0,0:0:0:0:
426,145,168380,2,0,L|410:193,1,45.3750013847352,10|8,0:0|0:0,0:0:0:0:
347,287,168554,1,8,0:0:0:0:
359,279,168641,2,0,B|413:329|499:314,1,136.125004154205,14|0,0:0|0:0,0:0:0:0:
494,324,168989,2,0,L|456:365,1,45.3750013847352,10|8,0:0|0:0,0:0:0:0:
388,384,169164,2,0,L|343:374,1,45.3750013847352,8|8,0:0|0:0,0:0:0:0:
222,384,169339,6,0,P|233:333|248:274,1,98.9999969787599,6|2,3:1|0:0,0:0:0:0:
187,230,169600,1,0,3:0:0:0:
176,235,169688,2,0,L|159:299,1,49.4999984893799,10|2,0:0|0:0,0:0:0:0:
259,194,169862,1,2,0:0:0:0:
81,127,170036,1,2,3:2:0:0:
113,143,170123,1,0,0:0:0:0:
150,141,170210,1,2,3:2:0:0:
180,121,170297,1,0,3:0:0:0:
197,88,170384,1,10,0:0:0:0:
362,185,170560,1,0,3:0:0:0:
257,15,170734,5,2,3:2:0:0:
257,15,170908,2,0,P|265:44|272:66,1,49.4999984893799,0|0,3:0|3:0,0:0:0:0:
362,185,171083,5,10,0:0:0:0:
362,185,171257,2,0,L|378:122,1,49.4999984893799,0|8,3:0|0:0,0:0:0:0:
239,306,171432,5,2,3:0:0:0:
436,263,171606,1,0,0:0:0:0:
436,263,171693,1,0,0:0:0:0:
436,263,171781,1,10,0:0:0:0:
257,180,171955,1,2,3:2:0:0:
355,364,172129,6,0,P|340:284|338:254,1,98.9999969787599,2|2,3:2|0:0,0:0:0:0:
362,185,172391,1,0,3:0:0:0:
362,185,172478,1,10,0:0:0:0:
136,296,172653,1,2,3:2:0:0:
138,320,172741,1,0,0:0:0:0:
148,341,172828,2,0,L|250:318,1,98.9999969787599,2|2,3:2|3:2,0:0:0:0:
257,327,173089,1,0,3:0:0:0:
257,327,173176,1,10,0:0:0:0:
420,257,173350,1,0,3:0:0:0:
287,164,173525,5,2,3:2:0:0:
251,175,173612,1,0,0:0:0:0:
216,186,173699,1,0,3:0:0:0:
180,196,173786,1,0,3:0:0:0:
144,206,173874,2,0,P|153:174|159:143,3,49.4999984893799,10|0|2|8,0:0|0:0|3:2|0:0,0:0:0:0:
240,0,174222,2,0,P|256:54|245:100,1,98.9999969787599,10|8,0:0|0:0,0:0:0:0:
237,98,174484,1,8,0:0:0:0:
237,98,174571,2,0,L|181:80,1,49.4999984893799,10|8,3:2|0:0,0:0:0:0:
116,39,174746,2,0,L|68:54,1,49.4999984893799,10|8,0:0|0:0,0:0:0:0:
0,194,174920,6,0,P|18:245|35:317,1,98.9999969787599,6|0,3:1|3:0,0:0:0:0:
74,361,175182,1,0,3:0:0:0:
74,361,175269,2,0,P|112:349|136:340,1,49.4999984893799,10|0,0:0|0:0,0:0:0:0:
277,290,175443,1,10,3:2:0:0:
250,285,175531,1,8,0:0:0:0:
221,280,175618,2,0,L|159:272,1,49.4999984893799,2|8,3:2|0:0,0:0:0:0:
101,237,175792,1,0,3:0:0:0:
97,211,175879,1,0,3:0:0:0:
113,190,175967,1,10,0:0:0:0:
185,68,176141,2,0,P|192:91|199:129,1,49.4999984893799,10|8,0:0|0:0,0:0:0:0:
309,211,176315,6,0,P|345:196|377:184,3,49.4999984893799,0|8|2|0,3:0|0:0|3:2|3:0,0:0:0:0:
471,305,176664,2,0,P|432:291|360:266,1,98.9999969787599,8|2,0:0|3:2,0:0:0:0:
357,296,176926,1,8,0:0:0:0:
357,296,177013,1,2,3:2:0:0:
493,164,177188,1,0,3:0:0:0:
493,164,177275,1,0,3:0:0:0:
493,164,177362,2,0,L|507:229,1,49.4999984893799,10|8,0:0|0:0,0:0:0:0:
404,115,177536,2,0,L|419:52,1,49.4999984893799,10|8,0:0|0:0,0:0:0:0:
305,228,177711,6,0,P|242:187|167:202,1,148.49999546814,6|0,3:1|3:0,0:0:0:0:
164,210,178060,2,0,P|152:162|135:112,1,98.9999969787599,10|0,0:0|3:0,0:0:0:0:
48,98,178321,1,0,0:0:0:0:
48,98,178409,2,0,L|82:197,1,98.9999969787599,2|0,3:2|3:0,0:0:0:0:
8,339,178757,2,0,P|-2:273|43:232,1,98.9999969787599,10|0,0:0|3:0,0:0:0:0:
219,131,179106,6,0,L|338:160,1,98.9999969787599,14|0,3:2|0:0,0:0:0:0:
219,119,179368,2,0,L|338:148,1,98.9999969787599,10|0,0:0|0:0,0:0:0:0:
278,42,179629,2,0,L|330:28,1,49.4999984893799,10|0,0:0|0:0,0:0:0:0:
283,48,179804,2,0,L|335:34,1,49.4999984893799,2|0,3:2|0:0,0:0:0:0:
445,106,179978,1,8,0:0:0:0:
445,106,180065,1,8,0:0:0:0:
445,106,180153,2,0,L|398:92,3,49.4999984893799,8|8|8|8,3:2|0:0|0:0|0:0,0:0:0:0:
487,234,180502,6,0,P|477:259|470:297,2,45.3750013847352,6|0|0,3:1|0:0|0:0,0:0:0:0:
365,338,180851,1,8,0:0:0:0:
371,355,180938,1,0,0:0:0:0:
377,372,181026,2,0,P|410:364|444:354,1,45.3750013847352,0|8,3:0|0:0,0:0:0:0:
297,249,181200,2,0,L|353:263,3,45.3750013847352,2|2|2|2,3:2|0:0|3:2|3:2,0:0:0:0:
213,285,181549,1,10,0:0:0:0:
213,285,181636,1,2,0:0:0:0:
213,285,181723,1,2,3:2:0:0:
327,167,181897,5,2,3:2:0:0:
314,135,181984,1,0,0:0:0:0:
287,115,182071,1,0,3:0:0:0:
253,113,182158,1,0,3:0:0:0:
224,128,182245,1,8,0:0:0:0:
229,122,182420,5,0,3:0:0:0:
258,107,182507,1,8,0:0:0:0:
292,109,182594,1,0,3:0:0:0:
319,129,182681,1,0,0:0:0:0:
332,161,182769,2,0,P|317:195|310:216,1,45.3750013847352,2|2,3:2|3:2,0:0:0:0:
403,112,182944,2,0,P|396:84|389:56,3,45.3750013847352,10|2|2|2,0:0|0:0|3:2|0:0,0:0:0:0:
314,24,183293,5,2,3:2:0:0:
314,24,183380,1,0,0:0:0:0:
314,24,183467,1,0,0:0:0:0:
213,134,183642,1,8,0:0:0:0:
185,121,183729,1,0,0:0:0:0:
158,110,183816,2,0,L|172:54,1,45.3750013847352,0|8,3:2|0:0,0:0:0:0:
93,178,183991,2,0,L|81:121,3,45.3750013847352,2|2|2|2,3:2|0:0|3:2|3:2,0:0:0:0:
23,291,184339,1,10,0:0:0:0:
23,268,184426,1,2,0:0:0:0:
40,253,184513,2,0,L|96:268,1,45.3750013847352,2|2,3:2|0:0,0:0:0:0:
161,384,184688,5,2,3:2:0:0:
174,352,184775,1,0,0:0:0:0:
199,330,184862,1,0,3:0:0:0:
231,320,184949,1,0,3:0:0:0:
265,325,185036,1,8,0:0:0:0:
396,256,185212,1,0,3:0:0:0:
396,256,185299,1,8,0:0:0:0:
396,256,185386,2,0,L|346:241,1,45.3750013847352,0|0,3:0|0:0,0:0:0:0:
397,336,185560,2,0,L|347:321,1,45.3750013847352,0|0,3:0|3:0,0:0:0:0:
267,212,185735,2,0,P|226:229|174:240,1,90.7500027694703,14|10,0:0|0:0,0:0:0:0:
136,253,185996,5,10,0:0:0:0:
142,245,186084,2,0,P|136:221|124:194,2,45.3750013847352,6|0|0,3:1|0:0|0:0,0:0:0:0:
13,118,186432,1,8,0:0:0:0:
6,100,186519,1,0,0:0:0:0:
13,83,186606,2,0,P|47:74|69:66,1,45.3750013847352,0|8,3:0|0:0,0:0:0:0:
151,19,186782,2,0,L|107:9,3,45.3750013847352,2|2|2|2,3:2|0:0|3:2|3:2,0:0:0:0:
209,96,187129,1,10,0:0:0:0:
209,96,187217,1,2,0:0:0:0:
209,96,187304,1,2,3:2:0:0:
388,231,187478,5,2,3:2:0:0:
381,197,187565,1,0,0:0:0:0:
359,172,187652,1,0,3:0:0:0:
327,162,187739,1,0,3:0:0:0:
294,170,187826,1,8,0:0:0:0:
288,179,188002,5,0,3:0:0:0:
320,186,188089,1,8,0:0:0:0:
352,176,188176,1,0,3:0:0:0:
375,151,188263,1,0,0:0:0:0:
381,118,188350,2,0,P|371:91|363:68,1,45.3750013847352,2|2,3:2|3:2,0:0:0:0:
463,146,188526,2,0,L|484:210,3,45.3750013847352,10|2|2|2,0:0|0:0|3:2|0:0,0:0:0:0:
512,310,188874,6,0,P|495:304|468:300,2,45.3750013847352,6|0|0,3:2|0:0|0:0,0:0:0:0:
336,361,189223,1,8,0:0:0:0:
361,372,189310,1,0,0:0:0:0:
386,383,189397,2,0,P|375:338|372:326,1,45.3750013847352,0|8,3:2|0:0,0:0:0:0:
321,264,189572,2,0,L|310:211,3,45.3750013847352,2|2|2|2,3:2|0:0|3:2|3:2,0:0:0:0:
435,216,189921,1,10,0:0:0:0:
447,198,190008,1,2,0:0:0:0:
446,182,190095,2,0,L|385:164,1,45.3750013847352,2|2,3:2|0:0,0:0:0:0:
290,91,190269,5,2,3:2:0:0:
319,105,190356,1,0,0:0:0:0:
352,97,190443,1,0,3:0:0:0:
370,69,190530,1,0,3:0:0:0:
366,36,190617,1,8,0:0:0:0:
225,142,190793,1,0,3:0:0:0:
213,152,190880,1,8,0:0:0:0:
200,164,190967,2,0,L|183:104,1,45.3750013847352,0|0,3:0|0:0,0:0:0:0:
135,10,191141,2,0,L|122:53,1,45.3750013847352,0|0,3:0|3:0,0:0:0:0:
54,120,191315,2,0,P|59:147|67:177,3,45.3750013847352,14|2|10|10,0:0|0:0|0:0|0:0,0:0:0:0:
29,310,191664,6,0,P|52:301|85:288,2,45.3750013847352,6|0|0,3:1|0:0|0:0,0:0:0:0:
235,266,192013,1,8,0:0:0:0:
216,261,192100,1,0,0:0:0:0:
198,255,192188,2,0,L|150:238,1,45.3750013847352,0|8,3:0|0:0,0:0:0:0:
219,349,192362,2,0,P|197:342|170:332,3,45.3750013847352,2|2|2|2,3:2|0:0|3:2|3:2,0:0:0:0:
311,375,192711,1,10,0:0:0:0:
311,375,192798,1,2,0:0:0:0:
311,375,192885,1,2,3:2:0:0:
488,220,193060,5,2,3:2:0:0:
454,212,193147,1,0,0:0:0:0:
421,206,193234,1,0,3:0:0:0:
388,200,193321,1,0,3:0:0:0:
352,195,193408,1,8,0:0:0:0:
353,184,193583,5,0,3:0:0:0:
386,190,193670,1,8,0:0:0:0:
420,196,193757,1,0,3:0:0:0:
452,203,193844,1,0,0:0:0:0:
485,208,193932,2,0,L|476:152,1,45.3750013847352,2|2,3:2|3:2,0:0:0:0:
498,72,194106,2,0,P|504:43|510:20,3,45.3750013847352,10|2|2|2,0:0|0:0|3:2|0:0,0:0:0:0:
403,95,194455,5,2,3:2:0:0:
403,95,194542,1,0,0:0:0:0:
403,95,194629,1,0,0:0:0:0:
252,15,194804,1,8,0:0:0:0:
272,22,194891,1,0,0:0:0:0:
292,28,194978,2,0,P|283:53|274:82,1,45.3750013847352,0|8,3:2|0:0,0:0:0:0:
333,197,195153,2,0,P|328:174|323:152,3,45.3750013847352,2|2|2|2,3:2|0:0|3:2|3:2,0:0:0:0:
422,255,195502,1,10,0:0:0:0:
427,277,195589,1,2,0:0:0:0:
413,293,195676,2,0,P|391:287|368:278,1,45.3750013847352,2|2,3:2|0:0,0:0:0:0:
294,328,195850,5,2,3:2:0:0:
263,314,195937,1,0,0:0:0:0:
229,315,196024,1,0,3:0:0:0:
199,331,196111,1,0,3:0:0:0:
180,359,196198,1,8,0:0:0:0:
35,294,196374,1,0,3:0:0:0:
35,294,196461,1,8,0:0:0:0:
35,294,196548,2,0,L|93:280,1,45.3750013847352,0|0,3:0|0:0,0:0:0:0:
99,208,196722,2,0,L|157:194,1,45.3750013847352,0|0,3:0|3:0,0:0:0:0:
31,150,196897,2,0,P|27:97|47:57,1,90.7500027694703,14|10,0:0|0:0,0:0:0:0:
52,50,197158,5,10,0:0:0:0:
67,45,197246,2,0,P|92:60|120:68,2,45.3750013847352,6|0|0,3:1|0:0|0:0,0:0:0:0:
254,145,197595,1,8,0:0:0:0:
229,162,197682,1,0,0:0:0:0:
202,160,197769,2,0,L|189:97,1,45.3750013847352,0|8,3:0|0:0,0:0:0:0:
299,218,197944,2,0,P|292:247|285:273,3,45.3750013847352,2|2|2|2,3:2|0:0|3:2|3:2,0:0:0:0:
230,329,198292,1,10,0:0:0:0:
230,329,198379,1,2,0:0:0:0:
230,329,198467,1,2,3:2:0:0:
408,225,198641,5,2,3:2:0:0:
399,192,198728,1,0,0:0:0:0:
391,159,198815,1,0,3:0:0:0:
382,126,198902,1,0,3:0:0:0:
374,93,198989,1,8,0:0:0:0:
384,85,199164,5,0,3:0:0:0:
392,117,199251,1,8,0:0:0:0:
400,150,199338,1,0,3:0:0:0:
409,183,199425,1,0,0:0:0:0:
417,216,199513,2,0,P|450:205|472:197,1,45.3750013847352,2|2,3:2|3:2,0:0:0:0:
383,293,199688,2,0,L|336:305,3,45.3750013847352,10|2|2|2,0:0|0:0|3:2|0:0,0:0:0:0:
244,223,200036,6,0,P|245:187|269:166,2,45.3750013847352,6|0|0,3:2|0:0|0:0,0:0:0:0:
167,31,200385,1,8,0:0:0:0:
138,42,200472,1,0,0:0:0:0:
110,53,200560,2,0,P|124:87|131:106,1,45.3750013847352,0|8,3:2|0:0,0:0:0:0:
28,176,200734,2,0,L|37:129,3,45.3750013847352,2|2|2|2,3:2|0:0|3:2|3:2,0:0:0:0:
148,267,201083,1,10,0:0:0:0:
118,271,201170,1,2,0:0:0:0:
93,255,201257,2,0,L|106:193,1,45.3750013847352,2|2,3:2|0:0,0:0:0:0:
184,351,201432,5,2,3:2:0:0:
215,362,201519,1,0,0:0:0:0:
248,358,201606,1,0,3:0:0:0:
276,339,201693,1,0,3:0:0:0:
291,309,201780,1,8,0:0:0:0:
381,138,201955,1,0,3:0:0:0:
355,132,202042,1,8,0:0:0:0:
338,150,202129,2,0,L|361:205,1,45.3750013847352,0|0,3:0|0:0,0:0:0:0:
288,302,202304,2,0,L|298:248,1,45.3750013847352,0|0,3:0|3:0,0:0:0:0:
235,176,202478,2,0,P|229:150|221:128,3,45.3750013847352,14|2|10|10,0:0|0:0|0:0|0:0,0:0:0:0:
96,109,202827,5,6,3:1:0:0:
95,76,202914,1,0,0:0:0:0:
117,53,203002,1,0,3:0:0:0:
266,3,203176,1,10,0:0:0:0:
275,35,203263,1,8,0:0:0:0:
299,58,203350,1,8,0:0:0:0:
332,65,203437,1,8,0:0:0:0:
364,54,203525,2,0,P|351:29|347:4,1,45.3750013847352,2|10,3:2|0:0,0:0:0:0:
431,10,203699,1,6,0:3:0:0:
498,146,203874,2,0,L|490:193,1,45.3750013847352,8|8,3:2|0:0,0:0:0:0:
412,178,204048,2,0,L|426:117,1,45.3750013847352,8|8,0:0|0:0,0:0:0:0:
512,274,204222,6,0,P|458:284|405:301,1,90.7500027694703,10|0,3:2|3:0,0:0:0:0:
446,381,204484,2,0,L|332:350,1,90.7500027694703,2|2,3:2|0:0,0:0:0:0:
282,343,204746,2,0,L|308:275,1,45.3750013847352,10|8,0:0|0:0,0:0:0:0:
189,317,204920,2,0,P|124:325|62:292,2,121.000003692627,8|8|8,0:3|0:3|0:0,0:0:0:0:
252,188,205618,5,14,0:0:0:0:
