osu file format v14

[General]
AudioFilename: audio.mp3
AudioLeadIn: 0
PreviewTime: 129933
Countdown: 1
SampleSet: Soft
StackLeniency: 0.7
Mode: 0
LetterboxInBreaks: 0
WidescreenStoryboard: 0

[Editor]
DistanceSpacing: 1.3
BeatDivisor: 4
GridSize: 4
TimelineZoom: 2.999999

[Metadata]
Title:starlog
TitleUnicode:starlog
Artist:ChouCho
ArtistUnicode:ChouCho
Creator:Sotarks
Version:Constellation
Source:Fate/kaleid liner プリズマ☆イリヤ
Tags:Full Version opening prisma illya Prismaillya Illyasviel von Einzbern Miyu Edelfelt Kadowaki Mai Nazuka Kaori ヤ ちょうちょ female vocalist anime japanese
BeatmapID:2327015
BeatmapSetID:1113870

[Difficulty]
HPDrainRate:5.2
CircleSize:3.8
OverallDifficulty:8.5
ApproachRate:9
SliderMultiplier:1.72
SliderTickRate:1

[Events]
//Background and Video events
0,0,"bg.jpg",0,0
//Break Periods
2,213778,224050
//Storyboard Layer 0 (Background)
//Storyboard Layer 1 (Fail)
//Storyboard Layer 2 (Pass)
//Storyboard Layer 3 (Foreground)
//Storyboard Layer 4 (Overlay)
//Storyboard Sound Samples

[TimingPoints]
722,357.142857142857,4,2,22,52,1,0
722,-161.290322580645,4,2,22,52,0,0
3043,-454.545454545455,4,2,22,52,0,0
4471,-454.545454545455,4,2,22,72,0,0
4650,-98.0392156862745,4,2,22,72,0,0
5007,-81.9672131147541,4,2,22,82,0,0
5543,-89.2857142857143,4,2,22,82,0,0
7864,-81.9672131147541,4,2,22,82,0,0
8400,-89.2857142857143,4,2,22,82,0,0
9650,-108.695652173913,4,2,22,82,0,0
10007,-70.4225352112676,4,2,22,82,0,0
10721,-89.2857142857143,4,2,22,82,0,0
16436,-138.888888888889,4,2,22,72,0,0
16793,-138.888888888889,4,2,22,52,0,0
27864,-98.0392156862746,4,2,22,62,0,0
39293,-89.2857142857143,4,1,22,72,0,0
41436,-75.7575757575758,4,2,22,72,0,0
41704,-75.7575757575758,4,2,22,5,0,0
41793,-75.7575757575758,4,2,22,72,0,0
42150,-89.2857142857143,4,1,22,72,0,0
44293,-75.7575757575758,4,2,22,72,0,0
44561,-75.7575757575758,4,2,22,5,0,0
44650,-75.7575757575758,4,2,22,72,0,0
44918,-75.7575757575758,4,2,22,5,0,0
45007,-108.695652173913,4,2,22,62,0,0
47864,-89.2857142857143,4,2,22,82,0,0
49114,-81.9672131147541,4,2,22,82,0,0
50007,-121.951219512195,4,2,22,82,0,0
50721,-81.9672131147541,4,2,22,92,0,0
67150,-65.7894736842105,4,2,22,92,0,0
67864,-81.9672131147541,4,2,22,92,0,0
84293,-81.9672131147541,4,2,22,72,0,0
85007,-161.290322580645,4,2,22,52,0,0
86257,-121.951219512195,4,2,22,52,0,0
87864,-161.290322580645,4,2,22,52,0,0
89114,-121.951219512195,4,2,22,52,0,0
90721,-121.951219512195,4,2,22,62,0,0
96436,-138.888888888889,4,2,22,52,0,0
107864,-98.0392156862746,4,2,22,62,0,0
119293,-89.2857142857143,4,2,22,72,0,0
121436,-75.7575757575758,4,2,22,72,0,0
122150,-89.2857142857143,4,2,22,72,0,0
124293,-75.7575757575758,4,2,22,72,0,0
125007,-108.695652173913,4,2,22,62,0,0
127864,-89.2857142857143,4,2,22,82,0,0
129114,-81.9672131147541,4,2,22,82,0,0
130364,-121.951219512195,4,2,22,82,0,0
130721,-81.9672131147541,4,2,22,92,0,0
164293,-161.290322580645,4,2,22,72,0,0
164650,-70.4225352112676,4,2,22,72,0,0
165007,-312.5,4,2,22,62,0,0
165096,-312.5,4,2,22,52,0,0
175007,-98.0392156862745,4,2,22,72,0,0
176436,-98.0392156862745,4,2,22,62,0,0
187864,-89.2857142857143,4,2,22,72,0,0
210364,-89.2857142857143,4,2,22,62,0,0
210721,-454.545454545455,4,2,22,52,0,0
225007,-192.307692307692,4,2,22,72,0,0
226436,-161.290322580645,4,2,22,72,0,0
227864,-138.888888888889,4,2,22,72,0,0
230007,-75.7575757575758,4,2,22,72,0,0
230275,-70.4225352112676,4,2,22,72,0,0
230543,-81.9672131147541,4,2,22,72,0,0
230721,-81.9672131147541,4,2,22,92,0,0
247150,-75.7575757575758,4,2,22,92,0,0
247864,-70.4225352112676,4,2,22,92,0,0
247909,-70.4225352112676,4,2,22,5,0,0
248221,-70.4225352112676,4,2,22,92,0,0
248266,-70.4225352112676,4,2,22,5,0,0
248579,-70.4225352112676,4,2,22,92,0,0
248624,-70.4225352112676,4,2,22,5,0,0
248757,-70.4225352112676,4,2,22,92,0,0
248802,-70.4225352112676,4,2,22,5,0,0
248936,-70.4225352112676,4,2,22,92,0,0
248981,-70.4225352112676,4,2,22,5,0,0
249114,-70.4225352112676,4,2,22,92,0,0
249159,-70.4225352112676,4,2,22,5,0,0
249293,-70.4225352112676,4,2,22,92,0,0
249338,-70.4225352112676,4,2,22,5,0,0
249650,-70.4225352112676,4,2,22,92,0,0
249695,-70.4225352112676,4,2,22,5,0,0
250007,-70.4225352112676,4,2,22,92,0,0
250052,-70.4225352112676,4,2,22,5,0,0
250186,-70.4225352112676,4,2,22,92,0,0
250229,-70.4225352112676,4,2,22,5,0,0
250231,-70.4225352112676,4,2,22,5,0,0
250364,-70.4225352112676,4,2,22,92,0,0
250409,-70.4225352112676,4,2,22,5,0,0
250543,-70.4225352112676,4,2,22,92,0,0
250588,-70.4225352112676,4,2,22,5,0,0
250721,-70.4225352112676,4,2,22,92,0,0
252507,-454.545454545455,4,2,22,82,0,0
252596,-454.545454545455,4,2,22,52,0,0
254829,-81.9672131147541,4,2,22,72,0,0
255543,-89.2857142857143,4,2,22,72,0,0
257864,-81.9672131147541,4,2,22,72,0,0
258400,-89.2857142857143,4,2,22,72,0,0
259650,-108.695652173913,4,2,22,72,0,0
260007,-70.4225352112676,4,2,22,72,0,0
260721,-89.2857142857143,4,2,22,72,0,0
266436,-70.4225352112676,4,2,22,72,0,0
266971,-89.2857142857143,4,2,22,72,0,0
269292,-81.9672131147541,4,2,22,72,0,0
269828,-89.2857142857143,4,2,22,72,0,0
271078,-108.695652173913,4,2,22,72,0,0
271435,-70.4225352112676,4,2,22,72,0,0
272149,-89.2857142857143,4,2,22,72,0,0
277864,370.37037037037,4,2,22,52,1,0
277864,-108.695652173913,4,2,22,52,0,0
280826,-121.951219512195,4,2,22,52,0,0
286752,-138.888888888889,4,2,22,52,0,0
288789,-454.545454545452,4,2,22,52,0,0
288882,-454.545454545452,4,2,22,22,0,0
295271,-454.545454545452,4,2,22,5,0,0

[Colours]
Combo1 : 227,230,157
Combo2 : 254,37,135
Combo3 : 255,23,23
Combo4 : 156,41,250
Combo5 : 40,56,255
Combo6 : 255,245,70
Combo7 : 255,171,15
Combo8 : 233,182,182

[HitObjects]
103,91,722,102,0,P|117:146|126:205,1,106.639995769287,2|0,0:2|0:2,0:2:0:0:
139,371,1257,2,0,P|147:318|160:266,1,106.639995769287,2|0,0:2|0:2,0:2:0:0:
160,266,2150,2,0,P|200:258|224:246,2,53.3199978846436,2|0|0,0:2|0:2|0:2,0:2:0:0:
270,314,2686,1,2,0:2:0:0:
270,314,3043,6,0,P|262:271|257:177,1,132.440004041748,2|8,0:2|0:2,0:2:0:0:
305,66,4471,69,2,0:2:0:0:
305,66,4561,1,0,0:2:0:0:
305,66,4650,2,0,P|269:59|237:62,1,43.8600002677002,8|0,0:2|0:2,0:2:0:0:
62,81,4829,1,2,0:2:0:0:
62,81,4918,1,0,0:2:0:0:
62,81,5007,6,0,B|142:67|208:143|182:228,1,209.839991354859,6|8,1:2|0:2,0:2:0:0:
153,369,5543,2,0,P|120:321|128:265,1,96.3200011757813,2|0,0:0|1:2,0:2:0:0:
285,81,5900,1,2,0:2:0:0:
216,297,6079,1,8,0:2:0:0:
304,160,6257,1,2,3:2:0:0:
304,160,6346,1,0,3:2:0:0:
304,160,6436,102,0,P|311:226|321:285,1,96.3200011757813,0|0,1:2|0:2,0:2:0:0:
205,216,6793,2,0,P|211:168|216:120,1,96.3200011757813,8|0,0:2|3:2,0:2:0:0:
206,46,7061,1,0,3:2:0:0:
206,46,7150,1,0,1:2:0:0:
129,255,7329,1,2,0:2:0:0:
129,255,7418,1,0,0:2:0:0:
129,255,7507,2,0,P|74:244|68:245,1,48.1600005878906,8|0,0:2|0:2,0:2:0:0:
302,343,7686,1,2,3:2:0:0:
302,343,7775,1,0,3:2:0:0:
302,343,7864,6,0,B|294:267|375:209|458:244,1,209.839991354859,2|8,1:2|0:2,0:2:0:0:
213,240,8400,2,0,P|153:214|131:170,1,96.3200011757813,2|0,0:2|1:2,0:2:0:0:
309,27,8757,1,2,0:2:0:0:
324,222,8936,1,8,0:2:0:0:
260,89,9114,1,2,3:2:0:0:
260,89,9204,1,0,3:2:0:0:
260,89,9293,102,0,B|172:82|202:138|90:132,1,144.480001763672,4|0,1:2|0:2,0:2:0:0:
83,171,9650,2,0,P|155:146|210:149,1,118.679996015991,14|0,0:2|0:2,0:2:0:0:
292,241,10007,70,0,L|277:118,1,122.119993850769,6|0,1:2|0:2,0:2:0:0:
369,281,10275,2,0,L|384:158,1,122.119993850769,10|0,0:2|0:2,0:2:0:0:
467,273,10543,2,0,L|456:203,1,61.0599969253847,6|0,1:2|0:2,0:2:0:0:
302,335,10721,38,0,P|219:306|137:309,1,144.480001763672,6|0,1:2|0:2,0:2:0:0:
86,347,11079,2,0,L|74:286,3,48.1600005878906,10|0|0|0,0:2|3:2|3:2|3:2,0:2:0:0:
211,185,11436,2,0,P|128:214|46:211,1,144.480001763672,2|0,1:2|0:2,0:2:0:0:
10,146,11793,2,0,L|0:193,3,48.1600005878906,10|0|0|0,0:2|3:2|3:2|3:2,0:2:0:0:
108,67,12150,6,0,P|153:48|214:44,1,96.3200011757813,2|0,1:2|0:2,0:2:0:0:
354,217,12507,1,8,0:2:0:0:
287,158,12686,2,0,P|271:227|269:268,1,96.3200011757813,2|0,0:2|1:2,0:2:0:0:
463,69,13043,1,0,0:2:0:0:
373,56,13221,2,0,P|387:101|409:144,1,96.3200011757813,10|0,0:2|0:2,0:2:0:0:
249,27,13579,102,0,B|135:21|197:87|69:88,1,192.640002351563,2|8,1:2|0:2,0:2:0:0:
223,128,14114,2,0,P|163:109|108:111,1,96.3200011757813,2|0,0:2|1:2,0:2:0:0:
246,207,14471,1,0,0:2:0:0:
54,132,14650,1,10,0:2:0:0:
270,283,14829,1,8,0:2:0:0:
270,283,14918,1,8,0:2:0:0:
270,283,15007,6,0,P|300:214|371:238,1,144.480001763672,6|0,1:2|0:2,0:2:0:0:
416,295,15364,2,0,L|426:230,1,48.1600005878906,8|0,0:2|0:2,0:2:0:0:
442,101,15543,2,0,P|412:32|341:56,1,144.480001763672,6|0,1:2|0:2,0:2:0:0:
300,105,15900,1,8,0:2:0:0:
252,98,15989,1,8,0:2:0:0:
204,91,16078,1,8,0:2:0:0:
292,346,16436,1,0,1:2:0:0:
292,346,16793,6,0,P|282:301|281:277,1,61.9200015117188,2|0,1:2|0:2,0:2:0:0:
197,327,17150,2,0,P|206:265|207:204,1,123.840003023438,2|0,1:2|1:2,0:2:0:0:
111,112,17686,2,0,P|103:72|97:45,1,61.9200015117188,2|0,0:2|1:2,0:2:0:0:
198,17,18043,2,0,P|191:47|185:77,1,61.9200015117188,2|0,0:2|1:2,0:2:0:0:
291,159,18400,1,2,0:2:0:0:
207,154,18579,2,0,P|213:184|219:214,1,61.9200015117188,0|0,1:2|0:2,0:2:0:0:
112,321,18936,1,2,1:2:0:0:
90,253,19114,1,0,0:2:0:0:
161,267,19293,6,0,P|213:250|297:247,1,123.840003023438,2|0,1:2|1:2,0:2:0:0:
326,176,19829,2,0,P|284:171|262:165,1,61.9200015117188,2|0,0:2|1:2,0:2:0:0:
331,318,20186,2,0,P|289:323|267:329,1,61.9200015117188,2|0,0:2|1:2,0:2:0:0:
440,231,20543,1,2,0:2:0:0:
401,168,20721,2,0,P|365:205|351:300,1,123.840003023438,2|0,1:2|1:2,0:2:0:0:
459,115,21257,1,0,0:2:0:0:
411,54,21436,2,0,L|377:61,2,30.9600007558594,2|0|0,1:2|0:2|0:2,0:2:0:0:
439,230,21793,2,0,L|470:237,2,30.9600007558594,0|0|0,1:2|0:2|0:2,0:2:0:0:
330,117,22150,1,2,1:2:0:0:
330,117,22507,102,0,P|283:136|248:136,1,61.9200015117188,2|0,1:2|0:2,0:2:0:0:
197,85,22864,2,0,P|153:66|75:65,1,123.840003023438,2|0,1:2|1:2,0:2:0:0:
124,138,23400,2,0,P|136:179|140:209,1,61.9200015117188,2|0,0:2|1:2,0:2:0:0:
207,255,23757,2,0,P|212:224|221:195,1,61.9200015117188,2|0,0:2|1:2,0:2:0:0:
85,328,24114,1,2,0:2:0:0:
65,256,24293,2,0,P|122:261|190:324,1,123.840003023438,0|2,1:2|1:2,0:2:0:0:
237,384,24829,1,0,0:2:0:0:
276,242,25007,6,0,P|259:283|251:317,1,61.9200015117188,2|0,1:2|0:2,0:2:0:0:
414,280,25364,1,2,1:2:0:0:
438,204,25543,2,0,P|429:174|416:146,2,61.9200015117188,2|0|0,0:2|1:2|0:2,0:2:0:0:
321,329,26079,1,2,1:2:0:0:
254,299,26257,1,0,0:2:0:0:
183,312,26436,101,2,0:2:0:0:
316,250,26971,5,2,0:2:0:0:
53,149,27507,101,10,0:3:0:0:
395,52,27864,70,0,P|324:75|252:79,1,131.580000803101,4|0,1:2|0:2,0:2:0:0:
267,79,28221,1,10,0:2:0:0:
342,162,28400,1,0,0:2:0:0:
250,339,28579,2,0,P|237:283|242:242,1,87.7200005354004,2|0,1:2|0:2,0:2:0:0:
443,76,28936,1,8,0:2:0:0:
468,147,29114,102,0,P|469:190|457:232,1,87.7200005354004,2|0,0:2|1:2,0:2:0:0:
177,117,29471,1,2,0:2:0:0:
228,52,29650,1,8,0:2:0:0:
258,126,29829,1,2,0:2:0:0:
152,44,30007,2,0,P|93:65|-10:83,1,131.580000803101,0|0,1:2|0:2,0:2:0:0:
25,79,30364,1,10,0:2:0:0:
75,273,30543,1,0,0:2:0:0:
177,117,30721,6,0,P|165:181|163:215,1,87.7200005354004,2|0,1:2|0:2,0:2:0:0:
313,327,31079,1,8,0:2:0:0:
234,364,31257,2,0,P|238:320|247:277,1,87.7200005354004,2|0,0:2|1:2,0:2:0:0:
382,120,31614,1,2,0:2:0:0:
356,194,31793,1,8,0:2:0:0:
302,132,31971,1,2,0:2:0:0:
431,183,32150,102,0,P|438:97|442:70,1,87.7200005354004,2|0,1:2|0:2,0:2:0:0:
248,243,32507,1,10,0:2:0:0:
302,132,32686,1,0,0:2:0:0:
420,260,32864,2,0,P|424:303|427:347,1,87.7200005354004,2|0,1:2|0:2,0:2:0:0:
156,232,33221,1,8,0:2:0:0:
334,252,33400,1,0,0:2:0:0:
67,309,33579,1,2,1:2:0:0:
67,309,33936,6,0,P|57:257|42:205,1,87.7200005354004,10|0,0:2|0:2,0:2:0:0:
175,146,34293,2,0,P|163:188|155:231,1,87.7200005354004,2|0,1:2|0:2,0:2:0:0:
329,343,34650,1,10,0:2:0:0:
295,271,34829,1,0,0:2:0:0:
414,319,35007,2,0,P|422:248|435:195,1,87.7200005354004,2|0,1:2|0:2,0:2:0:0:
280,55,35364,1,8,0:2:0:0:
363,106,35543,2,0,P|359:62|351:19,1,87.7200005354004,2|0,0:2|1:2,0:2:0:0:
195,194,35900,1,2,0:2:0:0:
176,98,36079,1,8,0:2:0:0:
109,162,36257,102,0,P|58:148|16:143,1,87.7200005354004,2|0,0:2|1:2,0:2:0:0:
214,282,36614,1,0,0:2:0:0:
195,194,36793,2,0,P|163:257|157:368,1,175.440001070801,10|0,0:2|1:2,0:2:0:0:
87,244,37329,1,0,0:2:0:0:
375,319,37507,1,8,0:2:0:0:
315,134,37686,1,2,0:2:0:0:
214,282,37864,5,6,1:2:0:0:
275,224,38043,1,2,0:2:0:0:
195,194,38221,2,0,P|177:131|179:92,1,87.7200005354004,8|2,0:2|0:2,0:2:0:0:
436,377,38579,1,2,1:2:0:0:
375,319,38758,1,2,0:2:0:0:
455,289,38936,2,0,P|473:226|471:187,1,87.7200005354004,10|0,0:2|0:2,0:2:0:0:
170,296,39293,6,0,L|65:316,1,96.3200011757813,14|0,0:2|0:2,0:2:0:0:
46,291,39650,1,0,0:2:0:0:
270,179,39829,2,0,L|175:160,1,96.3200011757813,10|0,0:2|0:2,0:2:0:0:
150,184,40186,1,2,0:2:0:0:
384,290,40364,1,10,0:2:0:0:
365,206,40543,1,2,0:2:0:0:
303,262,40721,1,0,0:2:0:0:
465,122,40900,2,0,L|475:22,1,96.3200011757813,10|0,0:2|0:2,0:2:0:0:
451,15,41257,1,0,0:2:0:0:
270,179,41436,70,0,B|158:184|221:238|71:236,1,170.279999480347,14|0,0:2|0:2,0:2:0:0:
48,195,41793,1,10,0:2:0:0:
254,263,41971,1,2,1:2:0:0:
128,147,42150,38,0,L|142:37,1,96.3200011757813,14|0,0:2|0:2,0:2:0:0:
114,19,42507,1,2,0:2:0:0:
270,179,42686,2,0,L|256:69,1,96.3200011757813,10|0,0:2|0:2,0:2:0:0:
284,51,43043,1,2,0:2:0:0:
139,274,43221,1,10,0:2:0:0:
163,183,43400,1,2,0:2:0:0:
241,267,43579,1,0,0:2:0:0:
372,74,43757,2,0,L|359:169,1,96.3200011757813,10|0,0:2|0:2,0:2:0:0:
386,201,44114,1,0,0:2:0:0:
140,17,44293,70,0,B|185:117|122:98|172:204,1,170.279999480347,14|0,0:2|0:2,0:2:0:0:
275,142,44650,2,0,B|230:240|293:221|252:306,1,170.279999480347,10|0,0:2|0:2,0:2:0:0:
188,361,45007,6,0,P|123:299|37:307,1,158.239994687988,2|0,1:2|0:2,0:2:0:0:
315,359,45543,1,0,1:2:0:0:
370,302,45721,2,0,P|359:233|355:125,1,158.239994687988,10|0,0:2|0:2,0:2:0:0:
174,41,46257,2,0,P|169:92|156:138,1,79.1199973439942,0|0,0:2|1:2,0:2:0:0:
293,285,46614,1,8,0:2:0:0:
227,225,46793,2,0,P|218:263|215:303,1,79.1199973439942,0|0,0:2|1:2,0:2:0:0:
438,160,47150,2,0,P|422:94|318:76,1,158.239994687988,10|0,0:2|0:2,0:2:0:0:
285,143,47686,1,0,1:2:0:0:
468,338,47864,6,0,P|405:290|291:288,1,192.640002351563,6|8,1:2|0:2,0:2:0:0:
0,111,48400,2,0,P|63:159|177:161,1,192.640002351563,6|0,1:2|0:2,0:2:0:0:
336,27,48936,1,8,0:2:0:0:
129,293,49114,102,0,P|194:200|329:179,1,209.839991354859,6|0,1:2|0:2,0:2:0:0:
506,227,49650,1,14,0:2:0:0:
136,50,50007,102,0,L|130:96,3,35.2600005380249,2|0|0|0,0:2|0:2|0:2|0:2,0:2:0:0:
353,151,50364,2,0,L|348:116,3,35.2600005380249,10|0|0|0,0:3|0:2|0:2|0:2,0:2:0:0:
223,275,50721,102,0,P|244:191|244:105,1,157.379993516144,6|0,1:2|0:2,0:2:0:0:
217,48,51079,1,8,0:2:0:0:
88,243,51257,1,0,3:2:0:0:
88,243,51346,1,0,3:2:0:0:
88,243,51436,1,0,1:2:0:0:
140,154,51614,1,0,1:2:0:0:
217,276,51793,1,8,3:2:0:0:
266,292,51882,1,0,3:2:0:0:
309,276,51971,1,0,3:2:0:0:
342,287,52060,1,0,3:2:0:0:
342,287,52150,6,0,P|361:231|365:175,1,104.919995677429,2|0,1:2|0:2,0:2:0:0:
269,35,52507,2,0,P|277:97|277:110,1,52.4599978387147,8|0,3:2|3:2,0:2:0:0:
162,195,52686,1,0,3:2:0:0:
162,195,52775,1,0,3:2:0:0:
162,195,52864,1,2,1:2:0:0:
200,115,53043,1,0,1:2:0:0:
205,280,53221,1,8,3:2:0:0:
155,296,53310,1,0,3:2:0:0:
113,280,53399,1,0,3:2:0:0:
80,291,53488,1,0,3:2:0:0:
80,291,53578,102,0,P|61:235|57:179,1,104.919995677429,2|0,1:2|0:2,0:2:0:0:
162,43,53936,1,8,3:2:0:0:
247,184,54114,1,0,3:2:0:0:
119,118,54293,1,2,1:2:0:0:
200,115,54471,1,0,1:2:0:0:
80,291,54650,2,0,L|23:285,1,52.4599978387147,8|0,3:2|3:2,0:0:0:0:
157,200,54829,2,0,L|104:205,1,52.4599978387147,0|0,3:2|3:2,0:0:0:0:
233,328,55007,6,0,B|322:315|278:269|404:262,1,157.379993516144,2|0,1:2|0:0,0:2:0:0:
442,298,55364,1,8,3:2:0:0:
292,201,55543,1,0,3:2:0:0:
448,112,55721,2,0,P|435:183|434:216,1,104.919995677429,2|0,1:2|1:2,0:0:0:0:
266,232,56079,2,0,P|262:179|251:128,1,104.919995677429,8|0,3:2|3:2,0:0:0:0:
371,29,56436,102,0,P|328:78|178:81,1,209.839991354859,2|8,1:2|3:2,0:2:0:0:
17,60,56971,1,0,3:2:0:0:
45,41,57061,1,0,3:2:0:0:
79,38,57150,1,0,1:2:0:0:
156,86,57329,1,0,1:2:0:0:
99,243,57507,2,0,P|51:218|41:205,1,52.4599978387147,8|0,3:2|3:2,0:0:0:0:
137,323,57686,2,0,P|85:339|69:337,1,52.4599978387147,0|0,3:2|3:2,0:0:0:0:
188,247,57864,6,0,P|257:221|297:221,1,104.919995677429,2|0,1:2|0:2,0:2:0:0:
481,308,58221,1,8,3:2:0:0:
410,353,58400,2,0,P|393:288|391:235,1,104.919995677429,2|0,3:2|1:2,0:0:0:0:
464,69,58757,1,0,1:2:0:0:
491,143,58936,2,0,P|439:137|391:116,1,104.919995677429,10|0,3:2|3:2,0:0:0:0:
358,51,59204,1,0,3:2:0:0:
358,51,59293,102,0,P|363:110|376:173,1,104.919995677429,2|0,1:2|0:2,0:2:0:0:
199,262,59650,1,10,3:2:0:0:
267,313,59829,2,0,P|276:261|280:209,1,104.919995677429,2|0,3:2|1:2,0:0:0:0:
123,66,60186,1,0,1:2:0:0:
189,122,60364,1,8,3:2:0:0:
238,56,60543,1,0,3:2:0:0:
238,56,60632,1,0,3:2:0:0:
238,56,60721,6,0,P|296:90|345:90,1,104.919995677429,2|0,1:2|0:2,0:2:0:0:
93,149,61079,2,0,P|41:155|-1:185,1,104.919995677429,10|0,0:2|0:2,0:2:0:0:
270,265,61436,1,2,1:2:0:0:
189,124,61614,101,6,0:3:0:0:
196,135,61704,1,4,0:3:0:0:
192,160,61793,1,0,1:2:0:0:
208,208,61882,5,8,0:2:0:0:
194,262,61971,101,8,0:2:0:0:
210,324,62061,5,8,0:2:0:0:
210,324,62150,102,0,B|239:293|322:300|275:372|398:353,1,157.379993516144,6|0,1:2|0:0,0:2:0:0:
418,319,62507,1,10,3:2:0:0:
332,168,62686,2,0,P|352:245|354:290,1,104.919995677429,2|0,3:2|1:2,0:0:0:0:
397,122,63043,1,0,1:2:0:0:
221,236,63221,1,10,3:2:0:0:
166,104,63400,6,0,P|150:154|144:206,1,104.919995677429,2|0,3:2|1:2,0:0:0:0:
322,83,63757,1,2,0:2:0:0:
375,19,63936,2,0,P|390:69|396:121,1,104.919995677429,8|0,3:2|3:2,0:2:0:0:
328,299,64293,1,0,1:2:0:0:
383,235,64471,1,0,1:2:0:0:
347,377,64650,1,10,3:2:0:0:
173,271,64829,1,2,3:2:0:0:
173,271,64918,1,0,3:2:0:0:
173,271,65007,102,0,P|241:249|267:218,1,104.919995677429,2|0,1:2|0:2,0:2:0:0:
76,61,65364,1,10,3:2:0:0:
32,128,65543,2,0,P|58:194|61:234,1,104.919995677429,2|0,3:2|1:2,0:0:0:0:
114,131,65900,1,0,1:2:0:0:
88,304,66079,1,10,3:2:0:0:
220,133,66257,5,2,3:2:0:0:
224,101,66346,1,0,3:2:0:0:
229,60,66436,1,0,1:2:0:0:
425,304,66614,1,2,3:2:0:0:
420,268,66703,1,0,3:2:0:0:
415,220,66793,1,14,0:2:0:0:
416,220,67150,102,0,L|242:247,1,130.719998404297,12|0,1:2|0:2,0:2:0:0:
183,294,67418,2,0,L|53:274,1,130.719998404297,12|0,1:2|0:2,0:2:0:0:
53,274,67686,2,0,L|133:258,1,65.3599992021484,12|0,1:2|0:2,0:2:0:0:
264,170,67864,5,6,1:2:0:0:
180,148,68043,1,0,0:2:0:0:
265,313,68221,1,8,3:2:0:0:
345,285,68400,1,0,3:2:0:0:
268,89,68579,1,0,1:2:0:0:
170,236,68757,1,0,1:2:0:0:
354,125,68936,1,8,3:2:0:0:
364,90,69025,1,0,3:2:0:0:
357,66,69114,1,0,3:2:0:0:
367,50,69204,1,0,3:2:0:0:
365,50,69293,102,0,P|293:18|206:20,1,157.379993516144,2|0,1:2|0:0,0:2:0:0:
136,50,69650,2,0,P|156:110|158:135,1,52.4599978387147,8|0,3:2|3:2,0:2:0:0:
263,212,69829,2,0,P|270:186|281:162,1,52.4599978387147,0|0,3:2|3:2,0:0:0:0:
80,147,70007,6,0,P|36:199|62:294,1,157.379993516144,2|0,1:2|0:0,0:0:0:0:
132,273,70364,2,0,P|124:247|113:223,1,52.4599978387147,8|0,3:2|3:2,0:0:0:0:
0,118,70543,2,0,P|10:94|18:68,1,52.4599978387147,0|0,3:2|3:2,0:0:0:0:
179,157,70721,102,0,P|285:120|351:119,1,157.379993516144,2|0,1:2|0:0,0:2:0:0:
408,143,71079,1,8,3:2:0:0:
355,40,71257,1,0,3:2:0:0:
290,212,71436,1,2,1:2:0:0:
340,316,71614,1,0,1:2:0:0:
442,115,71793,1,8,3:2:0:0:
397,88,71882,1,0,3:2:0:0:
345,85,71971,1,0,3:2:0:0:
297,105,72060,1,0,3:2:0:0:
297,105,72150,6,0,B|201:126|235:64|125:85,1,157.379993516144,2|0,1:2|0:0,0:2:0:0:
60,109,72507,2,0,P|83:178|83:199,1,52.4599978387147,8|0,3:2|3:2,0:2:0:0:
238,224,72686,1,0,3:2:0:0:
238,224,72775,1,8,3:2:0:0:
238,224,72864,102,0,P|147:238|106:309,1,157.379993516144,2|0,1:2|0:0,0:0:0:0:
180,348,73221,2,0,P|246:327|266:328,1,52.4599978387147,8|0,3:2|3:2,0:0:0:0:
299,154,73400,1,0,3:2:0:0:
299,154,73489,1,0,3:2:0:0:
299,154,73579,6,0,P|282:225|281:331,1,157.379993516144,2|0,1:2|0:0,0:2:0:0:
320,353,73936,2,0,P|303:285|302:266,1,52.4599978387147,8|0,3:2|3:2,0:2:0:0:
246,180,74114,2,0,P|254:155|260:129,1,52.4599978387147,0|0,3:2|3:2,0:0:0:0:
305,15,74293,2,0,P|223:17|171:99,1,157.379993516144,0|0,1:2|0:0,0:0:0:0:
117,176,74650,1,8,3:2:0:0:
91,193,74739,1,0,3:2:0:0:
61,187,74828,1,0,3:2:0:0:
44,162,74917,1,0,3:2:0:0:
44,162,75007,102,0,P|63:212|81:326,1,157.379993516144,2|0,1:2|0:0,0:2:0:0:
50,384,75364,1,8,3:2:0:0:
191,145,75543,2,0,P|252:165|264:179,1,52.4599978387147,2|0,3:2|3:2,0:0:0:0:
254,178,75721,2,0,B|352:161|287:111|430:112,1,157.379993516144,0|0,1:2|0:0,0:0:0:0:
440,193,76079,1,10,3:2:0:0:
465,210,76168,1,0,3:2:0:0:
495,204,76257,1,0,3:2:0:0:
512,179,76346,1,0,3:2:0:0:
512,179,76436,6,0,P|481:251|476:347,1,157.379993516144,2|0,1:2|0:0,0:2:0:0:
420,381,76793,1,10,3:2:0:0:
291,206,76971,2,0,P|232:224|218:240,1,52.4599978387147,2|0,3:2|3:2,0:0:0:0:
210,240,77150,2,0,P|124:210|149:138,1,157.379993516144,0|0,1:2|0:0,0:0:0:0:
305,119,77507,1,8,3:2:0:0:
338,132,77596,1,0,3:2:0:0:
364,158,77685,1,0,3:2:0:0:
376,193,77774,1,0,3:2:0:0:
374,229,77864,101,2,1:2:0:0:
291,206,78043,1,0,1:2:0:0:
237,52,78221,1,10,0:2:0:0:
320,28,78400,1,0,1:2:0:0:
320,28,78489,1,8,0:2:0:0:
320,28,78579,1,2,1:2:0:0:
218,264,78757,1,10,0:2:0:0:
58,107,78936,2,0,L|48:169,1,52.4599978387147,8|0,0:2|1:2,0:2:0:0:
122,275,79114,1,8,0:2:0:0:
125,301,79203,1,8,0:2:0:0:
128,327,79293,6,0,B|224:338|180:270|316:285,1,157.379993516144,6|0,1:2|0:0,0:2:0:0:
336,332,79650,2,0,P|364:285|366:244,1,52.4599978387147,10|0,3:2|3:2,0:2:0:0:
351,134,79829,1,2,3:2:0:0:
351,134,79918,1,0,3:2:0:0:
351,134,80007,2,0,P|292:85|234:79,1,104.919995677429,0|0,1:2|1:2,0:0:0:0:
96,197,80364,1,10,3:2:0:0:
163,256,80543,102,0,P|185:189|188:136,1,104.919995677429,2|0,3:2|1:2,0:0:0:0:
86,24,80900,1,2,0:2:0:0:
22,79,81079,2,0,P|86:111|137:113,1,104.919995677429,10|0,3:2|3:2,0:2:0:0:
281,50,81436,2,0,P|387:18|478:19,1,157.379993516144,0|0,1:2|0:0,0:0:0:0:
500,41,81793,1,8,3:2:0:0:
432,267,81971,1,2,3:2:0:0:
371,199,82150,6,0,P|349:265|345:313,1,104.919995677429,0|0,1:2|0:2,0:2:0:0:
166,186,82507,1,8,3:2:0:0:
228,118,82686,2,0,P|250:184|254:232,1,104.919995677429,0|0,3:2|1:2,0:0:0:0:
98,339,83043,1,0,3:2:0:0:
98,339,83132,1,8,3:2:0:0:
98,339,83221,2,0,L|92:276,1,52.4599978387147,10|0,3:2|3:2,0:0:0:0:
47,77,83400,102,0,B|96:97|149:62|149:62|167:119|261:120,1,209.839991354859,6|2,1:2|1:2,0:0:0:0:
466,47,83936,1,10,0:2:0:0:
405,103,84293,85,2,0:2:0:0:
230,36,84650,1,10,0:3:0:0:
366,286,85007,6,0,P|373:214|382:170,1,106.639995769287,6|0,1:2|0:2,0:2:0:0:
272,330,85543,2,0,P|265:258|256:214,1,106.639995769287,2|0,1:2|0:2,0:2:0:0:
258,224,86257,102,0,P|208:242|104:252,1,141.0400021521,2|0,1:2|0:2,0:2:0:0:
48,229,86793,1,0,0:2:0:0:
86,297,86971,2,0,P|100:148|99:126,1,141.0400021521,2|0,1:2|0:2,0:2:0:0:
77,84,87507,1,0,0:2:0:0:
77,84,87864,6,0,P|125:99|194:108,1,106.639995769287,6|0,1:2|0:2,0:2:0:0:
348,24,88400,2,0,P|297:39|244:47,1,106.639995769287,2|0,1:2|0:2,0:2:0:0:
244,47,89114,102,0,P|281:88|302:185,1,141.0400021521,2|0,1:2|0:2,0:2:0:0:
287,247,89650,1,0,0:2:0:0:
366,196,89829,2,0,P|303:211|197:223,1,141.0400021521,2|0,1:2|0:2,0:2:0:0:
148,204,90364,1,0,0:2:0:0:
148,204,90721,6,0,P|137:253|134:288,1,70.5200010760498,6|0,1:2|0:2,0:2:0:0:
63,188,91079,1,2,1:2:0:0:
52,256,91257,2,0,P|47:221|38:186,1,70.5200010760498,2|0,0:2|1:2,0:2:0:0:
166,218,91614,2,0,P|157:252|152:287,1,70.5200010760498,2|0,0:2|1:2,0:2:0:0:
267,130,91971,102,0,P|317:117|361:126,1,70.5200010760498,2|0,0:2|1:2,0:2:0:0:
396,178,92329,1,2,0:2:0:0:
475,169,92507,1,2,1:2:0:0:
431,104,92686,2,0,P|419:160|419:192,1,70.5200010760498,2|0,0:2|1:2,0:2:0:0:
443,272,93043,1,0,0:2:0:0:
413,342,93221,2,0,P|407:294|398:260,1,70.5200010760498,0|0,1:2|0:2,0:2:0:0:
263,232,93579,6,0,P|218:275|131:289,1,141.0400021521,2|0,1:2|1:2,0:2:0:0:
60,255,94114,2,0,P|69:206|63:174,2,70.5200010760498,2|0|0,0:2|1:2|0:2,0:2:0:0:
145,101,94650,1,0,1:2:0:0:
291,295,94829,1,2,0:2:0:0:
357,79,95186,101,2,0:2:0:0:
312,153,95543,5,2,0:2:0:0:
339,228,95900,101,2,0:2:0:0:
357,79,96079,1,4,0:3:0:0:
357,79,96436,6,0,P|299:97|230:101,1,123.840003023438,0|2,1:2|3:2,0:2:0:0:
104,188,96971,1,0,1:2:0:0:
164,131,97150,2,0,P|128:193|113:269,1,123.840003023438,2|0,3:2|3:2,0:2:0:0:
189,346,97686,1,2,0:2:0:0:
119,284,97864,1,0,3:2:0:0:
189,346,98043,2,0,P|240:325|273:321,1,61.9200015117188,2|0,0:2|3:2,0:2:0:0:
360,338,98400,1,2,0:2:0:0:
279,348,98579,2,0,P|347:370|405:375,1,123.840003023438,0|2,3:2|3:2,0:2:0:0:
468,337,99114,1,0,0:2:0:0:
485,195,99293,102,0,P|449:232|371:239,1,123.840003023438,2|0,1:2|3:2,0:2:0:0:
285,258,99829,2,0,P|257:217|252:183,1,61.9200015117188,2|0,1:2|3:2,0:2:0:0:
151,199,100186,2,0,P|160:150|180:122,1,61.9200015117188,2|0,0:2|3:2,0:2:0:0:
264,98,100543,1,2,0:2:0:0:
173,107,100721,1,0,3:2:0:0:
283,116,100900,1,2,0:2:0:0:
173,107,101079,2,0,P|120:98|94:91,1,61.9200015117188,2|0,3:2|0:2,0:2:0:0:
323,37,101436,2,0,P|353:32|383:26,1,61.9200015117188,0|0,3:2|0:2,0:2:0:0:
393,37,101793,2,0,P|362:43|332:47,1,61.9200015117188,0|0,3:2|0:2,0:2:0:0:
223,178,102150,6,0,P|239:224|246:314,1,123.840003023438,0|2,1:2|3:2,0:2:0:0:
167,251,102686,1,0,1:2:0:0:
87,295,102864,2,0,P|92:233|110:174,1,123.840003023438,2|0,3:2|3:2,0:2:0:0:
182,337,103400,2,0,P|217:357|248:362,1,61.9200015117188,2|0,0:2|3:2,0:2:0:0:
317,323,103757,2,0,P|346:315|372:298,1,61.9200015117188,2|0,0:2|3:2,0:2:0:0:
390,210,104114,1,2,0:2:0:0:
406,309,104293,2,0,P|374:248|360:183,1,123.840003023438,0|2,3:2|3:2,0:2:0:0:
375,110,104829,1,0,0:2:0:0:
216,223,105007,102,0,P|148:214|88:200,1,123.840003023438,2|0,3:2|3:2,0:2:0:0:
155,289,105543,2,0,P|96:304|33:310,1,123.840003023438,2|0,1:2|0:2,0:2:0:0:
104,376,106079,1,2,3:2:0:0:
196,132,106436,5,2,0:2:0:0:
306,302,106971,101,2,0:2:0:0:
466,46,107507,5,10,0:3:0:0:
205,245,107864,54,0,P|140:231|60:232,1,131.580000803101,4|0,1:2|0:2,0:2:0:0:
18,280,108221,1,10,0:2:0:0:
165,71,108400,1,0,0:2:0:0:
104,141,108579,2,0,P|88:88|90:34,1,87.7200005354004,2|0,1:2|0:2,0:2:0:0:
279,211,108936,1,8,0:2:0:0:
205,245,109114,1,2,0:2:0:0:
216,165,109293,102,0,P|270:177|363:177,1,131.580000803101,0|0,1:2|0:0,0:0:0:0:
416,144,109650,1,8,0:2:0:0:
327,343,109829,1,2,0:2:0:0:
381,278,110007,2,0,P|315:258|283:257,1,87.7200005354004,0|0,1:2|0:0,0:2:0:0:
117,335,110364,1,10,0:2:0:0:
162,266,110543,1,0,0:2:0:0:
196,341,110721,6,0,P|179:260|176:193,1,131.580000803101,2|0,1:2|0:0,0:2:0:0:
199,141,111079,1,8,0:2:0:0:
116,45,111257,2,0,B|58:68|35:72|22:74,1,87.7200005354004,2|0,0:2|1:2,0:2:0:0:
251,203,111614,2,0,B|309:226|332:230|334:230,1,87.7200005354004,2|8,0:2|0:2,0:0:0:0:
404,186,111971,1,2,0:2:0:0:
243,16,112150,101,2,1:2:0:0:
289,84,112329,1,0,0:2:0:0:
205,87,112507,2,0,P|186:142|179:185,1,87.7200005354004,10|0,0:2|0:2,0:0:0:0:
396,108,112864,1,2,1:2:0:0:
350,176,113043,1,0,0:2:0:0:
434,179,113221,2,0,P|453:234|460:277,1,87.7200005354004,8|0,0:2|0:2,0:0:0:0:
273,367,113579,6,0,P|267:308|247:234,1,131.580000803101,2|0,1:2|0:0,0:0:0:0:
195,180,113936,2,0,P|137:206|75:211,1,87.7200005354004,10|0,0:2|0:2,0:2:0:0:
312,296,114293,2,0,P|350:316|393:326,1,87.7200005354004,2|0,1:2|0:2,0:2:0:0:
260,114,114650,2,0,P|221:93|178:83,1,87.7200005354004,10|0,0:2|0:2,0:0:0:0:
82,295,115007,102,0,P|62:222|54:128,1,131.580000803101,2|0,1:2|0:0,0:2:0:0:
73,93,115364,1,8,0:2:0:0:
180,181,115543,1,2,0:2:0:0:
342,94,115721,1,0,1:2:0:0:
260,114,115900,1,2,0:2:0:0:
434,250,116079,1,8,0:2:0:0:
407,164,116257,6,0,P|411:120|429:64,1,87.7200005354004,2|0,0:2|1:2,0:2:0:0:
306,330,116614,1,0,0:2:0:0:
222,359,116793,2,0,P|225:315|238:273,1,87.7200005354004,10|0,0:2|0:0,0:2:0:0:
298,162,117150,2,0,P|310:203|314:247,1,87.7200005354004,0|0,1:2|0:2,0:0:0:0:
155,81,117507,1,8,0:2:0:0:
235,52,117686,1,2,0:2:0:0:
179,172,117864,102,0,P|117:125|29:133,1,131.580000803101,6|0,1:2|0:0,0:0:0:0:
4,170,118221,1,8,0:2:0:0:
190,257,118400,1,2,0:2:0:0:
309,109,118579,2,0,P|371:62|459:70,1,131.580000803101,2|0,1:2|0:0,0:0:0:0:
484,107,118936,1,10,0:2:0:0:
298,194,119115,1,0,0:2:0:0:
459,334,119293,22,0,L|467:210,1,96.3200011757813,14|0,0:2|0:2,0:2:0:0:
477,356,119650,1,0,0:2:0:0:
264,256,119829,2,0,L|256:132,1,96.3200011757813,10|0,0:2|0:2,0:2:0:0:
246,278,120186,1,2,0:2:0:0:
390,174,120364,2,0,L|398:50,1,96.3200011757813,10|2,0:2|0:2,0:0:0:0:
408,196,120721,1,0,0:2:0:0:
195,96,120900,2,0,L|187:-28,1,96.3200011757813,10|0,0:2|0:2,0:2:0:0:
177,118,121257,1,0,0:2:0:0:
316,301,121436,70,0,P|301:217|194:218,1,170.279999480347,14|0,0:2|0:2,0:2:0:0:
162,242,121793,1,10,0:2:0:0:
350,203,121971,1,2,1:2:0:0:
490,178,122150,38,0,L|498:72,1,96.3200011757813,14|0,0:2|0:2,0:2:0:0:
476,208,122507,1,2,0:2:0:0:
350,203,122686,2,0,L|358:97,1,96.3200011757813,10|0,0:2|0:2,0:2:0:0:
336,233,123043,1,2,0:2:0:0:
162,242,123221,2,0,L|170:136,1,96.3200011757813,10|2,0:2|0:2,0:0:0:0:
148,272,123578,1,0,0:2:0:0:
14,267,123757,2,0,L|22:161,1,96.3200011757813,10|0,0:2|0:2,0:2:0:0:
0,297,124114,1,0,0:2:0:0:
194,351,124293,70,0,B|301:334|238:281|361:283,1,170.279999480347,14|0,0:2|0:2,0:2:0:0:
460,268,124650,2,0,P|385:269|265:246,1,170.279999480347,10|0,0:2|0:2,0:2:0:0:
199,198,125007,6,0,P|252:141|351:159,1,158.239994687988,2|0,1:2|0:2,0:2:0:0:
388,224,125543,1,0,1:2:0:0:
309,218,125721,2,0,P|287:108|287:43,1,158.239994687988,10|0,0:2|0:2,0:2:0:0:
240,273,126257,2,0,P|199:304|157:313,1,79.1199973439942,0|0,0:2|1:2,0:2:0:0:
43,205,126614,1,8,0:2:0:0:
59,130,126793,2,0,P|96:143|126:168,1,79.1199973439942,0|0,0:2|1:2,0:2:0:0:
252,352,127150,2,0,P|275:290|349:268,1,118.679996015991,10|0,0:2|0:0,0:2:0:0:
396,295,127507,2,0,L|411:203,1,79.1199973439942,0|0,0:2|1:2,0:0:0:0:
435,31,127864,6,0,B|318:50|397:112|261:134,1,192.640002351563,6|8,1:2|0:2,0:2:0:0:
61,117,128400,2,0,B|24:99|47:40|127:26|153:101|170:174,1,192.640002351563,6|0,1:2|0:2,0:2:0:0:
184,325,128936,1,8,0:2:0:0:
100,295,129114,102,0,P|207:265|349:243,1,209.839991354859,6|0,1:2|0:2,0:2:0:0:
502,260,129650,1,14,0:2:0:0:
502,260,130007,102,0,P|472:264|445:273,1,52.4599978387147,2|0,0:2|0:0,0:2:0:0:
421,113,130186,2,0,P|395:109|369:102,1,52.4599978387147,0|0,0:2|0:0,0:0:0:0:
316,230,130364,54,0,P|231:198|183:194,1,105.780001614075,10|0,0:3|0:2,0:2:0:0:
100,119,130721,38,0,P|172:73|267:95,1,157.379993516144,6|0,1:2|0:2,0:2:0:0:
301,140,131079,1,8,0:2:0:0:
468,47,131257,1,0,3:2:0:0:
468,47,131346,1,0,3:2:0:0:
468,47,131436,2,0,P|485:120|489:160,1,104.919995677429,0|0,1:2|1:2,0:0:0:0:
365,346,131793,6,0,P|308:329|296:330,1,52.4599978387147,8|0,3:2|3:2,0:0:0:0:
272,181,131971,2,0,P|215:198|203:197,1,52.4599978387147,0|0,3:2|3:2,0:0:0:0:
132,275,132150,102,0,B|230:258|191:314|318:291,1,157.379993516144,2|0,1:2|0:0,0:2:0:0:
352,239,132507,1,8,3:2:0:0:
385,54,132686,1,0,3:2:0:0:
385,54,132775,1,0,3:2:0:0:
385,54,132864,2,0,P|326:33|272:32,1,104.919995677429,2|0,1:2|1:2,0:0:0:0:
99,22,133221,6,0,P|119:90|118:107,1,52.4599978387147,8|0,3:2|3:2,0:0:0:0:
258,143,133400,2,0,P|238:211|239:228,1,52.4599978387147,0|0,3:2|3:2,0:0:0:0:
138,300,133579,102,0,B|114:203|169:241|146:120,1,157.379993516144,2|0,1:2|0:0,0:2:0:0:
205,75,133936,1,8,3:2:0:0:
385,54,134114,1,0,3:2:0:0:
385,54,134204,1,0,3:2:0:0:
385,54,134293,2,0,P|404:129|407:164,1,104.919995677429,2|0,1:2|1:2,0:0:0:0:
491,278,134650,2,0,P|497:226|512:175,1,104.919995677429,8|0,3:2|3:2,0:0:0:0:
357,337,135007,5,2,1:2:0:0:
357,337,135096,2,0,P|307:285|239:303,1,104.919995677429,8|0,0:0|0:0,0:0:0:0:
213,329,135364,2,0,P|196:265|199:218,1,104.919995677429,8|0,3:2|3:2,0:2:0:0:
231,161,135632,1,8,3:2:0:0:
231,161,135721,1,2,1:2:0:0:
116,283,135900,1,0,1:2:0:0:
174,97,136079,1,8,3:2:0:0:
221,75,136168,1,0,3:2:0:0:
271,86,136257,1,0,3:2:0:0:
306,124,136346,1,8,3:2:0:0:
311,176,136436,102,0,P|302:274|308:343,1,157.379993516144,2|0,1:2|0:0,0:2:0:0:
365,384,136793,1,8,3:2:0:0:
387,199,136971,1,0,3:2:0:0:
387,199,137061,1,0,3:2:0:0:
387,199,137150,2,0,P|356:156|350:105,1,104.919995677429,0|0,1:2|1:2,0:0:0:0:
263,269,137507,6,0,P|204:292|179:289,1,52.4599978387147,8|0,3:2|3:2,0:0:0:0:
149,96,137686,2,0,P|174:103|195:117,1,52.4599978387147,0|0,3:2|3:2,0:0:0:0:
94,270,137864,102,0,P|34:200|57:114,1,157.379993516144,2|0,1:2|0:0,0:2:0:0:
71,74,138221,1,8,3:2:0:0:
222,212,138400,1,2,3:2:0:0:
222,212,138489,1,0,3:2:0:0:
222,212,138579,2,0,P|272:239|326:241,1,104.919995677429,0|0,1:2|1:2,0:0:0:0:
449,31,138936,6,0,P|462:94|463:113,1,52.4599978387147,10|0,3:2|3:2,0:0:0:0:
355,195,139114,2,0,P|342:258|341:277,1,52.4599978387147,0|0,3:2|3:2,0:0:0:0:
465,344,139293,102,0,B|427:263|489:283|452:186,1,157.379993516144,2|0,1:2|0:0,0:2:0:0:
399,128,139650,1,10,3:2:0:0:
305,311,139829,1,2,3:2:0:0:
305,311,139918,1,0,3:2:0:0:
305,311,140007,2,0,P|239:292|197:291,1,104.919995677429,0|0,1:2|1:2,0:0:0:0:
214,140,140364,2,0,P|266:136|315:119,1,104.919995677429,8|0,3:2|3:2,0:0:0:0:
90,255,140721,6,0,P|35:192|47:103,1,157.379993516144,2|0,1:2|0:0,0:2:0:0:
61,48,141079,2,0,P|126:74|180:63,1,104.919995677429,10|0,0:2|0:2,0:2:0:0:
230,25,141346,1,8,0:0:0:0:
230,25,141436,2,0,P|253:85|252:97,1,52.4599978387147,2|8,1:2|0:0,0:0:0:0:
197,255,141614,2,0,P|182:233|174:208,1,52.4599978387147,10|8,0:2|0:0,0:0:0:0:
366,146,141793,1,0,1:2:0:0:
407,177,141882,1,8,0:2:0:0:
430,224,141971,1,8,0:2:0:0:
430,276,142060,1,8,0:2:0:0:
406,322,142150,102,0,B|304:326|365:381|210:371,1,157.379993516144,6|0,1:2|0:0,0:2:0:0:
185,341,142507,1,10,3:2:0:0:
257,186,142686,2,0,P|283:258|282:301,1,104.919995677429,2|0,3:2|1:2,0:0:0:0:
116,150,143043,1,0,1:2:0:0:
305,32,143221,1,10,3:2:0:0:
325,116,143400,6,0,P|239:99|206:70,1,104.919995677429,2|0,3:2|1:2,0:0:0:0:
469,120,143757,1,2,0:2:0:0:
433,198,143936,2,0,P|418:263|420:305,1,104.919995677429,8|0,3:2|3:2,0:2:0:0:
346,353,144204,1,0,3:2:0:0:
346,353,144293,2,0,P|346:300|332:250,1,104.919995677429,0|0,1:2|1:2,0:0:0:0:
154,131,144650,1,10,3:2:0:0:
356,94,144829,1,2,3:2:0:0:
221,200,145007,102,0,P|130:173|64:173,1,157.379993516144,2|0,1:2|0:0,0:2:0:0:
5,223,145364,1,10,3:2:0:0:
203,306,145543,1,2,3:2:0:0:
203,306,145632,1,0,3:2:0:0:
203,306,145721,2,0,P|277:286|309:283,1,104.919995677429,0|0,1:2|1:2,0:0:0:0:
370,106,146079,1,10,3:2:0:0:
303,55,146257,2,0,P|282:131|282:171,1,104.919995677429,2|0,3:2|1:2,0:0:0:0:
440,336,146614,1,2,3:2:0:0:
444,294,146703,1,0,3:2:0:0:
449,252,146792,1,14,0:2:0:0:
99,330,147150,5,12,1:2:0:0:
434,158,147418,101,12,1:2:0:0:
156,43,147686,5,12,1:2:0:0:
310,360,147864,102,0,B|295:266|342:310|327:185,1,157.379993516144,6|0,1:2|0:0,0:2:0:0:
294,136,148221,2,0,P|246:177|193:188,1,104.919995677429,8|0,3:2|3:2,0:2:0:0:
138,135,148489,1,0,3:2:0:0:
138,135,148579,2,0,P|115:212|114:250,1,104.919995677429,0|0,1:2|1:2,0:0:0:0:
254,61,148936,1,8,3:2:0:0:
304,52,149025,1,0,3:2:0:0:
351,75,149114,1,0,3:2:0:0:
375,120,149203,1,0,3:2:0:0:
367,171,149293,6,0,P|351:240|346:334,1,157.379993516144,2|0,1:2|0:0,0:2:0:0:
262,359,149650,2,0,P|249:294|243:281,1,52.4599978387147,8|0,3:2|3:2,0:2:0:0:
110,218,149829,2,0,P|103:243|101:269,1,52.4599978387147,0|0,3:2|3:2,0:0:0:0:
294,136,150007,102,0,P|350:75|446:98,1,157.379993516144,2|0,1:2|0:0,0:0:0:0:
343,206,150364,2,0,P|331:275|332:288,1,52.4599978387147,8|0,3:2|3:2,0:0:0:0:
200,77,150543,1,0,3:0:0:0:
200,77,150632,1,0,3:0:0:0:
200,77,150721,6,0,P|144:16|48:39,1,157.379993516144,2|0,1:2|0:0,0:2:0:0:
26,101,151079,2,0,P|40:167|39:180,1,52.4599978387147,8|0,3:2|3:2,0:2:0:0:
192,294,151257,2,0,P|196:268|205:243,1,52.4599978387147,0|0,3:2|3:2,0:0:0:0:
429,89,151436,102,0,P|346:114|262:120,1,157.379993516144,2|0,1:2|0:0,0:0:0:0:
200,77,151793,2,0,P|181:141|180:154,1,52.4599978387147,8|0,3:2|3:2,0:0:0:0:
321,282,151971,2,0,P|314:256|304:232,1,52.4599978387147,0|0,3:2|3:2,0:0:0:0:
52,212,152150,6,0,P|135:237|219:243,1,157.379993516144,2|0,1:2|0:0,0:2:0:0:
330,184,152507,1,8,3:2:0:0:
345,135,152596,1,0,3:0:0:0:
322,89,152685,1,0,3:0:0:0:
274,71,152774,1,0,3:0:0:0:
274,71,152864,102,0,B|381:64|324:124|448:111,1,157.379993516144,2|0,1:2|0:0,0:0:0:0:
467,46,153221,2,0,P|407:29|398:29,1,52.4599978387147,8|0,3:2|3:2,0:0:0:0:
431,218,153400,1,0,3:0:0:0:
431,218,153489,1,0,3:0:0:0:
431,218,153579,6,0,B|324:211|381:271|257:258,1,157.379993516144,2|0,1:2|0:0,0:2:0:0:
180,213,153936,2,0,P|126:191|117:192,1,52.4599978387147,8|0,3:2|3:2,0:2:0:0:
49,332,154114,2,0,P|74:325|95:310,1,52.4599978387147,0|0,3:2|3:2,0:0:0:0:
55,90,154293,102,0,P|35:168|35:257,1,157.379993516144,0|0,1:2|0:0,0:0:0:0:
166,234,154650,2,0,P|112:212|103:213,1,52.4599978387147,8|0,3:2|3:2,0:0:0:0:
191,364,154829,2,0,P|216:357|237:342,1,52.4599978387147,0|0,3:2|3:2,0:0:0:0:
393,220,155007,6,0,P|301:209|291:145,1,157.379993516144,2|0,1:2|0:0,0:2:0:0:
379,11,155364,2,0,P|362:79|361:98,1,52.4599978387147,8|0,3:2|3:2,0:2:0:0:
456,166,155543,1,0,3:0:0:0:
456,166,155632,1,0,3:0:0:0:
456,166,155721,102,0,P|493:244|497:337,1,157.379993516144,0|0,1:2|0:0,0:0:0:0:
386,300,156078,1,10,3:2:0:0:
369,275,156167,1,0,3:2:0:0:
339,269,156256,1,0,3:2:0:0:
313,286,156345,1,0,3:2:0:0:
313,286,156436,6,0,B|214:304|259:237|128:267,1,157.379993516144,2|0,1:2|0:0,0:2:0:0:
96,304,156792,1,10,3:2:0:0:
311,155,156971,2,0,P|250:135|238:121,1,52.4599978387147,2|0,3:2|3:2,0:0:0:0:
193,45,157150,2,0,P|126:9|54:63,1,157.379993516144,0|0,1:2|0:0,0:0:0:0:
81,201,157507,1,8,3:2:0:0:
110,204,157596,1,0,3:2:0:0:
134,185,157685,1,0,3:2:0:0:
138,155,157774,1,0,3:2:0:0:
116,136,157864,101,2,1:2:0:0:
216,161,158043,1,0,1:2:0:0:
215,337,158221,1,10,0:2:0:0:
114,364,158400,1,0,1:2:0:0:
114,364,158489,1,8,0:2:0:0:
114,364,158579,1,2,1:2:0:0:
294,120,158757,1,10,0:2:0:0:
454,277,158936,2,0,L|464:215,1,52.4599978387147,8|0,0:2|1:2,0:2:0:0:
390,109,159114,1,8,0:2:0:0:
387,83,159203,1,8,0:2:0:0:
384,57,159293,6,0,B|288:46|332:114|196:99,1,157.379993516144,6|0,1:2|0:0,0:2:0:0:
176,52,159650,2,0,P|148:99|146:140,1,52.4599978387147,10|0,3:2|3:2,0:2:0:0:
161,250,159829,1,2,3:2:0:0:
161,250,159918,1,0,3:2:0:0:
161,250,160007,2,0,P|220:299|278:305,1,104.919995677429,0|0,1:2|1:2,0:0:0:0:
416,187,160364,1,10,3:2:0:0:
349,128,160543,102,0,P|327:195|324:248,1,104.919995677429,2|0,3:2|1:2,0:0:0:0:
426,360,160900,1,2,0:2:0:0:
490,305,161079,2,0,P|426:273|375:271,1,104.919995677429,10|0,3:2|3:2,0:2:0:0:
231,334,161436,2,0,P|125:366|34:365,1,157.379993516144,0|0,1:2|0:0,0:0:0:0:
12,343,161793,1,8,3:2:0:0:
80,117,161971,1,2,3:2:0:0:
141,185,162150,6,0,P|163:119|167:71,1,104.919995677429,0|0,1:2|0:2,0:2:0:0:
346,198,162507,1,8,3:2:0:0:
284,266,162686,2,0,P|262:200|258:152,1,104.919995677429,0|0,3:2|1:2,0:0:0:0:
414,45,163043,1,0,3:2:0:0:
414,45,163132,1,8,3:2:0:0:
414,45,163221,2,0,L|420:108,1,52.4599978387147,10|0,3:2|3:2,0:0:0:0:
465,307,163400,102,0,B|416:287|363:322|363:322|345:265|251:264,1,209.839991354859,6|2,1:2|1:2,0:0:0:0:
389,230,163936,1,14,0:0:0:0:
389,230,164293,54,0,L|388:199,3,26.6599989423218,2|0|0|0,0:2|0:2|0:2|0:2,0:2:0:0:
457,149,164650,6,0,B|359:140|392:221|253:201,1,183.179990776154,10|0,0:3|0:2,0:2:0:0:
230,141,165007,6,0,P|204:190|200:250,2,110.08,6|0|0,1:2|0:2|0:2,0:2:0:0:
293,93,167150,1,0,0:2:0:0:
241,31,167864,6,0,L|207:36,1,27.52,2|0,0:2|0:2,0:2:0:0:
146,65,168221,2,0,L|118:60,1,27.52,0|0,0:2|0:2,0:2:0:0:
40,32,168579,2,0,L|47:92,1,55.04,0|0,0:2|0:2,0:2:0:0:
105,138,169114,2,0,L|98:198,1,55.04,0|0,0:2|0:2,0:2:0:0:
31,241,169650,2,0,L|47:362,1,110.08,0|0,0:2|0:2,0:2:0:0:
156,256,170721,102,0,P|207:232|266:240,1,110.08,2|0,0:2|0:2,0:2:0:0:
291,250,172150,2,0,P|291:291|296:309,1,55.04,2|0,0:2|0:2,0:2:0:0:
325,124,172864,2,0,P|325:165|320:183,1,55.04,2|0,0:2|0:2,0:2:0:0:
292,34,173579,6,0,L|258:44,1,27.52,2|0,0:2|0:2,0:2:0:0:
201,74,173936,2,0,L|174:66,1,27.52,0|0,0:2|0:2,0:2:0:0:
94,38,174293,2,0,L|102:96,1,55.04,0|0,0:2|0:2,0:2:0:0:
113,167,174829,1,0,0:2:0:0:
33,361,175007,70,0,P|89:343|120:340,1,87.7200005354004,6|0,1:2|0:2,0:2:0:0:
117,340,175364,1,8,0:2:0:0:
399,365,175543,2,0,P|328:353|228:306,1,175.440001070801,6|0,1:2|1:2,0:2:0:0:
252,193,176079,1,8,0:2:0:0:
252,193,176436,86,0,P|241:132|260:51,1,131.580000803101,6|0,1:2|0:2,0:2:0:0:
316,16,176793,1,8,0:2:0:0:
156,135,176971,1,2,3:2:0:0:
156,135,177061,1,0,3:2:0:0:
156,135,177150,2,0,P|97:119|51:117,1,87.7200005354004,0|0,1:2|0:2,0:2:0:0:
225,285,177507,1,10,3:2:0:0:
268,282,177596,1,0,3:2:0:0:
305,260,177685,1,0,3:2:0:0:
326,222,177774,1,0,3:2:0:0:
327,179,177864,5,2,1:2:0:0:
252,193,178043,1,0,0:2:0:0:
421,239,178221,2,0,L|431:294,1,43.8600002677002,8|0,3:2|3:2,3:2:0:0:
494,239,178400,2,0,L|504:294,1,43.8600002677002,2|0,3:2|3:2,3:2:0:0:
378,117,178579,2,0,P|326:81|248:96,1,131.580000803101,0|0,1:2|0:2,0:2:0:0:
185,120,178936,2,0,L|175:65,1,43.8600002677002,10|0,2:2|2:2,2:2:0:0:
112,120,179115,2,0,L|102:65,1,43.8600002677002,0|0,2:2|2:2,2:2:0:0:
252,193,179293,102,0,P|264:247|252:348,1,131.580000803101,6|0,1:2|0:2,0:2:0:0:
259,322,179650,2,0,P|235:314|202:310,1,43.8600002677002,8|0,0:2|0:2,0:2:0:0:
334,354,179829,2,0,P|407:334|479:326,1,131.580000803101,6|0,1:2|0:2,0:2:0:0:
462,326,180186,1,0,1:2:0:0:
367,101,180364,2,0,P|354:164|356:180,1,43.8600002677002,10|0,0:2|0:2,0:2:0:0:
385,215,180543,6,0,P|340:237|255:165,1,175.440001070801,6|2,1:2|1:2,0:2:0:0:
254,4,181079,1,10,0:2:0:0:
146,130,181257,1,0,1:2:0:0:
146,130,181346,1,0,1:2:0:0:
146,130,181436,1,8,0:2:0:0:
274,258,181614,1,8,0:2:0:0:
208,353,181793,1,6,0:3:0:0:
208,353,181882,1,4,0:3:0:0:
208,353,181971,1,4,0:3:0:0:
208,353,182061,1,4,0:3:0:0:
208,353,182150,102,0,P|221:255|194:204,1,131.580000803101,2|0,1:2|0:2,0:2:0:0:
160,177,182507,2,0,P|138:233|140:267,1,87.7200005354004,8|0,0:2|0:2,0:2:0:0:
288,146,182864,2,0,P|345:114|425:109,1,131.580000803101,2|0,1:2|0:2,0:2:0:0:
474,149,183221,2,0,P|441:176|400:178,1,43.8600002677002,8|0,0:2|0:2,0:2:0:0:
215,31,183400,6,0,B|105:26|158:92|35:85,1,175.440001070801,6|0,1:2|1:2,0:2:0:0:
208,110,183936,1,8,0:2:0:0:
82,192,184114,1,2,0:2:0:0:
217,323,184293,1,0,1:2:0:0:
176,236,184471,1,0,1:2:0:0:
176,236,184561,1,0,1:2:0:0:
176,236,184650,1,8,0:2:0:0:
127,308,184829,1,0,1:2:0:0:
260,245,185007,102,0,P|323:252|407:298,1,131.580000803101,6|0,1:2|0:2,0:2:0:0:
434,332,185364,2,0,P|372:356|328:344,1,87.7200005354004,8|0,0:2|0:2,0:2:0:0:
186,201,185721,2,0,B|234:170|247:169|310:162,1,131.580000803101,6|0,1:2|0:2,0:2:0:0:
376,200,186079,2,0,P|403:152|403:130,1,43.8600002677002,8|0,0:2|0:2,0:2:0:0:
353,10,186257,1,6,1:2:0:0:
337,37,186971,101,8,0:2:0:0:
337,37,187061,1,8,0:2:0:0:
337,37,187150,2,0,P|340:68|344:90,1,43.8600002677002,8|0,1:2|0:2,0:2:0:0:
264,54,187329,2,0,P|265:75|269:97,1,43.8600002677002,8|0,1:2|0:2,0:2:0:0:
184,33,187507,1,8,0:2:0:0:
146,10,187596,1,8,0:2:0:0:
103,8,187685,1,8,0:2:0:0:
64,27,187774,1,8,0:2:0:0:
38,62,187864,54,0,P|56:137|64:233,1,144.480001763672,6|0,1:2|0:2,0:2:0:0:
39,279,188221,1,8,0:2:0:0:
186,138,188400,1,0,3:2:0:0:
186,138,188489,1,0,3:2:0:0:
186,138,188579,1,0,1:2:0:0:
270,203,188757,1,0,0:2:0:0:
100,120,188936,1,8,0:2:0:0:
253,6,189114,1,2,3:2:0:0:
262,34,189204,1,2,3:2:0:0:
268,58,189293,102,0,P|351:43|403:97,1,144.480001763672,2|0,1:2|0:2,0:2:0:0:
431,137,189650,2,0,P|370:159|316:146,1,96.3200011757813,8|0,0:2|0:2,0:2:0:0:
191,57,190007,1,2,1:2:0:0:
315,221,190186,1,2,0:2:0:0:
168,334,190364,1,10,0:2:0:0:
233,217,190543,1,2,3:2:0:0:
238,242,190632,1,0,3:2:0:0:
241,267,190721,6,0,B|154:268|201:329|74:316,1,144.480001763672,0|0,1:2|0:2,0:2:0:0:
46,276,191079,1,10,0:2:0:0:
239,361,191257,1,2,0:2:0:0:
354,226,191436,1,2,1:2:0:0:
476,301,191614,1,2,0:2:0:0:
395,292,191793,2,0,L|381:350,1,48.1600005878906,8|0,3:2|3:2,3:2:0:0:
425,187,191971,2,0,L|439:245,1,48.1600005878906,0|0,3:2|3:2,3:2:0:0:
380,121,192150,101,2,1:2:0:0:
469,39,192329,1,2,0:2:0:0:
294,124,192507,1,10,0:2:0:0:
205,24,192686,1,2,0:2:0:0:
260,191,192864,5,0,3:2:0:0:
239,240,192954,101,0,3:2:0:0:
260,272,193043,5,2,3:2:0:0:
251,304,193132,101,0,3:2:0:0:
258,318,193221,5,8,3:2:0:0:
255,331,193311,1,0,3:2:0:0:
257,343,193400,1,0,3:2:0:0:
256,349,193489,1,0,3:2:0:0:
271,379,193579,101,0,1:2:0:0:
178,324,193757,1,2,0:2:0:0:
326,247,193936,5,10,0:2:0:0:
169,147,194114,1,2,0:2:0:0:
329,46,194293,101,2,1:2:0:0:
157,214,194471,1,2,0:2:0:0:
382,301,194650,5,10,0:2:0:0:
116,374,194829,1,2,3:2:0:0:
116,374,194918,1,0,3:2:0:0:
116,374,195007,1,0,1:2:0:0:
256,183,195186,102,0,P|268:250|277:295,1,96.3200011757813,2|8,0:2|0:2,0:2:0:0:
163,77,195543,1,2,3:2:0:0:
163,77,195632,1,2,3:2:0:0:
163,77,195721,1,2,1:2:0:0:
309,134,195900,1,2,0:2:0:0:
193,255,196079,1,10,0:2:0:0:
390,101,196257,2,0,P|378:168|369:213,1,96.3200011757813,2|0,0:2|1:2,0:2:0:0:
321,55,196614,5,2,0:2:0:0:
431,239,196793,1,10,0:2:0:0:
431,239,196882,1,2,3:2:0:0:
308,136,197061,1,2,3:2:0:0:
308,136,197150,1,2,1:2:0:0:
225,266,197329,1,2,0:2:0:0:
196,228,197418,1,2,0:2:0:0:
150,221,197507,1,10,0:2:0:0:
112,250,197596,1,2,0:2:0:0:
74,278,197686,1,2,0:2:0:0:
28,271,197775,1,2,0:2:0:0:
0,234,197864,102,0,L|18:177,1,48.1600005878906,6|0,1:2|0:2,0:2:0:0:
178,304,198043,2,0,L|160:247,1,48.1600005878906,2|0,0:2|0:2,0:2:0:0:
336,233,198221,2,0,L|354:176,1,48.1600005878906,10|0,0:2|0:2,0:2:0:0:
491,320,198400,2,0,L|467:101,1,192.640002351563,6|0,1:2|1:2,0:2:0:0:
351,314,198936,1,8,0:2:0:0:
248,117,199114,1,8,0:2:0:0:
248,117,199204,1,8,0:2:0:0:
248,117,199293,6,0,P|327:147|383:91,1,144.480001763672,6|2,1:2|0:2,0:2:0:0:
397,46,199650,1,10,0:2:0:0:
266,212,199829,1,2,0:2:0:0:
125,81,200007,1,2,1:2:0:0:
17,184,200186,2,0,P|92:171|141:163,1,96.3200011757813,2|8,0:2|0:2,0:2:0:0:
293,286,200543,1,2,3:2:0:0:
293,286,200632,1,2,3:2:0:0:
293,286,200721,102,0,P|200:271|123:267,1,144.480001763672,2|0,1:2|0:2,0:2:0:0:
86,300,201079,2,0,L|99:355,1,48.1600005878906,10|0,0:2|0:2,0:2:0:0:
13,302,201257,2,0,L|26:357,1,48.1600005878906,2|0,0:2|0:2,0:2:0:0:
183,192,201436,1,2,1:2:0:0:
89,88,201614,2,0,P|102:158|109:221,1,96.3200011757813,2|8,0:2|0:2,0:2:0:0:
105,182,201971,1,0,0:2:0:0:
282,49,202150,5,2,1:2:0:0:
345,242,202329,1,2,0:2:0:0:
178,117,202507,1,10,0:2:0:0:
406,160,202686,2,0,B|300:157|374:221|243:217,1,144.480001763672,2|0,0:2|0:2,0:2:0:0:
211,190,203043,1,2,1:2:0:0:
457,216,203221,1,10,0:2:0:0:
196,108,203400,1,2,3:2:0:0:
196,108,203489,1,0,3:2:0:0:
196,108,203579,102,0,P|191:176|183:229,1,96.3200011757813,0|2,1:2|0:2,0:2:0:0:
406,306,203936,1,10,3:2:0:0:
406,306,204025,1,2,3:2:0:0:
406,306,204114,2,0,P|412:204|416:131,1,144.480001763672,2|0,0:2|0:2,0:2:0:0:
423,91,204471,1,2,1:2:0:0:
270,233,204650,1,10,0:2:0:0:
129,70,204829,1,2,0:2:0:0:
322,175,205007,6,0,P|333:99|337:86,2,64.2133341171875,0|0|0,3:2|3:2|3:2,0:2:0:0:
198,24,205364,2,0,P|203:55|205:87,2,64.2133341171875,10|0|0,3:2|3:2|3:2,3:2:0:0:
90,170,205721,1,0,3:2:0:0:
90,170,205841,2,0,P|19:143|-2:143,1,64.2133341171875,0|0,3:2|3:2,0:2:0:0:
187,236,206079,1,10,3:2:0:0:
187,236,206199,2,0,P|116:263|95:263,1,64.2133341171875,0|0,3:2|3:2,0:2:0:0:
199,127,206436,101,0,3:2:0:0:
259,111,206555,1,0,3:2:0:0:
314,142,206674,1,0,3:2:0:0:
329,203,206793,1,8,3:2:0:0:
366,250,206912,1,0,3:2:0:0:
420,281,207031,1,0,3:2:0:0:
481,265,207150,2,0,P|491:187|496:164,2,64.2133341171875,2|0|0,3:2|3:2|3:2,0:2:0:0:
403,36,207507,2,0,P|411:151|422:220,1,144.480001763672,8|0,3:2|0:2,0:2:0:0:
331,113,207864,6,0,P|270:96|250:97,2,64.2133341171875,2|0|0,1:2|0:2|0:2,0:2:0:0:
145,178,208221,2,0,P|176:173|206:160,2,64.2133341171875,10|0|0,0:2|0:2|0:2,0:2:0:0:
54,127,208579,1,6,1:3:0:0:
268,269,208757,1,10,0:2:0:0:
268,269,208846,1,10,0:2:0:0:
268,269,208936,1,10,0:2:0:0:
32,368,209114,1,6,1:2:0:0:
500,214,209471,1,14,1:2:0:0:
92,7,209829,1,14,1:2:0:0:
92,7,210364,6,0,P|135:67|129:166,1,168.560002057617,8|0,0:2|0:2,0:2:0:0:
125,174,210721,38,0,B|309:159|204:288|389:278,1,302.720009238282,6|6,1:2|1:2,0:2:0:0:
310,104,224650,69,4,0:3:0:0:
310,104,225007,6,0,P|253:69|138:196,1,268.319998362305,6|0,1:2|0:2,0:2:0:0:
465,345,226436,102,0,B|400:350|333:274|333:274|269:346|182:340,1,319.919987307862,6|0,1:2|0:2,0:2:0:0:
25,80,227864,6,0,B|246:41|114:212|360:186,1,371.520009070313,6|0,1:2|0:2,0:2:0:0:
467,45,229293,101,0,1:2:0:0:
423,279,229471,1,8,0:3:0:0:
337,94,229650,6,0,L|279:105,1,30.9600007558594,4|4,1:3|0:3,0:3:0:0:
273,182,229829,2,0,L|242:176,1,30.9600007558594,4|4,0:3|0:3,0:3:0:0:
178,106,230007,6,0,P|111:67|58:84,1,113.519999653564,10|0,0:0|0:2,0:2:0:0:
133,184,230275,6,0,P|154:266|161:322,1,122.119993850769,14|0,0:3|0:2,0:2:0:0:
225,357,230543,102,0,P|242:295|248:279,1,52.4599978387147,6|0,1:3|1:2,0:2:0:0:
337,94,230721,6,0,P|407:98|436:181,1,157.379993516144,6|0,1:2|0:2,0:2:0:0:
421,251,231079,1,8,0:2:0:0:
292,159,231257,1,0,3:2:0:0:
292,159,231346,1,0,3:2:0:0:
292,159,231436,1,0,1:2:0:0:
199,265,231614,1,0,1:2:0:0:
337,94,231793,1,8,3:2:0:0:
288,78,231882,1,0,3:2:0:0:
245,94,231971,1,0,3:2:0:0:
212,83,232060,1,0,3:2:0:0:
212,83,232150,102,0,P|197:123|196:197,1,104.919995677429,2|0,1:2|0:2,0:2:0:0:
243,360,232507,2,0,P|232:281|232:268,1,52.4599978387147,8|0,3:2|3:2,0:2:0:0:
340,184,232686,1,0,3:2:0:0:
340,184,232775,1,0,3:2:0:0:
340,184,232864,1,2,1:2:0:0:
311,264,233043,1,0,1:2:0:0:
280,112,233221,1,8,3:2:0:0:
337,94,233310,1,0,3:2:0:0:
379,110,233399,1,0,3:2:0:0:
412,99,233488,1,0,3:2:0:0:
412,99,233578,6,0,P|431:155|435:211,1,104.919995677429,2|0,1:2|0:2,0:2:0:0:
322,338,233936,1,8,3:2:0:0:
264,195,234114,1,0,3:2:0:0:
392,261,234293,1,2,1:2:0:0:
412,99,234471,1,0,1:2:0:0:
290,218,234650,2,0,P|320:218|347:224,1,52.4599978387147,8|0,3:2|3:2,0:0:0:0:
213,114,234829,2,0,P|189:123|164:134,1,52.4599978387147,0|0,3:2|3:2,0:0:0:0:
122,317,235007,102,0,P|38:294|40:209,1,157.379993516144,2|0,1:2|0:0,0:2:0:0:
73,145,235364,2,0,P|103:206|109:251,1,104.919995677429,8|0,0:0|0:0,0:0:0:0:
212,295,235632,1,8,3:2:0:0:
212,295,235721,2,0,P|304:273|374:272,1,157.379993516144,2|0,1:2|0:0,0:0:0:0:
486,150,236079,1,8,3:2:0:0:
444,180,236168,1,0,3:2:0:0:
392,186,236257,1,0,3:2:0:0:
345,165,236346,1,8,3:2:0:0:
314,123,236436,6,0,P|259:80|154:113,1,157.379993516144,2|0,1:2|0:0,0:2:0:0:
136,161,236793,1,8,3:2:0:0:
293,315,236971,1,0,3:2:0:0:
327,312,237060,1,0,3:2:0:0:
355,293,237150,1,0,1:2:0:0:
216,169,237329,1,0,1:2:0:0:
135,314,237507,2,0,P|124:338|122:364,1,52.4599978387147,8|0,3:2|3:2,0:0:0:0:
270,240,237686,2,0,P|267:213|257:189,1,52.4599978387147,0|0,3:2|3:2,0:0:0:0:
112,75,237864,102,0,P|73:137|71:196,1,104.919995677429,2|0,1:2|0:2,0:2:0:0:
303,316,238221,1,8,3:2:0:0:
350,244,238400,2,0,P|337:193|306:151,1,104.919995677429,2|0,3:2|1:2,0:0:0:0:
70,241,238757,1,0,1:2:0:0:
26,310,238936,2,0,P|67:341|117:355,1,104.919995677429,10|0,3:2|3:2,0:0:0:0:
195,312,239204,1,0,3:2:0:0:
195,312,239293,6,0,P|188:255|188:182,1,104.919995677429,2|0,1:2|0:2,0:2:0:0:
181,53,239650,1,10,3:2:0:0:
70,241,239829,2,0,P|76:188|78:136,1,104.919995677429,2|0,3:2|1:2,0:0:0:0:
26,36,240186,1,0,1:2:0:0:
200,138,240364,1,8,3:2:0:0:
13,300,240543,1,0,3:2:0:0:
13,300,240632,1,0,3:2:0:0:
13,300,240721,101,2,1:2:0:0:
111,118,240900,1,8,0:2:0:0:
217,321,241079,1,10,0:2:0:0:
217,321,241168,2,0,P|296:294|342:297,1,104.919995677429,8|8,0:0|0:0,0:0:0:0:
442,231,241436,2,0,P|362:255|262:206,1,157.379993516144,2|8,1:2|0:0,0:0:0:0:
240,157,241793,1,0,1:2:0:0:
252,107,241882,1,8,0:2:0:0:
227,70,241971,1,8,0:2:0:0:
249,42,242060,1,8,0:2:0:0:
235,24,242150,6,0,B|124:18|196:80|76:75,1,157.379993516144,6|0,1:2|0:0,0:2:0:0:
26,43,242507,1,10,3:2:0:0:
76,245,242686,2,0,P|70:177|54:123,1,104.919995677429,2|0,3:2|1:2,0:0:0:0:
20,301,243043,1,0,1:2:0:0:
216,154,243221,1,10,3:2:0:0:
265,313,243400,102,0,P|271:245|287:191,1,104.919995677429,2|0,3:2|1:2,0:0:0:0:
334,356,243757,1,2,0:2:0:0:
418,110,243936,2,0,P|442:156|450:345,1,209.839991354859,8|0,3:2|1:2,0:2:0:0:
296,131,244471,1,0,1:2:0:0:
423,245,244650,1,10,3:2:0:0:
234,335,244829,1,2,3:2:0:0:
340,217,245007,6,0,P|222:216|167:253,1,157.379993516144,2|0,1:2|0:0,0:2:0:0:
137,290,245364,1,10,3:2:0:0:
296,131,245543,2,0,P|224:104|173:119,1,104.919995677429,2|0,3:2|1:2,0:0:0:0:
262,302,245900,1,0,1:2:0:0:
395,153,246079,1,10,3:2:0:0:
107,309,246257,102,0,P|102:233|76:130,1,157.379993516144,6|0,1:2|0:0,0:0:0:0:
115,88,246614,1,2,1:2:0:0:
279,332,246793,1,14,0:2:0:0:
466,46,247150,6,0,P|353:28|328:85,1,170.279999480347,14|0,0:3|0:2,0:2:0:0:
291,135,247507,2,0,P|178:153|153:96,1,170.279999480347,14|0,0:3|0:2,0:2:0:0:
146,39,247864,38,0,L|138:81,1,30.5299984626923,8|0,0:2|0:2,0:2:0:0:
146,39,248221,2,0,L|140:68,1,30.5299984626923,8|0,0:2|0:2,0:2:0:0:
107,308,248579,70,0,L|113:261,1,30.5299984626923,8|0,0:2|0:2,0:2:0:0:
146,39,248757,2,0,L|140:86,1,30.5299984626923,0|0,1:2|0:2,0:2:0:0:
189,317,248936,2,0,L|195:270,1,30.5299984626923,8|0,0:2|0:2,0:2:0:0:
228,48,249114,2,0,L|222:95,1,30.5299984626923,0|0,1:2|0:2,0:2:0:0:
271,331,249293,38,0,L|279:289,1,30.5299984626923,8|0,0:2|0:2,0:2:0:0:
271,331,249650,2,0,L|276:301,1,30.5299984626923,8|0,0:2|0:2,0:2:0:0:
310,62,250007,70,0,L|306:92,1,30.5299984626923,8|0,0:2|0:2,0:2:0:0:
271,331,250185,2,0,L|274:300,1,30.5299984626923,0|0,1:2|0:2,0:2:0:0:
392,71,250364,2,0,L|388:101,1,30.5299984626923,8|0,0:2|0:2,0:2:0:0:
353,340,250543,2,0,L|356:309,1,30.5299984626923,0|0,1:2|0:2,0:2:0:0:
228,48,250721,38,0,P|240:151|254:244,1,183.179990776154,12|0,0:2|0:2,0:2:0:0:
271,331,251079,2,0,P|195:306|128:316,1,122.119993850769,8|0,0:2|0:2,0:2:0:0:
14,339,251436,1,0,1:2:0:0:
21,332,251525,1,0,1:2:0:0:
33,315,251614,1,0,1:2:0:0:
40,283,251704,1,8,1:2:0:0:
39,249,251793,1,8,1:2:0:0:
135,384,251971,6,0,P|120:309|211:159,1,244.239987701539,4|0,1:2|1:2,0:2:0:0:
286,90,252507,54,0,B|191:80|234:140|146:130,1,151.360004619141,14|0,0:2|0:2,0:2:0:0:
62,81,254829,38,0,B|74:55|168:16|208:143|123:309,1,314.759987032288,14|8,1:2|0:2,0:2:0:0:
260,382,255543,2,0,P|250:333|246:269,1,96.3200011757813,2|0,0:0|1:2,0:2:0:0:
274,82,255900,1,2,0:2:0:0:
159,309,256079,1,8,0:2:0:0:
304,160,256257,1,2,3:2:0:0:
304,160,256346,1,0,3:2:0:0:
304,160,256436,6,0,P|366:137|420:143,1,96.3200011757813,0|0,1:2|0:2,0:2:0:0:
225,183,256793,2,0,P|177:180|133:160,1,96.3200011757813,8|0,0:2|3:2,0:2:0:0:
90,101,257061,1,0,3:2:0:0:
90,101,257150,1,0,1:2:0:0:
140,253,257329,1,2,0:2:0:0:
140,253,257418,1,0,0:2:0:0:
140,253,257507,2,0,P|149:289|154:315,1,48.1600005878906,8|0,0:2|0:2,0:2:0:0:
248,367,257686,1,2,3:2:0:0:
248,367,257775,1,0,3:2:0:0:
248,367,257864,102,0,P|260:270|299:142,1,209.839991354859,2|8,1:2|0:2,0:2:0:0:
444,262,258400,2,0,P|428:187|426:133,1,96.3200011757813,2|0,0:2|1:2,0:2:0:0:
334,309,258757,1,2,0:2:0:0:
448,89,258936,1,8,0:2:0:0:
247,275,259114,1,2,3:2:0:0:
247,275,259204,1,0,3:2:0:0:
247,275,259293,6,0,B|146:281|210:215|77:232,1,144.480001763672,4|0,1:2|0:2,0:2:0:0:
31,211,259650,2,0,P|90:208|144:186,1,118.679996015991,14|0,0:2|0:2,0:2:0:0:
210,71,260007,54,0,L|224:192,1,122.119993850769,6|0,1:2|0:2,0:2:0:0:
249,209,260275,2,0,L|234:87,1,122.119993850769,10|0,0:2|0:2,0:2:0:0:
296,13,260543,2,0,L|305:73,1,61.0599969253847,6|0,1:2|0:2,0:2:0:0:
340,264,260721,38,0,P|385:216|475:233,1,144.480001763672,6|0,1:2|0:2,0:2:0:0:
497,301,261079,2,0,L|487:348,3,48.1600005878906,10|0|0|0,0:2|3:2|3:2|3:2,0:2:0:0:
249,209,261436,2,0,P|204:161|114:178,1,144.480001763672,2|0,1:2|0:2,0:2:0:0:
92,246,261794,2,0,L|101:293,3,48.1600005878906,10|0|0|0,0:2|3:2|3:2|3:2,0:2:0:0:
254,97,262150,6,0,P|295:77|361:80,1,96.3200011757813,2|0,1:2|0:2,0:2:0:0:
249,209,262507,1,8,0:2:0:0:
180,55,262686,2,0,P|139:35|73:38,1,96.3200011757813,2|0,0:2|1:2,0:2:0:0:
179,147,263043,1,0,0:2:0:0:
357,18,263221,2,0,P|366:69|379:119,1,96.3200011757813,10|0,0:2|0:2,0:2:0:0:
447,317,263579,102,0,P|371:285|254:353,1,192.640002351563,2|8,1:2|0:2,0:2:0:0:
52,227,264114,2,0,P|99:230|144:246,1,96.3200011757813,2|0,0:2|1:2,0:2:0:0:
203,301,264471,1,0,0:2:0:0:
75,143,264650,1,10,0:2:0:0:
228,227,264829,1,8,0:2:0:0:
228,227,264918,1,8,0:2:0:0:
228,227,265007,6,0,P|232:157|260:76,1,144.480001763672,6|0,1:2|0:2,0:2:0:0:
332,46,265364,2,0,P|335:69|338:93,1,48.1600005878906,8|0,0:2|0:2,0:2:0:0:
307,193,265543,2,0,P|382:199|408:275,1,144.480001763672,6|0,1:2|0:2,0:2:0:0:
368,342,265900,1,8,0:2:0:0:
316,327,265989,1,8,0:2:0:0:
276,357,266079,1,8,1:3:0:0:
234,342,266168,1,8,1:3:0:0:
234,342,266257,1,4,1:3:0:0:
234,342,266346,1,4,1:3:0:0:
234,342,266436,102,0,P|177:271|25:330,1,244.239987701539,6|8,1:2|0:2,0:2:0:0:
266,240,266971,1,2,0:0:0:0:
266,240,267061,1,0,0:0:0:0:
266,240,267150,1,0,1:2:0:0:
212,164,267329,1,2,0:2:0:0:
292,18,267507,1,8,0:2:0:0:
219,72,267686,1,2,3:2:0:0:
219,72,267775,1,0,3:2:0:0:
219,72,267864,5,0,1:2:0:0:
340,198,268043,1,0,0:2:0:0:
292,18,268221,1,8,0:2:0:0:
411,151,268400,2,0,P|400:221|401:283,1,96.3200011757813,0|0,3:2|1:2,0:0:0:0:
327,368,268757,1,2,0:2:0:0:
301,328,268846,1,2,0:2:0:0:
256,314,268935,1,8,0:2:0:0:
212,332,269024,1,0,3:2:0:0:
170,355,269114,1,2,3:2:0:0:
125,341,269203,1,0,3:2:0:0:
99,302,269293,101,2,1:2:0:0:
247,190,269471,1,0,0:0:0:0:
94,66,269650,1,8,0:2:0:0:
171,262,269829,2,0,P|176:160|193:63,1,192.640002351563,2|2,0:2|0:2,0:2:0:0:
98,208,270364,1,8,0:2:0:0:
285,124,270543,1,2,3:2:0:0:
273,324,270721,6,0,L|261:263,1,48.1600005878906,4|0,1:2|0:0,0:2:0:0:
385,224,270900,2,0,L|397:163,1,48.1600005878906,0|0,0:0|0:2,0:0:0:0:
316,54,271079,1,14,0:2:0:0:
316,54,271257,1,0,0:0:0:0:
186,186,271436,54,0,L|18:158,1,122.119993850769,6|0,1:2|0:2,0:2:0:0:
262,208,271704,2,0,L|141:228,1,122.119993850769,10|0,0:2|0:2,0:2:0:0:
342,150,271971,2,0,L|274:129,1,61.0599969253847,6|0,1:2|0:2,0:2:0:0:
478,250,272150,38,0,B|368:249|423:327|296:324,1,192.640002351563,6|10,1:2|0:2,0:2:0:0:
129,214,272686,1,0,3:2:0:0:
129,214,272775,1,0,3:2:0:0:
129,214,272864,2,0,P|119:288|111:331,1,96.3200011757813,2|0,1:2|0:0,0:2:0:0:
256,124,273221,1,10,0:2:0:0:
254,100,273311,1,0,3:2:0:0:
252,76,273400,1,0,3:2:0:0:
250,52,273489,1,0,3:2:0:0:
250,52,273579,6,0,P|327:50|361:164,1,192.640002351563,2|8,1:2|0:2,0:2:0:0:
296,297,274114,1,2,0:2:0:0:
296,297,274204,1,8,0:0:0:0:
296,297,274293,1,0,1:2:0:0:
396,169,274471,1,0,0:2:0:0:
214,262,274650,1,10,0:2:0:0:
411,306,274829,1,0,0:2:0:0:
173,188,275007,102,0,P|140:246|151:353,1,144.480001763672,2|0,1:2|0:0,0:2:0:0:
209,362,275364,2,0,L|264:346,1,48.1600005878906,8|0,0:2|0:0,0:0:0:0:
251,187,275543,2,0,L|298:201,1,48.1600005878906,2|0,0:2|0:0,0:2:0:0:
411,306,275721,1,2,1:2:0:0:
449,278,275810,1,2,0:0:0:0:
467,234,275899,1,2,0:2:0:0:
458,188,275988,1,2,0:0:0:0:
425,154,276079,2,0,L|349:174,1,48.1600005878906,10|0,0:2|0:0,0:0:0:0:
306,295,276257,2,0,L|259:282,1,48.1600005878906
127,101,276436,5,6,1:2:0:0:
180,264,276614,1,0,0:0:0:0:
127,101,276793,1,8,0:0:0:0:
28,295,276971,2,0,P|144:306|201:352,1,192.640002351563,6|0,1:2|1:0,0:0:0:0:
422,181,277507,2,0,P|330:210|278:261,1,144.480001763672,8|0,0:0|0:0,0:0:0:0:
282,265,277864,5,6,1:2:0:0:
204,279,278049,1,0,0:2:0:0:
142,233,278234,1,2,0:2:0:0:
150,155,278419,2,0,P|165:239|174:325,2,158.239994687988,2|2|2,1:2|0:2|1:2,0:2:0:0:
150,155,279530,5,2,0:2:0:0:
211,97,279715,1,2,0:2:0:0:
291,96,279901,2,0,P|343:119|441:71,1,158.239994687988,2|0,1:2|0:2,0:2:0:0:
436,79,280456,1,0,0:2:0:0:
393,294,280826,102,0,P|386:258|374:215,2,70.5200010760498,2|0|0,0:2|0:2|0:2,0:2:0:0:
293,279,281382,2,0,P|305:199|303:122,1,141.0400021521,2|0,0:2|0:2,0:2:0:0:
304,139,281938,1,0,0:2:0:0:
218,221,282123,2,0,P|146:195|77:229,1,141.0400021521,2|0,0:2|0:2,0:2:0:0:
88,217,282678,1,0,0:2:0:0:
42,146,282864,2,0,P|14:212|20:297,1,141.0400021521,2|0,0:2|0:2,0:2:0:0:
15,280,283419,1,2,0:2:0:0:
206,377,283666,6,0,L|245:368,1,23.5066670253499,0|0,0:2|0:2,0:2:0:0:
260,365,283789,1,2,1:2:0:0:
216,296,283975,1,0,0:2:0:0:
275,234,284160,1,0,0:2:0:0:
227,171,284345,2,0,P|219:99|246:17,2,141.0400021521,2|2|2,1:2|0:2|1:2,0:2:0:0:
227,171,285456,101,2,0:2:0:0:
295,136,285641,1,2,0:2:0:0:
368,157,285826,2,0,P|426:175|483:115,1,141.0400021521,2|0,1:2|0:2,0:2:0:0:
480,125,286382,1,0,0:2:0:0:
314,278,286752,6,0,P|303:233|300:189,2,61.9200015117188,2|0|0,0:2|0:2|0:2,0:2:0:0:
227,255,287308,2,0,P|159:226|102:231,1,123.840003023438,2|0,0:2|0:2,0:2:0:0:
110,228,287864,1,0,0:2:0:0:
47,275,288049,2,0,P|29:213|64:135,1,123.840003023438,2|0,0:2|0:2,0:2:0:0:
45,157,288604,1,0,0:2:0:0:
9,29,288789,22,0,B|373:9|146:334|529:357,1,662.200020208741,2|0,0:2|0:2,0:2:0:0:
