osu file format v14

[General]
AudioFilename: audio.mp3
AudioLeadIn: 0
PreviewTime: 56457
Countdown: 0
SampleSet: Normal
StackLeniency: 0.7
Mode: 1
LetterboxInBreaks: 0
WidescreenStoryboard: 0

[Editor]
DistanceSpacing: 0.8
BeatDivisor: 4
GridSize: 32
TimelineZoom: 3

[Metadata]
Title:kaleidoscope
TitleUnicode:kaleidoscope
Artist:ChouCho
ArtistUnicode:ChouCho
Creator:ler1211
Version:constellation
Source:劇場版Fate/kaleid liner プリズマ☆イリヤ 雪下の誓い
Tags:prisma illya prisma☆illya prisma*illya ちょうちょ fate kaleid anime movie gekijouban Oath Under Snow Vow in the Snow Sekka no Chikai japanese pop jpop j-pop type-moon typemoon ed ending theme song full size ver version
BeatmapID:4357033
BeatmapSetID:2080547

[Difficulty]
HPDrainRate:5
CircleSize:5
OverallDifficulty:6
ApproachRate:5
SliderMultiplier:1.4
SliderTickRate:1

[Events]
//Background and Video events
0,0,"kaleid.jpg",0,30
//Break Periods
//Storyboard Layer 0 (Background)
//Storyboard Layer 1 (Fail)
//Storyboard Layer 2 (Pass)
//Storyboard Layer 3 (Foreground)
//Storyboard Layer 4 (Overlay)
//Storyboard Sound Samples

[TimingPoints]
1375,344.827586206897,4,1,0,90,1,0
1375,-90.9090909090909,4,1,0,90,0,0
7064,-100,4,1,0,90,0,0
9648,-80,4,1,0,90,0,0
9734,-80.9699895954555,4,1,0,90,0,0
9820,-81.9517401886022,4,1,0,90,0,0
9907,-82.9453943800074,4,1,0,90,0,0
9993,-83.9510964992519,4,1,0,90,0,0
10079,-84.9689926258939,4,1,0,90,0,0
10165,-85.9992306106871,4,1,0,90,0,0
10251,-87.0419600970563,4,1,0,90,0,0
10338,-88.0973325428339,4,1,0,90,0,0
10424,-89.165501242258,4,1,0,90,0,0
10510,-90.2466213482401,4,1,0,90,0,0
10596,-91.3408498949002,4,1,0,90,0,0
10682,-92.4483458203766,4,1,0,90,0,0
10769,-93.5692699899121,4,1,0,90,0,0
10855,-94.7037852192194,4,1,0,90,0,0
10941,-95.8520562981306,4,1,0,90,0,0
11027,-97.0142500145331,4,1,0,90,0,0
11114,-98.1905351785959,4,1,0,90,0,0
11200,-99.3810826472889,4,1,0,90,0,0
11286,-100.586065349201,4,1,0,90,0,0
11372,-101.805658309658,4,1,0,90,0,0
11458,-103.040038676144,4,1,0,90,0,0
11545,-104.289385744034,4,1,0,90,0,0
11631,-105.553880982636,4,1,0,90,0,0
11717,-106.833708061549,4,1,0,90,0,0
11803,-108.129052877345,4,1,0,90,0,0
11889,-109.440103580563,4,1,0,90,0,0
11976,-110.767050603047,4,1,0,90,0,0
12062,-112.1100866856,4,1,0,90,0,0
12148,-113.469406905984,4,1,0,90,0,0
12234,-114.84520870725,4,1,0,90,0,0
12320,-116.237691926424,4,1,0,90,0,0
12407,-117.647058823529,4,1,0,90,0,0
12581,-117.647058823529,4,1,0,75,0,0
20683,-117.647058823529,4,1,0,80,0,0
20769,-116.458115224665,4,1,0,81,0,0
20855,-115.281187114291,4,1,0,81,0,0
20942,-114.116153063634,4,1,0,82,0,0
21028,-112.962892871081,4,1,0,83,0,0
21114,-111.82128754978,4,1,0,83,0,0
21200,-110.691219315363,4,1,0,84,0,0
21286,-109.572571573791,4,1,0,84,0,0
21373,-108.465228909328,4,1,0,85,0,0
21459,-107.369077072633,4,1,0,86,0,0
21545,-106.28400296897,4,1,0,86,0,0
21631,-105.209894646541,4,1,0,87,0,0
21717,-104.146641284935,4,1,0,88,0,0
21804,-103.094133183693,4,1,0,88,0,0
21890,-102.052261750994,4,1,0,89,0,0
21976,-101.020919492447,4,1,0,89,0,0
22062,-100,4,1,0,90,0,0
22581,-76.9230769230769,4,1,0,90,0,0
23271,-100,4,1,0,90,0,0
31719,-100,4,1,0,90,0,0
31805,-99.4638962606272,4,1,0,90,0,0
31891,-98.9306665934482,4,1,0,90,0,0
31978,-98.4002955904542,4,1,0,90,0,0
32064,-97.87276792624,4,1,0,90,0,0
32150,-97.3480683575598,4,1,0,90,0,0
32236,-96.8261817228877,4,1,0,90,0,0
32322,-96.3070929419795,4,1,0,90,0,0
32409,-95.7907870154363,4,1,0,90,0,0
32495,-95.2772490242719,4,1,0,90,0,0
32581,-94.7664641294813,4,1,0,90,0,0
32667,-94.2584175716118,4,1,0,90,0,0
32753,-93.7530946703368,4,1,0,90,0,0
32840,-93.2504808240314,4,1,0,90,0,0
32926,-92.7505615093507,4,1,0,90,0,0
33012,-92.2533222808098,4,1,0,90,0,0
33098,-91.7587487703668,4,1,0,90,0,0
33185,-91.2668266870072,4,1,0,90,0,0
33271,-90.7775418163313,4,1,0,90,0,0
33357,-90.2908800201432,4,1,0,90,0,0
33443,-89.8068272360427,4,1,0,90,0,0
33529,-89.3253694770182,4,1,0,90,0,0
33616,-88.8464928310434,4,1,0,90,0,0
33702,-88.3701834606746,4,1,0,90,0,0
33788,-87.8964276026513,4,1,0,90,0,0
33874,-87.4252115674984,4,1,0,90,0,0
33960,-86.9565217391305,4,1,0,90,0,0
34478,-111.111111111111,4,1,0,90,0,0
45510,-76.9230769230769,4,1,0,90,0,0
45682,-77.9567591259288,4,1,0,90,0,0
45855,-79.0043318144351,4,1,0,90,0,0
46027,-80.0659816471174,4,1,0,90,0,0
46200,-81.1418977907897,4,1,0,90,0,0
46372,-82.2322719542653,4,1,0,90,0,0
46544,-83.3372984225149,4,1,0,90,0,0
46717,-84.4571740912854,4,1,0,90,0,0
46889,-85.5920985021826,4,1,0,90,0,0
47062,-86.7422738782265,4,1,0,90,0,0
47234,-87.9079051598833,4,1,0,90,0,0
47407,-89.0892000415822,4,1,0,90,0,0
47579,-90.286369008723,4,1,0,90,0,0
47751,-91.4996253751807,4,1,0,90,0,0
47924,-92.7291853213139,4,1,0,90,0,0
48096,-93.9752679324847,4,1,0,90,0,0
48269,-86.9565217391304,4,1,0,90,0,0
48355,-87.6251730658294,4,1,0,90,0,0
48441,-88.2989659803904,4,1,0,90,0,0
48528,-88.9779400190032,4,1,0,90,0,0
48614,-89.6621350218707,4,1,0,90,0,0
48700,-90.3515911355466,4,1,0,90,0,0
48786,-91.0463488152914,4,1,0,90,0,0
48872,-91.7464488274454,4,1,0,90,0,0
48959,-92.451932251822,4,1,0,90,0,0
49045,-93.1628404841167,4,1,0,90,0,0
49131,-93.8792152383374,4,1,0,90,0,0
49217,-94.601098549251,4,1,0,90,0,0
49303,-95.3285327748506,4,1,0,90,0,0
49390,-96.0615605988406,4,1,0,90,0,0
49476,-96.8002250331413,4,1,0,90,0,0
49562,-97.5445694204128,4,1,0,90,0,0
49648,-98.294637436598,4,1,0,90,0,0
49735,-99.0504730934859,4,1,0,90,0,0
49821,-99.8121207412933,4,1,0,90,0,0
49907,-100.579625071268,4,1,0,90,0,0
49993,-101.35303111831,4,1,0,90,0,0
50079,-102.132384263615,4,1,0,90,0,0
50166,-102.917730237339,4,1,0,90,0,0
50252,-103.709115121275,4,1,0,90,0,0
50338,-104.506585351566,4,1,0,90,0,0
50424,-105.310187721424,4,1,0,90,0,0
50510,-106.119969383874,4,1,0,90,0,0
50597,-106.935977854529,4,1,0,90,0,0
50683,-107.758261014368,4,1,0,90,0,0
50769,-108.586867112554,4,1,0,90,0,0
50855,-109.421844769258,4,1,0,90,0,0
50941,-110.263242978518,4,1,0,90,0,0
51028,-111.111111111111,4,1,0,90,0,0
53786,-100,4,1,0,90,0,0
53872,-99.3036262855595,4,1,0,90,0,0
53958,-98.6121019346207,4,1,0,90,0,0
54045,-97.9253931774907,4,1,0,90,0,0
54131,-97.2434664796402,4,1,0,90,0,0
54217,-96.5662885400653,4,1,0,90,0,0
54303,-95.8938262896615,4,1,0,90,0,0
54389,-95.2260468896091,4,1,0,90,0,0
54476,-94.5629177297691,4,1,0,90,0,0
54562,-93.904406427091,4,1,0,90,0,0
54648,-93.2504808240314,4,1,0,90,0,0
54734,-92.6011089869835,4,1,0,90,0,0
54820,-91.9562592047178,4,1,0,90,0,0
54907,-91.3158999868334,4,1,0,90,0,0
54993,-90.6800000622203,4,1,0,90,0,0
55079,-90.0485283775324,4,1,0,90,0,0
55165,-89.4214540956708,4,1,0,90,0,0
55252,-88.7987465942781,4,1,0,90,0,0
55338,-88.1803754642429,4,1,0,90,0,0
55424,-87.566310508215,4,1,0,90,0,0
55510,-86.9565217391305,4,1,0,90,0,0
56028,-96.1538461538461,4,1,0,90,0,0
56114,-95.2380952380952,4,1,0,90,0,0
56200,-94.3396226415094,4,1,0,90,0,0
56286,-93.4579439252336,4,1,0,90,0,0
56373,-92.5925925925926,4,1,0,90,0,0
56547,-90.9090909090909,4,1,0,100,0,1
64821,-76.9230769230769,4,1,0,100,0,1
64907,-77.3256992604974,4,1,0,100,0,1
64993,-77.7304289596235,4,1,0,100,0,1
65080,-78.1372770505769,4,1,0,100,0,1
65166,-78.546254621212,4,1,0,100,0,1
65252,-78.9573728174177,4,1,0,100,0,1
65338,-79.370642843422,4,1,0,100,0,1
65424,-79.7860759620963,4,1,0,100,0,1
65511,-80.2036834952634,4,1,0,100,0,1
65597,-80.6234768240051,4,1,0,100,0,1
65683,-81.0454673889731,4,1,0,100,0,1
65769,-81.4696666907003,4,1,0,100,0,1
65855,-81.8960862899147,4,1,0,100,0,1
65942,-82.3247378078539,4,1,0,100,0,1
66028,-82.7556329265823,4,1,0,100,0,1
66114,-83.1887833893092,4,1,0,100,0,1
66200,-83.624201000709,4,1,0,100,0,1
66287,-84.0618976272427,4,1,0,100,0,1
66373,-84.5018851974815,4,1,0,100,0,1
66459,-84.9441757024319,4,1,0,100,0,1
66545,-85.3887811958623,4,1,0,100,0,1
66631,-85.8357137946316,4,1,0,100,0,1
66718,-86.2849856790195,4,1,0,100,0,1
66804,-86.7366090930584,4,1,0,100,0,1
66890,-87.190596344867,4,1,0,100,0,1
66976,-87.6469598069859,4,1,0,100,0,1
67062,-88.1057119167146,4,1,0,100,0,1
67149,-88.5668651764506,4,1,0,100,0,1
67235,-89.0304321540301,4,1,0,100,0,1
67321,-89.4964254830704,4,1,0,100,0,1
67407,-89.9648578633144,4,1,0,100,0,1
67493,-90.4357420609765,4,1,0,100,0,1
67580,-90.9090909090908,4,1,0,100,0,1
73271,-100,4,1,0,100,0,1
78616,-90.9090909090909,4,1,0,90,0,0
84306,-100,4,1,0,90,0,0
86804,-80,4,1,0,90,0,0
86890,-80.9699895954555,4,1,0,90,0,0
86976,-81.9517401886022,4,1,0,90,0,0
87063,-82.9453943800074,4,1,0,90,0,0
87149,-83.9510964992519,4,1,0,90,0,0
87235,-84.9689926258939,4,1,0,90,0,0
87321,-85.9992306106871,4,1,0,90,0,0
87407,-87.0419600970563,4,1,0,90,0,0
87494,-88.0973325428339,4,1,0,90,0,0
87580,-89.165501242258,4,1,0,90,0,0
87666,-90.2466213482401,4,1,0,90,0,0
87752,-91.3408498949002,4,1,0,90,0,0
87838,-92.4483458203766,4,1,0,90,0,0
87925,-93.5692699899121,4,1,0,90,0,0
88011,-94.7037852192194,4,1,0,90,0,0
88097,-95.8520562981306,4,1,0,90,0,0
88183,-97.0142500145331,4,1,0,90,0,0
88270,-98.1905351785959,4,1,0,90,0,0
88356,-99.3810826472889,4,1,0,90,0,0
88442,-100.586065349201,4,1,0,90,0,0
88528,-101.805658309658,4,1,0,90,0,0
88614,-103.040038676144,4,1,0,90,0,0
88701,-104.289385744034,4,1,0,90,0,0
88787,-105.553880982636,4,1,0,90,0,0
88873,-106.833708061549,4,1,0,90,0,0
88959,-108.129052877345,4,1,0,90,0,0
89045,-109.440103580563,4,1,0,90,0,0
89132,-110.767050603047,4,1,0,90,0,0
89218,-112.1100866856,4,1,0,90,0,0
89304,-113.469406905984,4,1,0,90,0,0
89390,-114.84520870725,4,1,0,90,0,0
89476,-116.237691926424,4,1,0,90,0,0
89563,-117.647058823529,4,1,0,90,0,0
89648,-83.3333333333333,4,1,0,90,0,0
89737,-84.5488544032598,4,1,0,20,0,0
89993,-85.7821053708435,4,1,0,20,0,0
90165,-87.0333448488545,4,1,0,20,0,0
90338,-88.302835222254,4,1,0,20,0,0
90510,-89.5908427032168,4,1,0,20,0,0
90682,-90.8976373869555,4,1,0,20,0,0
90855,-92.2234933083601,4,1,0,20,0,0
91027,-93.5686884994625,4,1,0,20,0,0
91200,-94.9335050477404,4,1,0,20,0,0
91372,-96.3182291552703,4,1,0,20,0,0
91545,-97.7231511987452,4,1,0,20,0,0
91717,-99.1485657903655,4,1,0,20,0,0
91889,-100.59477183962,4,1,0,20,0,0
92062,-102.062072615966,4,1,0,20,0,0
92234,-103.550775812427,4,1,0,20,0,0
92407,-105.061193610113,4,1,0,20,0,0
92579,-106.59364274369,4,1,0,20,0,0
92751,-108.148444567792,4,1,0,20,0,0
92924,-109.725925124415,4,1,0,20,0,0
93096,-111.326415211286,4,1,0,20,0,0
93269,-112.95025045123,4,1,0,20,0,0
93441,-114.597771362554,4,1,0,20,0,0
93614,-116.269323430447,4,1,0,20,0,0
93786,-117.965257179437,4,1,0,20,0,0
93958,-119.685928246888,4,1,0,20,0,0
94131,-121.431697457582,4,1,0,20,0,0
94303,-123.202930899381,4,1,0,20,0,0
94476,-125,4,1,0,20,0,0
94564,-111.111111111111,4,1,0,90,0,0
100683,-111.111111111111,4,1,0,90,0,0
100769,-110.928344031371,4,1,0,90,0,0
100855,-110.745877585881,4,1,0,90,0,0
100942,-110.563711280124,4,1,0,90,0,0
101028,-110.381844620402,4,1,0,90,0,0
101114,-110.200277113824,4,1,0,90,0,0
101200,-110.019008268312,4,1,0,90,0,0
101286,-109.838037592599,4,1,0,90,0,0
101373,-109.657364596222,4,1,0,90,0,0
101459,-109.47698878953,4,1,0,90,0,0
101545,-109.296909683672,4,1,0,90,0,0
101631,-109.117126790605,4,1,0,90,0,0
101717,-108.937639623087,4,1,0,90,0,0
101804,-108.758447694678,4,1,0,90,0,0
101890,-108.579550519738,4,1,0,90,0,0
101976,-108.400947613427,4,1,0,90,0,0
102062,-108.2226384917,4,1,0,90,0,0
102149,-108.04462267131,4,1,0,90,0,0
102235,-107.866899669805,4,1,0,90,0,0
102321,-107.689469005526,4,1,0,90,0,0
102407,-107.512330197606,4,1,0,90,0,0
102493,-107.33548276597,4,1,0,90,0,0
102580,-107.158926231332,4,1,0,90,0,0
102666,-106.982660115194,4,1,0,90,0,0
102752,-106.806683939845,4,1,0,90,0,0
102838,-106.630997228362,4,1,0,90,0,0
102924,-106.455599504604,4,1,0,90,0,0
103011,-106.280490293213,4,1,0,90,0,0
103097,-106.105669119615,4,1,0,90,0,0
103183,-105.931135510016,4,1,0,90,0,0
103269,-105.7568889914,4,1,0,90,0,0
103355,-105.58292909153,4,1,0,90,0,0
103442,-105.409255338946,4,1,0,90,0,0
103528,-105.235867262963,4,1,0,90,0,0
103614,-105.062764393672,4,1,0,90,0,0
103700,-104.889946261933,4,1,0,90,0,0
103786,-104.717412399382,4,1,0,90,0,0
103873,-104.545162338423,4,1,0,90,0,0
103959,-104.373195612229,4,1,0,90,0,0
104045,-104.201511754743,4,1,0,90,0,0
104131,-104.030110300672,4,1,0,90,0,0
104217,-103.85899078549,4,1,0,90,0,0
104304,-103.688152745435,4,1,0,90,0,0
104390,-103.517595717507,4,1,0,90,0,0
104476,-103.347319239468,4,1,0,90,0,0
104562,-103.177322849841,4,1,0,90,0,0
104649,-103.007606087908,4,1,0,90,0,0
104735,-102.838168493707,4,1,0,90,0,0
104821,-102.669009608034,4,1,0,90,0,0
104907,-102.500128972442,4,1,0,90,0,0
104993,-102.331526129235,4,1,0,90,0,0
105080,-102.163200621471,4,1,0,90,0,0
105166,-101.995151992961,4,1,0,90,0,0
105252,-101.827379788265,4,1,0,90,0,0
105338,-101.659883552692,4,1,0,90,0,0
105424,-101.492662832299,4,1,0,90,0,0
105511,-101.325717173891,4,1,0,90,0,0
105597,-101.159046125018,4,1,0,90,0,0
105683,-100.992649233972,4,1,0,90,0,0
105769,-100.826526049791,4,1,0,90,0,0
105855,-100.660676122253,4,1,0,90,0,0
105942,-100.495099001878,4,1,0,90,0,0
106028,-100.329794239923,4,1,0,90,0,0
106114,-100.164761388386,4,1,0,90,0,0
106200,-100,4,1,0,90,0,0
106375,-100,4,1,0,90,0,0
107579,-90.9090909090909,4,1,0,90,0,0
107751,-93.2182803093306,4,1,0,90,0,0
107924,-95.5861256221183,4,1,0,90,0,0
108096,-98.0141167711807,4,1,0,90,0,0
108269,-100.503781525921,4,1,0,90,0,0
108441,-103.056686462742,4,1,0,90,0,0
108613,-105.674437950781,4,1,0,90,0,0
108786,-108.358683162696,4,1,0,90,0,0
108958,-111.111111111111,4,1,0,90,0,0
111028,-107.276598289514,4,1,0,90,0,0
111114,-106.338828002724,4,1,0,90,0,0
111200,-105.409255338946,4,1,0,90,0,0
111286,-104.487808637749,4,1,0,90,0,0
111373,-103.574416865129,4,1,0,90,0,0
111459,-102.669009608034,4,1,0,90,0,0
111545,-101.771517068937,4,1,0,90,0,0
111631,-100.881870060451,4,1,0,90,0,0
111717,-100,4,1,0,90,0,0
119993,-76.9230769230769,4,1,0,90,0,0
120079,-77.8121291652218,4,1,0,90,0,0
120165,-78.711456787927,4,1,0,90,0,0
120252,-79.6211785507443,4,1,0,90,0,0
120338,-80.5414145858101,4,1,0,90,0,0
120424,-81.4722864137095,4,1,0,90,0,0
120510,-82.4139169595236,4,1,0,90,0,0
120596,-83.366430569062,4,1,0,90,0,0
120683,-84.3299530252835,4,1,0,90,0,0
120769,-85.3046115649058,4,1,0,90,0,0
120855,-86.2905348952077,4,1,0,90,0,0
120941,-87.2878532110257,4,1,0,90,0,0
121027,-88.2966982119463,4,1,0,90,0,0
121114,-89.3172031196974,4,1,0,90,0,0
121200,-90.3495026957411,4,1,0,90,0,0
121286,-91.3937332590693,4,1,0,90,0,0
121372,-92.4500327042048,4,1,0,90,0,0
121459,-93.5185405194113,4,1,0,90,0,0
121545,-94.5993978051129,4,1,0,90,0,0
121631,-95.6927472925273,4,1,0,90,0,0
121717,-96.7987333625138,4,1,0,90,0,0
121803,-97.9175020646392,4,1,0,90,0,0
121890,-99.0492011364644,4,1,0,90,0,0
121976,-100.193980023054,4,1,0,90,0,0
122062,-101.35198989671,4,1,0,90,0,0
122148,-102.523383676935,4,1,0,90,0,0
122234,-103.708316050629,4,1,0,90,0,0
122321,-104.906943492509,4,1,0,90,0,0
122407,-106.119424285781,4,1,0,90,0,0
122493,-107.345918543034,4,1,0,90,0,0
122579,-108.586588227389,4,1,0,90,0,0
122665,-109.841597173884,4,1,0,90,0,0
122752,-111.111111111111,4,1,0,90,0,0
133786,-76.9230769230769,4,1,0,90,0,0
133872,-77.2390658336208,4,1,0,90,0,0
133958,-77.5563527810554,4,1,0,90,0,0
134045,-77.874943097529,4,1,0,90,0,0
134131,-78.1948421370937,4,1,0,90,0,0
134217,-78.5160552757954,4,1,0,90,0,0
134303,-78.8385879117639,4,1,0,90,0,0
134389,-79.1624454653037,4,1,0,90,0,0
134476,-79.4876333789851,4,1,0,90,0,0
134562,-79.814157117736,4,1,0,90,0,0
134648,-80.142022168933,4,1,0,90,0,0
134734,-80.4712340424943,4,1,0,90,0,0
134820,-80.801798270972,4,1,0,90,0,0
134907,-81.1337204096453,4,1,0,90,0,0
134993,-81.4670060366133,4,1,0,90,0,0
135079,-81.8016607528895,4,1,0,90,0,0
135165,-82.1376901824954,4,1,0,90,0,0
135252,-82.4750999725551,4,1,0,90,0,0
135338,-82.8138957933903,4,1,0,90,0,0
135424,-83.1540833386158,4,1,0,90,0,0
135510,-83.4956683252346,4,1,0,90,0,0
135596,-83.8386564937346,4,1,0,90,0,0
135683,-84.1830536081846,4,1,0,90,0,0
135769,-84.5288654563314,4,1,0,90,0,0
135855,-84.8760978496972,4,1,0,90,0,0
135941,-85.2247566236769,4,1,0,90,0,0
136027,-85.5748476376364,4,1,0,90,0,0
136114,-85.9263767750111,4,1,0,90,0,0
136200,-86.2793499434047,4,1,0,90,0,0
136286,-86.6337730746884,4,1,0,90,0,0
136372,-86.9896521251007,4,1,0,90,0,0
136458,-87.3469930753476,4,1,0,90,0,0
136545,-87.7058019307028,4,1,0,90,0,0
136631,-88.0660847211088,4,1,0,90,0,0
136717,-88.4278475012784,4,1,0,90,0,0
136803,-88.7910963507962,4,1,0,90,0,0
136889,-89.1558373742207,4,1,0,90,0,0
136976,-89.5220767011873,4,1,0,90,0,0
137062,-89.889820486511,4,1,0,90,0,0
137148,-90.2590749102898,4,1,0,90,0,0
137234,-90.6298461780087,4,1,0,90,0,0
137320,-91.0021405206438,4,1,0,90,0,0
137407,-91.3759641947675,4,1,0,90,0,0
137493,-91.751323482653,4,1,0,90,0,0
137579,-92.1282246923802,4,1,0,90,0,0
137665,-92.5066741579417,4,1,0,90,0,0
137752,-92.8866782393495,4,1,0,90,0,0
137838,-93.2682433227411,4,1,0,90,0,0
137924,-93.6513758204878,4,1,0,90,0,0
138010,-94.0360821713017,4,1,0,90,0,0
138096,-94.4223688403444,4,1,0,90,0,0
138183,-94.8102423193353,4,1,0,90,0,0
138269,-95.1997091266608,4,1,0,90,0,0
138355,-95.5907758074843,4,1,0,90,0,0
138441,-95.9834489338552,4,1,0,90,0,0
138527,-96.3777351048203,4,1,0,90,0,0
138614,-96.7736409465343,4,1,0,90,0,0
138700,-97.1711731123712,4,1,0,90,0,0
138786,-97.5703382830359,4,1,0,90,0,0
138872,-97.9711431666768,4,1,0,90,0,0
138958,-98.3735944989986,4,1,0,90,0,0
139045,-98.7776990433749,4,1,0,90,0,0
139131,-99.1834635909627,4,1,0,90,0,0
139217,-99.5908949608157,4,1,0,90,0,0
139303,-99.9999999999997,4,1,0,90,0,0
142062,-100,4,1,0,90,0,0
142148,-99.4060820831941,4,1,0,90,0,0
142234,-98.8156915513073,4,1,0,90,0,0
142321,-98.2288074545685,4,1,0,90,0,0
142407,-97.6454089676311,4,1,0,90,0,0
142493,-97.0654753888339,4,1,0,90,0,0
142579,-96.4889861394669,4,1,0,90,0,0
142665,-95.9159207630403,4,1,0,90,0,0
142752,-95.3462589245593,4,1,0,90,0,0
142838,-94.7799804098022,4,1,0,90,0,0
142924,-94.2170651246033,4,1,0,90,0,0
143010,-93.6574930941396,4,1,0,90,0,0
143096,-93.1012444622223,4,1,0,90,0,0
143183,-92.5482994905919,4,1,0,90,0,0
143269,-91.9986385582182,4,1,0,90,0,0
143355,-91.4522421606035,4,1,0,90,0,0
143441,-90.909090909091,4,1,0,90,0,0
144711,-142.857142857143,4,1,0,80,0,0
144823,-142.857142857143,4,1,0,80,0,1
144909,-142.857142857143,4,1,0,50,0,1
147581,-142.857142857143,4,1,0,50,0,0
150340,-142.857142857143,4,1,0,50,0,1
153099,-142.857142857143,4,1,0,50,0,0
155685,-117.647058823529,4,1,0,80,0,0
155857,-117.647058823529,4,1,0,80,0,1
156030,-117.647058823529,4,1,0,65,0,1
158616,-117.647058823529,4,1,0,65,0,0
161288,-117.647058823529,4,1,0,80,0,0
161375,-117.647058823529,4,1,0,80,0,1
161547,-117.647058823529,4,1,0,70,0,1
164133,-117.647058823529,4,1,0,70,0,0
166461,-117.647058823529,4,1,0,80,0,0
166806,-100,4,1,0,90,0,0
172407,-100,4,1,0,90,0,0
172493,-99.431865159866,4,1,0,90,0,0
172579,-98.8669580916978,4,1,0,90,0,0
172666,-98.3052604573982,4,1,0,90,0,0
172752,-97.7467540230553,4,1,0,90,0,0
172838,-97.1914206583502,4,1,0,90,0,0
172924,-96.639242335969,4,1,0,90,0,0
173010,-96.0902011310168,4,1,0,90,0,0
173097,-95.5442792204367,4,1,0,90,0,0
173183,-95.0014588824305,4,1,0,90,0,0
173269,-94.4617224958839,4,1,0,90,0,0
173355,-93.9250525397941,4,1,0,90,0,0
173441,-93.3914315927014,4,1,0,90,0,0
173528,-92.8608423321234,4,1,0,90,0,0
173614,-92.3332675339927,4,1,0,90,0,0
173700,-91.808690072098,4,1,0,90,0,0
173786,-91.2870929175277,4,1,0,90,0,0
173873,-90.7684591381178,4,1,0,90,0,0
173959,-90.2527718979014,4,1,0,90,0,0
174045,-89.7400144565627,4,1,0,90,0,0
174131,-89.2301701688938,4,1,0,90,0,0
174217,-88.7232224842534,4,1,0,90,0,0
174304,-88.2191549460308,4,1,0,90,0,0
174390,-87.7179511911106,4,1,0,90,0,0
174476,-87.2195949493422,4,1,0,90,0,0
174562,-86.7240700430113,4,1,0,90,0,0
174648,-86.2313603863147,4,1,0,90,0,0
174735,-85.7414499848386,4,1,0,90,0,0
174821,-85.2543229350387,4,1,0,90,0,0
174907,-84.7699634237244,4,1,0,90,0,0
174993,-84.2883557275454,4,1,0,90,0,0
175079,-83.8094842124811,4,1,0,90,0,0
175166,-76.9230769230769,4,1,0,90,0,0
175252,-77.3256992604974,4,1,0,90,0,0
175338,-77.7304289596235,4,1,0,90,0,0
175425,-78.1372770505769,4,1,0,90,0,0
175511,-78.546254621212,4,1,0,90,0,0
175597,-78.9573728174177,4,1,0,90,0,0
175683,-79.370642843422,4,1,0,90,0,0
175769,-79.7860759620963,4,1,0,90,0,0
175856,-80.2036834952634,4,1,0,90,0,0
175942,-80.6234768240051,4,1,0,90,0,0
176028,-81.0454673889731,4,1,0,90,0,0
176114,-81.4696666907003,4,1,0,90,0,0
176200,-81.8960862899147,4,1,0,90,0,0
176287,-82.3247378078539,4,1,0,90,0,0
176373,-82.7556329265823,4,1,0,90,0,0
176459,-83.1887833893092,4,1,0,90,0,0
176545,-83.624201000709,4,1,0,90,0,0
176632,-84.0618976272427,4,1,0,90,0,0
176718,-84.5018851974815,4,1,0,90,0,0
176804,-84.9441757024319,4,1,0,90,0,0
176890,-85.3887811958623,4,1,0,90,0,0
176976,-85.8357137946316,4,1,0,90,0,0
177063,-86.2849856790195,4,1,0,90,0,0
177149,-86.7366090930584,4,1,0,90,0,0
177235,-87.190596344867,4,1,0,90,0,0
177321,-87.6469598069859,4,1,0,90,0,0
177407,-88.1057119167146,4,1,0,90,0,0
177494,-88.5668651764506,4,1,0,90,0,0
177580,-89.0304321540301,4,1,0,90,0,0
177666,-89.4964254830704,4,1,0,90,0,0
177752,-89.9648578633144,4,1,0,90,0,0
177838,-90.4357420609765,4,1,0,100,0,0
177926,-90.9090909090909,4,1,0,100,0,1
186200,-76.9230769230769,4,1,0,100,0,1
186286,-77.3256992604974,4,1,0,100,0,1
186372,-77.7304289596235,4,1,0,100,0,1
186459,-78.1372770505769,4,1,0,100,0,1
186545,-78.546254621212,4,1,0,100,0,1
186631,-78.9573728174177,4,1,0,100,0,1
186717,-79.370642843422,4,1,0,100,0,1
186803,-79.7860759620963,4,1,0,100,0,1
186890,-80.2036834952634,4,1,0,100,0,1
186976,-80.6234768240051,4,1,0,100,0,1
187062,-81.0454673889731,4,1,0,100,0,1
187148,-81.4696666907003,4,1,0,100,0,1
187234,-81.8960862899147,4,1,0,100,0,1
187321,-82.3247378078539,4,1,0,100,0,1
187407,-82.7556329265823,4,1,0,100,0,1
187493,-83.1887833893092,4,1,0,100,0,1
187579,-83.624201000709,4,1,0,100,0,1
187666,-84.0618976272427,4,1,0,100,0,1
187752,-84.5018851974815,4,1,0,100,0,1
187838,-84.9441757024319,4,1,0,100,0,1
187924,-85.3887811958623,4,1,0,100,0,1
188010,-85.8357137946316,4,1,0,100,0,1
188097,-86.2849856790195,4,1,0,100,0,1
188183,-86.7366090930584,4,1,0,100,0,1
188269,-87.190596344867,4,1,0,100,0,1
188355,-87.6469598069859,4,1,0,100,0,1
188441,-88.1057119167146,4,1,0,100,0,1
188528,-88.5668651764506,4,1,0,100,0,1
188614,-89.0304321540301,4,1,0,100,0,1
188700,-89.4964254830704,4,1,0,100,0,1
188786,-89.9648578633144,4,1,0,100,0,1
188872,-90.4357420609765,4,1,0,100,0,1
188959,-90.9090909090908,4,1,0,100,0,1
194650,-100,4,1,0,100,0,1
199131,-100,4,1,0,100,0,1
199217,-99.0514258214522,4,1,0,100,0,1
199303,-98.1118495726264,4,1,0,100,0,1
199390,-97.1811859014848,4,1,0,100,0,1
199476,-96.2593502656168,4,1,0,100,0,1
199562,-95.3462589245593,4,1,0,100,0,1
199648,-94.4418289321895,4,1,0,100,0,1
199734,-93.5459781291905,4,1,0,100,0,1
199821,-92.658625135587,4,1,0,100,0,1
199907,-91.7796893433534,4,1,0,100,0,1
199993,-90.9090909090909,4,1,0,100,0,1
203961,-90.9090909090909,4,1,0,100,0,0
204047,-90.9090909090909,4,1,0,10,0,0
205340,-142.857142857143,4,1,0,90,0,0
206892,-100,4,1,0,90,0,0
216373,-100,4,1,0,90,0,0
216459,-99.4718983866167,4,1,0,90,0,0
216545,-98.9465856863741,4,1,0,90,0,0
216632,-98.4240471709767,4,1,0,90,0,0
216718,-97.9042681899097,4,1,0,90,0,0
216804,-97.3872341700277,4,1,0,90,0,0
216890,-96.8729306151464,4,1,0,90,0,0
216976,-96.3613431056362,4,1,0,90,0,0
217063,-95.8524572980175,4,1,0,90,0,0
217149,-95.3462589245592,4,1,0,90,0,0
217235,-94.8427337928781,4,1,0,90,0,0
217321,-94.3418677855411,4,1,0,90,0,0
217407,-93.8436468596697,4,1,0,90,0,0
217494,-93.3480570465461,4,1,0,90,0,0
217580,-92.8550844512214,4,1,0,90,0,0
217666,-92.3647152521261,4,1,0,90,0,0
217752,-91.8769357006828,4,1,0,90,0,0
217839,-91.3917321209204,4,1,0,90,0,0
217926,-90.9090909090909,4,1,0,90,0,1
228961,-90.9090909090909,4,1,0,90,0,0
229047,-111.111111111111,4,1,0,60,0,0
232323,-111.111111111111,4,1,0,50,0,0
233012,-100,4,1,0,50,0,0
234306,-76.9230769230769,4,1,0,50,0,0
235685,-55.5555555555556,4,1,0,50,0,0
236979,-33.3333333333333,4,1,0,50,0,0

[HitObjects]
256,192,1375,5,4,0:0:0:0:
256,192,1547,1,8,0:0:0:0:
256,192,1633,1,8,0:0:0:0:
256,192,1719,1,0,0:0:0:0:
256,192,1806,1,0,0:0:0:0:
256,192,1892,1,8,0:0:0:0:
256,192,1978,1,0,0:0:0:0:
256,192,2064,1,0,0:0:0:0:
256,192,2150,1,0,0:0:0:0:
256,192,2237,1,8,0:0:0:0:
256,192,2323,1,0,0:0:0:0:
256,192,2409,1,0,0:0:0:0:
256,192,2495,1,0,0:0:0:0:
256,192,2581,1,8,0:0:0:0:
256,192,2668,1,8,0:0:0:0:
256,192,2754,1,0,0:0:0:0:
256,192,2840,1,8,0:0:0:0:
256,192,2926,1,8,0:0:0:0:
256,192,3012,1,8,0:0:0:0:
256,192,3099,1,0,0:0:0:0:
256,192,3185,1,0,0:0:0:0:
256,192,3271,1,8,0:0:0:0:
256,192,3357,1,8,0:0:0:0:
256,192,3443,1,8,0:0:0:0:
256,192,3530,1,8,0:0:0:0:
256,192,3616,1,0,0:0:0:0:
256,192,3702,1,0,0:0:0:0:
256,192,3788,1,8,0:0:0:0:
256,192,3875,1,0,0:0:0:0:
256,192,3961,1,8,0:0:0:0:
256,192,4047,1,8,0:0:0:0:
256,192,4133,1,0,0:0:0:0:
256,192,4219,1,0,0:0:0:0:
256,192,4306,1,8,0:0:0:0:
256,192,4392,1,0,0:0:0:0:
256,192,4478,1,0,0:0:0:0:
256,192,4564,1,0,0:0:0:0:
256,192,4650,1,8,0:0:0:0:
256,192,4737,1,8,0:0:0:0:
256,192,4823,1,0,0:0:0:0:
256,192,4909,1,0,0:0:0:0:
256,192,4995,1,0,0:0:0:0:
256,192,5081,1,0,0:0:0:0:
256,192,5168,1,8,0:0:0:0:
256,192,5254,1,8,0:0:0:0:
256,192,5340,1,0,0:0:0:0:
256,192,5426,1,8,0:0:0:0:
256,192,5512,1,0,0:0:0:0:
256,192,5599,1,0,0:0:0:0:
256,192,5685,1,8,0:0:0:0:
256,192,5771,1,8,0:0:0:0:
256,192,5857,1,0,0:0:0:0:
256,192,5943,1,0,0:0:0:0:
256,192,6030,1,8,0:0:0:0:
256,192,6116,1,0,0:0:0:0:
256,192,6202,1,8,0:0:0:0:
256,192,6288,1,0,0:0:0:0:
256,192,6375,1,8,0:0:0:0:
256,192,6461,1,8,0:0:0:0:
256,192,6547,1,8,0:0:0:0:
256,192,6633,1,0,0:0:0:0:
256,192,6719,1,8,0:0:0:0:
256,192,6806,1,8,0:0:0:0:
256,192,6892,1,0,0:0:0:0:
256,192,7237,1,8,0:0:0:0:
256,192,7409,1,0,0:0:0:0:
256,192,7495,1,0,0:0:0:0:
256,192,7581,1,8,0:0:0:0:
256,192,7754,1,0,0:0:0:0:
256,192,7926,1,8,0:0:0:0:
256,192,8012,1,8,0:0:0:0:
256,192,8099,1,0,0:0:0:0:
256,192,8185,1,8,0:0:0:0:
256,192,8271,1,0,0:0:0:0:
256,192,8443,1,0,0:0:0:0:
256,192,8616,1,8,0:0:0:0:
256,192,8788,1,0,0:0:0:0:
256,192,8875,1,0,0:0:0:0:
256,192,8961,1,0,0:0:0:0:
256,192,9133,1,0,0:0:0:0:
256,192,9306,1,8,0:0:0:0:
256,192,9478,1,0,0:0:0:0:
256,192,9650,1,12,0:0:0:0:
256,192,9823,1,0,0:0:0:0:
256,192,9995,1,0,0:0:0:0:
256,192,10168,1,12,0:0:0:0:
256,192,10340,1,0,0:0:0:0:
256,192,10512,1,0,0:0:0:0:
256,192,10685,1,12,0:0:0:0:
256,192,10857,1,0,0:0:0:0:
256,192,11030,1,12,0:0:0:0:
256,192,11202,1,0,0:0:0:0:
256,192,11375,1,8,0:0:0:0:
256,192,11547,1,4,0:0:0:0:
256,192,11892,1,8,0:0:0:0:
256,192,11978,1,8,0:0:0:0:
256,192,12064,1,0,0:0:0:0:
256,192,12150,1,0,0:0:0:0:
256,192,12237,1,8,0:0:0:0:
256,192,12409,1,4,0:0:0:0:
256,192,12754,1,0,0:0:0:0:
256,192,13099,1,0,0:0:0:0:
256,192,13443,1,0,0:0:0:0:
256,192,13616,1,8,0:0:0:0:
256,192,13788,1,0,0:0:0:0:
256,192,13961,1,0,0:0:0:0:
256,192,14133,1,8,0:0:0:0:
256,192,14478,1,0,0:0:0:0:
256,192,14737,1,8,0:0:0:0:
256,192,14823,1,0,0:0:0:0:
256,192,14995,1,8,0:0:0:0:
256,192,15168,1,0,0:0:0:0:
256,192,15512,1,0,0:0:0:0:
256,192,15857,1,8,0:0:0:0:
256,192,16202,1,0,0:0:0:0:
256,192,16375,1,8,0:0:0:0:
256,192,16547,1,0,0:0:0:0:
256,192,16892,1,8,0:0:0:0:
256,192,17064,1,0,0:0:0:0:
256,192,17237,1,0,0:0:0:0:
256,192,17495,1,8,0:0:0:0:
256,192,17581,1,0,0:0:0:0:
256,192,17754,1,8,0:0:0:0:
256,192,17926,1,0,0:0:0:0:
256,192,18271,1,0,0:0:0:0:
256,192,18616,1,0,0:0:0:0:
256,192,18961,1,0,0:0:0:0:
256,192,19133,1,0,0:0:0:0:
256,192,19306,1,8,0:0:0:0:
256,192,19650,1,0,0:0:0:0:
256,192,19995,1,0,0:0:0:0:
256,192,20254,1,8,0:0:0:0:
256,192,20340,1,0,0:0:0:0:
256,192,20512,1,8,0:0:0:0:
256,192,20685,1,4,0:0:0:0:
256,192,21030,1,0,0:0:0:0:
256,192,21202,1,8,0:0:0:0:
256,192,21375,1,0,0:0:0:0:
256,192,21547,1,8,0:0:0:0:
256,192,21719,1,8,0:0:0:0:
256,192,21892,1,8,0:0:0:0:
256,192,22064,1,4,0:0:0:0:
256,192,22754,1,12,0:0:0:0:
256,192,22926,1,12,0:0:0:0:
256,192,23443,1,4,0:0:0:0:
256,192,23788,1,8,0:0:0:0:
256,192,23961,1,0,0:0:0:0:
256,192,24047,1,8,0:0:0:0:
256,192,24133,1,0,0:0:0:0:
256,192,24306,1,0,0:0:0:0:
256,192,24478,1,8,0:0:0:0:
256,192,24650,1,0,0:0:0:0:
256,192,24737,1,0,0:0:0:0:
256,192,24823,1,8,0:0:0:0:
256,192,24995,1,0,0:0:0:0:
256,192,25168,1,8,0:0:0:0:
256,192,25254,1,8,0:0:0:0:
256,192,25340,1,0,0:0:0:0:
256,192,25426,1,0,0:0:0:0:
256,192,25512,1,8,0:0:0:0:
256,192,25685,1,0,0:0:0:0:
256,192,25857,1,8,0:0:0:0:
256,192,25943,1,8,0:0:0:0:
256,192,26030,1,0,0:0:0:0:
256,192,26116,1,8,0:0:0:0:
256,192,26202,1,0,0:0:0:0:
256,192,26375,1,0,0:0:0:0:
256,192,26547,1,8,0:0:0:0:
256,192,26719,1,0,0:0:0:0:
256,192,26806,1,0,0:0:0:0:
256,192,26892,1,8,0:0:0:0:
256,192,27064,1,0,0:0:0:0:
256,192,27237,1,8,0:0:0:0:
256,192,27581,1,8,0:0:0:0:
256,192,27754,1,0,0:0:0:0:
256,192,27926,1,8,0:0:0:0:
256,192,28099,1,8,0:0:0:0:
256,192,28185,1,8,0:0:0:0:
256,192,28271,1,0,0:0:0:0:
256,192,28443,1,0,0:0:0:0:
256,192,28616,1,8,0:0:0:0:
256,192,28702,1,0,0:0:0:0:
256,192,28788,1,8,0:0:0:0:
256,192,28875,1,8,0:0:0:0:
256,192,28961,1,0,0:0:0:0:
256,192,29133,1,0,0:0:0:0:
256,192,29306,1,8,0:0:0:0:
256,192,29478,1,0,0:0:0:0:
256,192,29564,1,0,0:0:0:0:
256,192,29650,1,8,0:0:0:0:
256,192,29823,1,0,0:0:0:0:
256,192,29995,1,8,0:0:0:0:
256,192,30081,1,8,0:0:0:0:
256,192,30168,1,0,0:0:0:0:
256,192,30254,1,0,0:0:0:0:
256,192,30340,1,8,0:0:0:0:
256,192,30512,1,0,0:0:0:0:
256,192,30685,1,8,0:0:0:0:
256,192,30857,1,8,0:0:0:0:
256,192,31030,1,0,0:0:0:0:
256,192,31202,1,0,0:0:0:0:
256,192,31288,1,0,0:0:0:0:
256,192,31375,1,8,0:0:0:0:
256,192,31547,1,8,0:0:0:0:
256,192,31719,1,0,0:0:0:0:
256,192,31978,1,0,0:0:0:0:
256,192,32064,1,8,0:0:0:0:
256,192,32237,1,0,0:0:0:0:
256,192,32409,1,8,0:0:0:0:
256,192,32581,1,0,0:0:0:0:
256,192,32668,1,0,0:0:0:0:
256,192,32754,1,8,0:0:0:0:
256,192,32926,1,0,0:0:0:0:
256,192,33099,1,8,0:0:0:0:
256,192,33185,1,8,0:0:0:0:
256,192,33271,1,0,0:0:0:0:
256,192,33357,1,0,0:0:0:0:
256,192,33443,1,8,0:0:0:0:
256,192,33530,1,0,0:0:0:0:
256,192,33616,1,8,0:0:0:0:
256,192,33702,1,8,0:0:0:0:
256,192,33788,1,0,0:0:0:0:
256,192,33961,1,12,0:0:0:0:
256,192,34478,1,4,0:0:0:0:
256,192,34995,1,0,0:0:0:0:
256,192,35168,1,8,0:0:0:0:
256,192,35512,1,8,0:0:0:0:
256,192,35685,1,0,0:0:0:0:
256,192,36030,1,8,0:0:0:0:
256,192,36375,1,0,0:0:0:0:
256,192,36547,1,8,0:0:0:0:
256,192,36892,1,8,0:0:0:0:
256,192,37237,1,0,0:0:0:0:
256,192,37409,1,8,0:0:0:0:
256,192,37754,1,0,0:0:0:0:
256,192,37926,1,8,0:0:0:0:
256,192,38099,1,8,0:0:0:0:
256,192,38443,1,0,0:0:0:0:
256,192,38616,1,0,0:0:0:0:
256,192,38788,1,8,0:0:0:0:
256,192,39133,1,0,0:0:0:0:
256,192,39306,1,8,0:0:0:0:
256,192,39478,1,0,0:0:0:0:
256,192,39650,1,0,0:0:0:0:
256,192,39995,1,0,0:0:0:0:
256,192,40168,1,8,0:0:0:0:
256,192,40340,1,8,0:0:0:0:
256,192,40512,1,0,0:0:0:0:
256,192,40685,1,8,0:0:0:0:
256,192,41030,1,8,0:0:0:0:
256,192,41202,1,0,0:0:0:0:
256,192,41375,1,0,0:0:0:0:
256,192,41547,1,8,0:0:0:0:
256,192,41892,1,0,0:0:0:0:
256,192,42064,1,8,0:0:0:0:
256,192,42409,1,8,0:0:0:0:
256,192,42581,1,8,0:0:0:0:
256,192,42754,1,0,0:0:0:0:
256,192,42926,1,0,0:0:0:0:
256,192,43271,1,0,0:0:0:0:
256,192,43443,1,8,0:0:0:0:
256,192,43616,1,8,0:0:0:0:
256,192,43961,1,0,0:0:0:0:
256,192,44306,1,8,0:0:0:0:
256,192,44478,1,0,0:0:0:0:
256,192,44650,1,8,0:0:0:0:
256,192,44737,1,8,0:0:0:0:
256,192,44823,1,0,0:0:0:0:
256,192,44909,1,0,0:0:0:0:
256,192,45081,1,0,0:0:0:0:
256,192,45168,1,8,0:0:0:0:
256,192,45254,1,8,0:0:0:0:
256,192,45340,1,8,0:0:0:0:
256,192,45512,1,4,0:0:0:0:
256,192,45857,1,8,0:0:0:0:
256,192,46030,1,4,0:0:0:0:
256,192,46375,1,8,0:0:0:0:
256,192,46547,1,4,0:0:0:0:
256,192,46719,1,0,0:0:0:0:
256,192,46892,1,8,0:0:0:0:
256,192,47064,1,4,0:0:0:0:
256,192,47409,1,8,0:0:0:0:
256,192,47581,1,4,0:0:0:0:
256,192,47926,1,4,0:0:0:0:
256,192,48271,1,12,0:0:0:0:
256,192,48616,1,0,0:0:0:0:
256,192,48788,1,12,0:0:0:0:
256,192,48961,1,0,0:0:0:0:
256,192,49133,1,0,0:0:0:0:
256,192,49306,1,12,0:0:0:0:
256,192,49650,1,12,0:0:0:0:
256,192,49823,1,8,0:0:0:0:
256,192,49995,1,0,0:0:0:0:
256,192,50168,1,12,0:0:0:0:
256,192,50512,1,8,0:0:0:0:
256,192,50599,1,8,0:0:0:0:
256,192,50685,1,0,0:0:0:0:
256,192,50771,1,8,0:0:0:0:
256,192,50857,1,8,0:0:0:0:
256,192,50943,1,8,0:0:0:0:
256,192,51030,1,0,0:0:0:0:
256,192,51375,1,8,0:0:0:0:
256,192,51547,1,0,0:0:0:0:
256,192,51719,1,8,0:0:0:0:
256,192,51892,1,8,0:0:0:0:
256,192,52064,1,8,0:0:0:0:
256,192,52237,1,0,0:0:0:0:
256,192,52581,1,8,0:0:0:0:
256,192,52754,1,0,0:0:0:0:
256,192,52926,1,0,0:0:0:0:
256,192,53012,1,0,0:0:0:0:
256,192,53099,1,8,0:0:0:0:
256,192,53185,1,8,0:0:0:0:
256,192,53271,1,0,0:0:0:0:
256,192,53443,1,8,0:0:0:0:
256,192,53788,1,4,0:0:0:0:
256,192,53961,1,8,0:0:0:0:
256,192,54133,1,0,0:0:0:0:
256,192,54306,1,12,0:0:0:0:
256,192,54650,1,8,0:0:0:0:
256,192,54737,1,8,0:0:0:0:
256,192,54823,1,8,0:0:0:0:
256,192,54995,1,4,0:0:0:0:
256,192,55340,1,0,0:0:0:0:
256,192,55512,1,12,0:0:0:0:
256,192,56030,1,8,0:0:0:0:
256,192,56116,1,8,0:0:0:0:
256,192,56202,1,8,0:0:0:0:
256,192,56288,1,8,0:0:0:0:
256,192,56375,1,8,0:0:0:0:
256,192,56547,1,4,0:0:0:0:
256,192,56719,1,0,0:0:0:0:
256,192,56892,1,8,0:0:0:0:
256,192,57064,1,8,0:0:0:0:
256,192,57150,1,8,0:0:0:0:
256,192,57237,1,0,0:0:0:0:
256,192,57409,1,0,0:0:0:0:
256,192,57581,1,8,0:0:0:0:
256,192,57668,1,0,0:0:0:0:
256,192,57754,1,8,0:0:0:0:
256,192,57840,1,8,0:0:0:0:
256,192,57926,1,0,0:0:0:0:
256,192,58099,1,0,0:0:0:0:
256,192,58185,1,0,0:0:0:0:
256,192,58271,1,8,0:0:0:0:
256,192,58443,1,8,0:0:0:0:
256,192,58616,1,0,0:0:0:0:
256,192,58702,1,8,0:0:0:0:
256,192,58788,1,0,0:0:0:0:
256,192,58875,1,0,0:0:0:0:
256,192,58961,1,8,0:0:0:0:
256,192,59133,1,8,0:0:0:0:
256,192,59219,1,8,0:0:0:0:
256,192,59306,1,0,0:0:0:0:
256,192,59478,1,0,0:0:0:0:
256,192,59564,1,0,0:0:0:0:
256,192,59650,1,8,0:0:0:0:
256,192,59737,1,0,0:0:0:0:
256,192,59823,1,8,0:0:0:0:
256,192,59909,1,8,0:0:0:0:
256,192,59995,1,0,0:0:0:0:
256,192,60168,1,0,0:0:0:0:
256,192,60340,1,8,0:0:0:0:
256,192,60512,1,0,0:0:0:0:
256,192,60599,1,8,0:0:0:0:
256,192,60771,1,8,0:0:0:0:
256,192,60857,1,0,0:0:0:0:
256,192,60943,1,0,0:0:0:0:
256,192,61030,1,8,0:0:0:0:
256,192,61202,1,0,0:0:0:0:
256,192,61288,1,8,0:0:0:0:
256,192,61375,1,0,0:0:0:0:
256,192,61547,1,0,0:0:0:0:
256,192,61719,1,8,0:0:0:0:
256,192,61806,1,8,0:0:0:0:
256,192,61892,1,8,0:0:0:0:
256,192,61978,1,8,0:0:0:0:
256,192,62064,1,0,0:0:0:0:
256,192,62237,1,0,0:0:0:0:
256,192,62409,1,8,0:0:0:0:
256,192,62495,1,8,0:0:0:0:
256,192,62581,1,0,0:0:0:0:
256,192,62668,1,8,0:0:0:0:
256,192,62754,1,0,0:0:0:0:
256,192,62926,1,0,0:0:0:0:
256,192,63012,1,0,0:0:0:0:
256,192,63099,1,8,0:0:0:0:
256,192,63271,1,0,0:0:0:0:
256,192,63443,1,8,0:0:0:0:
256,192,63530,1,8,0:0:0:0:
256,192,63616,1,0,0:0:0:0:
256,192,63702,1,0,0:0:0:0:
256,192,63788,1,8,0:0:0:0:
256,192,63961,1,8,0:0:0:0:
256,192,64047,1,8,0:0:0:0:
256,192,64133,1,0,0:0:0:0:
256,192,64219,1,8,0:0:0:0:
256,192,64306,1,0,0:0:0:0:
256,192,64392,1,0,0:0:0:0:
256,192,64478,1,8,0:0:0:0:
256,192,64650,1,8,0:0:0:0:
256,192,64823,1,4,0:0:0:0:
256,192,65168,1,8,0:0:0:0:
256,192,65340,1,4,0:0:0:0:
256,192,65685,1,0,0:0:0:0:
256,192,65771,1,8,0:0:0:0:
256,192,65857,1,8,0:0:0:0:
256,192,66030,1,4,0:0:0:0:
256,192,66375,1,8,0:0:0:0:
256,192,66547,1,8,0:0:0:0:
256,192,66719,1,4,0:0:0:0:
256,192,67064,1,8,0:0:0:0:
256,192,67150,1,8,0:0:0:0:
256,192,67237,1,8,0:0:0:0:
256,192,67409,1,8,0:0:0:0:
256,192,67581,1,4,0:0:0:0:
256,192,67754,1,0,0:0:0:0:
256,192,67926,1,8,0:0:0:0:
256,192,68012,1,0,0:0:0:0:
256,192,68099,1,8,0:0:0:0:
256,192,68185,1,8,0:0:0:0:
256,192,68271,1,0,0:0:0:0:
256,192,68443,1,0,0:0:0:0:
256,192,68530,1,0,0:0:0:0:
256,192,68616,1,8,0:0:0:0:
256,192,68788,1,0,0:0:0:0:
256,192,68961,1,8,0:0:0:0:
256,192,69047,1,8,0:0:0:0:
256,192,69133,1,0,0:0:0:0:
256,192,69219,1,0,0:0:0:0:
256,192,69306,1,8,0:0:0:0:
256,192,69478,1,0,0:0:0:0:
256,192,69650,1,8,0:0:0:0:
256,192,69737,1,0,0:0:0:0:
256,192,69909,1,0,0:0:0:0:
256,192,69995,1,8,0:0:0:0:
256,192,70168,1,8,0:0:0:0:
256,192,70254,1,8,0:0:0:0:
256,192,70340,1,0,0:0:0:0:
256,192,70512,1,0,0:0:0:0:
256,192,70685,1,8,0:0:0:0:
256,192,70857,1,0,0:0:0:0:
256,192,70943,1,0,0:0:0:0:
256,192,71030,1,0,0:0:0:0:
256,192,71202,1,0,0:0:0:0:
256,192,71375,1,8,0:0:0:0:
256,192,71547,1,0,0:0:0:0:
256,192,71719,1,8,0:0:0:0:
256,192,71806,1,8,0:0:0:0:
256,192,71892,1,0,0:0:0:0:
256,192,71978,1,0,0:0:0:0:
256,192,72150,1,0,0:0:0:0:
256,192,72237,1,8,0:0:0:0:
256,192,72323,1,8,0:0:0:0:
256,192,72409,1,0,0:0:0:0:
256,192,72495,1,0,0:0:0:0:
256,192,72581,1,8,0:0:0:0:
256,192,72668,1,0,0:0:0:0:
256,192,72754,1,8,0:0:0:0:
256,192,72926,1,8,0:0:0:0:
256,192,73099,1,4,0:0:0:0:
256,192,73616,1,0,0:0:0:0:
256,192,73788,1,8,0:0:0:0:
256,192,73875,1,8,0:0:0:0:
256,192,73961,1,8,0:0:0:0:
256,192,74133,1,0,0:0:0:0:
256,192,74219,1,8,0:0:0:0:
256,192,74306,1,8,0:0:0:0:
256,192,74392,1,8,0:0:0:0:
256,192,74478,1,0,0:0:0:0:
256,192,74650,1,8,0:0:0:0:
256,192,74823,1,0,0:0:0:0:
256,192,74995,1,0,0:0:0:0:
256,192,75168,1,12,0:0:0:0:
256,192,75426,1,12,0:0:0:0:
256,192,75685,1,12,0:0:0:0:
256,192,75857,1,4,0:0:0:0:
256,192,76202,1,0,0:0:0:0:
256,192,76375,1,8,0:0:0:0:
256,192,76547,1,0,0:0:0:0:
256,192,76719,1,0,0:0:0:0:
256,192,76806,1,0,0:0:0:0:
256,192,76892,1,8,0:0:0:0:
256,192,77064,1,8,0:0:0:0:
256,192,77237,1,0,0:0:0:0:
256,192,77495,1,8,0:0:0:0:
256,192,77581,1,8,0:0:0:0:
256,192,77754,1,4,0:0:0:0:
256,192,78099,1,0,0:0:0:0:
256,192,78271,1,8,0:0:0:0:
256,192,78357,1,8,0:0:0:0:
256,192,78443,1,8,0:0:0:0:
256,192,78616,1,4,0:0:0:0:
256,192,78788,1,8,0:0:0:0:
256,192,78875,1,8,0:0:0:0:
256,192,78961,1,0,0:0:0:0:
256,192,79047,1,0,0:0:0:0:
256,192,79133,1,8,0:0:0:0:
256,192,79219,1,0,0:0:0:0:
256,192,79306,1,0,0:0:0:0:
256,192,79392,1,0,0:0:0:0:
256,192,79478,1,8,0:0:0:0:
256,192,79564,1,8,0:0:0:0:
256,192,79650,1,0,0:0:0:0:
256,192,79737,1,0,0:0:0:0:
256,192,79823,1,8,0:0:0:0:
256,192,79909,1,0,0:0:0:0:
256,192,79995,1,8,0:0:0:0:
256,192,80081,1,8,0:0:0:0:
256,192,80168,1,0,0:0:0:0:
256,192,80254,1,0,0:0:0:0:
256,192,80340,1,0,0:0:0:0:
256,192,80426,1,0,0:0:0:0:
256,192,80512,1,8,0:0:0:0:
256,192,80599,1,8,0:0:0:0:
256,192,80685,1,0,0:0:0:0:
256,192,80771,1,8,0:0:0:0:
256,192,80857,1,0,0:0:0:0:
256,192,80943,1,0,0:0:0:0:
256,192,81030,1,8,0:0:0:0:
256,192,81116,1,8,0:0:0:0:
256,192,81202,1,8,0:0:0:0:
256,192,81288,1,8,0:0:0:0:
256,192,81375,1,0,0:0:0:0:
256,192,81461,1,0,0:0:0:0:
256,192,81547,1,8,0:0:0:0:
256,192,81633,1,0,0:0:0:0:
256,192,81719,1,0,0:0:0:0:
256,192,81806,1,0,0:0:0:0:
256,192,81892,1,8,0:0:0:0:
256,192,81978,1,8,0:0:0:0:
256,192,82064,1,0,0:0:0:0:
256,192,82150,1,8,0:0:0:0:
256,192,82237,1,0,0:0:0:0:
256,192,82323,1,0,0:0:0:0:
256,192,82409,1,8,0:0:0:0:
256,192,82495,1,8,0:0:0:0:
256,192,82581,1,0,0:0:0:0:
256,192,82668,1,0,0:0:0:0:
256,192,82754,1,8,0:0:0:0:
256,192,82840,1,8,0:0:0:0:
256,192,82926,1,8,0:0:0:0:
256,192,83012,1,8,0:0:0:0:
256,192,83099,1,0,0:0:0:0:
256,192,83185,1,0,0:0:0:0:
256,192,83271,1,8,0:0:0:0:
256,192,83357,1,0,0:0:0:0:
256,192,83443,1,0,0:0:0:0:
256,192,83530,1,0,0:0:0:0:
256,192,83616,1,8,0:0:0:0:
256,192,83702,1,8,0:0:0:0:
256,192,83788,1,0,0:0:0:0:
256,192,83875,1,8,0:0:0:0:
256,192,83961,1,8,0:0:0:0:
256,192,84047,1,8,0:0:0:0:
256,192,84133,1,0,0:0:0:0:
256,192,84478,1,8,0:0:0:0:
256,192,84650,1,0,0:0:0:0:
256,192,84737,1,0,0:0:0:0:
256,192,84823,1,8,0:0:0:0:
256,192,84995,1,0,0:0:0:0:
256,192,85168,1,8,0:0:0:0:
256,192,85340,1,4,0:0:0:0:
256,192,85685,1,0,0:0:0:0:
256,192,85857,1,8,0:0:0:0:
256,192,86030,1,0,0:0:0:0:
256,192,86116,1,0,0:0:0:0:
256,192,86202,1,8,0:0:0:0:
256,192,86288,1,0,0:0:0:0:
256,192,86375,1,0,0:0:0:0:
256,192,86461,1,0,0:0:0:0:
256,192,86547,1,8,0:0:0:0:
256,192,86633,1,8,0:0:0:0:
256,192,86719,1,0,0:0:0:0:
256,192,86892,1,12,0:0:0:0:
256,192,87064,1,0,0:0:0:0:
256,192,87237,1,0,0:0:0:0:
256,192,87409,1,12,0:0:0:0:
256,192,87581,1,0,0:0:0:0:
256,192,87754,1,0,0:0:0:0:
256,192,87926,1,12,0:0:0:0:
256,192,88099,1,0,0:0:0:0:
256,192,88271,1,12,0:0:0:0:
256,192,88443,1,0,0:0:0:0:
256,192,88530,1,0,0:0:0:0:
256,192,88616,1,8,0:0:0:0:
256,192,88788,1,4,0:0:0:0:
256,192,89133,1,0,0:0:0:0:
256,192,89306,1,8,0:0:0:0:
256,192,89478,1,8,0:0:0:0:
256,192,89650,1,4,0:0:0:0:
256,192,89823,1,8,0:0:0:0:
256,192,90168,1,8,0:0:0:0:
256,192,90340,1,8,0:0:0:0:
256,192,90512,1,8,0:0:0:0:
256,192,90857,1,8,0:0:0:0:
256,192,91030,1,8,0:0:0:0:
256,192,91202,1,8,0:0:0:0:
256,192,91547,1,8,0:0:0:0:
256,192,91719,1,8,0:0:0:0:
256,192,91892,1,8,0:0:0:0:
256,192,92237,1,8,0:0:0:0:
256,192,92409,1,8,0:0:0:0:
256,192,92581,1,8,0:0:0:0:
256,192,92754,1,8,0:0:0:0:
256,192,92926,1,8,0:0:0:0:
256,192,93099,1,8,0:0:0:0:
256,192,93271,1,8,0:0:0:0:
256,192,93616,1,8,0:0:0:0:
256,192,93788,1,8,0:0:0:0:
256,192,93961,1,8,0:0:0:0:
256,192,94133,1,8,0:0:0:0:
256,192,94306,1,8,0:0:0:0:
256,192,94478,1,8,0:0:0:0:
256,192,94650,1,0,0:0:0:0:
256,192,94737,1,0,0:0:0:0:
256,192,94823,1,8,0:0:0:0:
256,192,95168,1,4,0:0:0:0:
256,192,95685,1,0,0:0:0:0:
256,192,95857,1,8,0:0:0:0:
256,192,96202,1,0,0:0:0:0:
256,192,96375,1,0,0:0:0:0:
256,192,96547,1,8,0:0:0:0:
256,192,96719,1,8,0:0:0:0:
256,192,96806,1,8,0:0:0:0:
256,192,96892,1,0,0:0:0:0:
256,192,97064,1,0,0:0:0:0:
256,192,97237,1,8,0:0:0:0:
256,192,97754,1,8,0:0:0:0:
256,192,97926,1,0,0:0:0:0:
256,192,98099,1,0,0:0:0:0:
256,192,98443,1,0,0:0:0:0:
256,192,98616,1,8,0:0:0:0:
256,192,98961,1,0,0:0:0:0:
256,192,99133,1,0,0:0:0:0:
256,192,99219,1,0,0:0:0:0:
256,192,99306,1,8,0:0:0:0:
256,192,99478,1,0,0:0:0:0:
256,192,99650,1,12,0:0:0:0:
256,192,99995,1,0,0:0:0:0:
256,192,100168,1,0,0:0:0:0:
256,192,100340,1,0,0:0:0:0:
256,192,100685,1,4,0:0:0:0:
256,192,100857,1,8,0:0:0:0:
256,192,100943,1,8,0:0:0:0:
256,192,101030,1,0,0:0:0:0:
256,192,101116,1,8,0:0:0:0:
256,192,101202,1,0,0:0:0:0:
256,192,101288,1,0,0:0:0:0:
256,192,101375,1,8,0:0:0:0:
256,192,101461,1,0,0:0:0:0:
256,192,101547,1,0,0:0:0:0:
256,192,101633,1,0,0:0:0:0:
256,192,101719,1,8,0:0:0:0:
256,192,101806,1,8,0:0:0:0:
256,192,101892,1,8,0:0:0:0:
256,192,101978,1,8,0:0:0:0:
256,192,102064,1,0,0:0:0:0:
256,192,102150,1,0,0:0:0:0:
256,192,102237,1,8,0:0:0:0:
256,192,102323,1,8,0:0:0:0:
256,192,102409,1,0,0:0:0:0:
256,192,102495,1,8,0:0:0:0:
256,192,102581,1,8,0:0:0:0:
256,192,102668,1,8,0:0:0:0:
256,192,102754,1,0,0:0:0:0:
256,192,102840,1,0,0:0:0:0:
256,192,102926,1,8,0:0:0:0:
256,192,103012,1,0,0:0:0:0:
256,192,103099,1,8,0:0:0:0:
256,192,103185,1,8,0:0:0:0:
256,192,103271,1,0,0:0:0:0:
256,192,103357,1,0,0:0:0:0:
256,192,103443,1,8,0:0:0:0:
256,192,103530,1,0,0:0:0:0:
256,192,103616,1,0,0:0:0:0:
256,192,103702,1,0,0:0:0:0:
256,192,103788,1,8,0:0:0:0:
256,192,103875,1,8,0:0:0:0:
256,192,103961,1,0,0:0:0:0:
256,192,104047,1,8,0:0:0:0:
256,192,104133,1,0,0:0:0:0:
256,192,104219,1,0,0:0:0:0:
256,192,104306,1,8,0:0:0:0:
256,192,104392,1,8,0:0:0:0:
256,192,104478,1,0,0:0:0:0:
256,192,104564,1,0,0:0:0:0:
256,192,104650,1,0,0:0:0:0:
256,192,104737,1,0,0:0:0:0:
256,192,104823,1,8,0:0:0:0:
256,192,104909,1,8,0:0:0:0:
256,192,104995,1,0,0:0:0:0:
256,192,105081,1,0,0:0:0:0:
256,192,105168,1,8,0:0:0:0:
256,192,105254,1,8,0:0:0:0:
256,192,105340,1,8,0:0:0:0:
256,192,105426,1,8,0:0:0:0:
256,192,105512,1,0,0:0:0:0:
256,192,105599,1,0,0:0:0:0:
256,192,105685,1,8,0:0:0:0:
256,192,105771,1,0,0:0:0:0:
256,192,105857,1,8,0:0:0:0:
256,192,105943,1,8,0:0:0:0:
256,192,106030,1,0,0:0:0:0:
256,192,106116,1,8,0:0:0:0:
256,192,106202,1,0,0:0:0:0:
256,192,106547,1,0,0:0:0:0:
256,192,106719,1,8,0:0:0:0:
256,192,106806,1,8,0:0:0:0:
256,192,106892,1,0,0:0:0:0:
256,192,107064,1,0,0:0:0:0:
256,192,107237,1,8,0:0:0:0:
256,192,107581,1,12,0:0:0:0:
256,192,107754,1,0,0:0:0:0:
256,192,107926,1,0,0:0:0:0:
256,192,108099,1,12,0:0:0:0:
256,192,108271,1,0,0:0:0:0:
256,192,108443,1,0,0:0:0:0:
256,192,108616,1,12,0:0:0:0:
256,192,108788,1,8,0:0:0:0:
256,192,108961,1,4,0:0:0:0:
256,192,109306,1,0,0:0:0:0:
256,192,109478,1,0,0:0:0:0:
256,192,109650,1,8,0:0:0:0:
256,192,109995,1,0,0:0:0:0:
256,192,110168,1,8,0:0:0:0:
256,192,110340,1,0,0:0:0:0:
256,192,110512,1,0,0:0:0:0:
256,192,110685,1,12,0:0:0:0:
256,192,111030,1,0,0:0:0:0:
256,192,111116,1,0,0:0:0:0:
256,192,111202,1,0,0:0:0:0:
256,192,111288,1,0,0:0:0:0:
256,192,111375,1,8,0:0:0:0:
256,192,111547,1,8,0:0:0:0:
256,192,111719,1,4,0:0:0:0:
256,192,112064,1,8,0:0:0:0:
256,192,112237,1,0,0:0:0:0:
256,192,112323,1,0,0:0:0:0:
256,192,112409,1,8,0:0:0:0:
256,192,112495,1,0,0:0:0:0:
256,192,112581,1,0,0:0:0:0:
256,192,112754,1,8,0:0:0:0:
256,192,112926,1,8,0:0:0:0:
256,192,113012,1,8,0:0:0:0:
256,192,113099,1,0,0:0:0:0:
256,192,113271,1,0,0:0:0:0:
256,192,113443,1,8,0:0:0:0:
256,192,113616,1,0,0:0:0:0:
256,192,113702,1,0,0:0:0:0:
256,192,113788,1,8,0:0:0:0:
256,192,113875,1,0,0:0:0:0:
256,192,113961,1,0,0:0:0:0:
256,192,114047,1,0,0:0:0:0:
256,192,114133,1,8,0:0:0:0:
256,192,114306,1,8,0:0:0:0:
256,192,114478,1,0,0:0:0:0:
256,192,114650,1,8,0:0:0:0:
256,192,114737,1,0,0:0:0:0:
256,192,114823,1,8,0:0:0:0:
256,192,114995,1,0,0:0:0:0:
256,192,115081,1,0,0:0:0:0:
256,192,115168,1,8,0:0:0:0:
256,192,115283,1,0,0:0:0:0:
256,192,115397,1,0,0:0:0:0:
256,192,115512,1,8,0:0:0:0:
256,192,115627,1,8,0:0:0:0:
256,192,115742,1,8,0:0:0:0:
256,192,115857,1,0,0:0:0:0:
256,192,116030,1,0,0:0:0:0:
256,192,116202,1,8,0:0:0:0:
256,192,116375,1,4,0:0:0:0:
256,192,116719,1,8,0:0:0:0:
256,192,116806,1,0,0:0:0:0:
256,192,116892,1,8,0:0:0:0:
256,192,116978,1,8,0:0:0:0:
256,192,117064,1,8,0:0:0:0:
256,192,117237,1,4,0:0:0:0:
256,192,117581,1,8,0:0:0:0:
256,192,117754,1,8,0:0:0:0:
256,192,117926,1,0,0:0:0:0:
256,192,118012,1,8,0:0:0:0:
256,192,118099,1,0,0:0:0:0:
256,192,118185,1,0,0:0:0:0:
256,192,118271,1,8,0:0:0:0:
256,192,118443,1,8,0:0:0:0:
256,192,118616,1,0,0:0:0:0:
256,192,118788,1,0,0:0:0:0:
256,192,118875,1,0,0:0:0:0:
256,192,118961,1,8,0:0:0:0:
256,192,119133,1,0,0:0:0:0:
256,192,119219,1,8,0:0:0:0:
256,192,119306,1,8,0:0:0:0:
256,192,119392,1,8,0:0:0:0:
256,192,119478,1,0,0:0:0:0:
256,192,119564,1,0,0:0:0:0:
256,192,119650,1,8,0:0:0:0:
256,192,119823,1,0,0:0:0:0:
256,192,119995,1,12,0:0:0:0:
256,192,120168,1,0,0:0:0:0:
256,192,120254,1,0,0:0:0:0:
256,192,120340,1,0,0:0:0:0:
256,192,120512,1,12,0:0:0:0:
256,192,120685,1,0,0:0:0:0:
256,192,120857,1,0,0:0:0:0:
256,192,120943,1,0,0:0:0:0:
256,192,121030,1,8,0:0:0:0:
256,192,121202,1,0,0:0:0:0:
256,192,121375,1,12,0:0:0:0:
256,192,121547,1,0,0:0:0:0:
256,192,121633,1,8,0:0:0:0:
256,192,121719,1,0,0:0:0:0:
256,192,121892,1,12,0:0:0:0:
256,192,122237,1,0,0:0:0:0:
256,192,122409,1,0,0:0:0:0:
256,192,122754,1,4,0:0:0:0:
256,192,123271,1,0,0:0:0:0:
256,192,123443,1,8,0:0:0:0:
256,192,123616,1,0,0:0:0:0:
256,192,123702,1,0,0:0:0:0:
256,192,123788,1,0,0:0:0:0:
256,192,123961,1,8,0:0:0:0:
256,192,124306,1,8,0:0:0:0:
256,192,124478,1,0,0:0:0:0:
256,192,124650,1,0,0:0:0:0:
256,192,124737,1,0,0:0:0:0:
256,192,124823,1,8,0:0:0:0:
256,192,124995,1,8,0:0:0:0:
256,192,125168,1,0,0:0:0:0:
256,192,125340,1,8,0:0:0:0:
256,192,125426,1,8,0:0:0:0:
256,192,125512,1,0,0:0:0:0:
256,192,125857,1,8,0:0:0:0:
256,192,126030,1,0,0:0:0:0:
256,192,126202,1,8,0:0:0:0:
256,192,126375,1,8,0:0:0:0:
256,192,126461,1,8,0:0:0:0:
256,192,126547,1,0,0:0:0:0:
256,192,126719,1,0,0:0:0:0:
256,192,127064,1,8,0:0:0:0:
256,192,127409,1,0,0:0:0:0:
256,192,127581,1,8,0:0:0:0:
256,192,127754,1,8,0:0:0:0:
256,192,127926,1,8,0:0:0:0:
256,192,128099,1,8,0:0:0:0:
256,192,128271,1,4,0:0:0:0:
256,192,128788,1,0,0:0:0:0:
256,192,128875,1,0,0:0:0:0:
256,192,128961,1,8,0:0:0:0:
256,192,129133,1,8,0:0:0:0:
256,192,129306,1,0,0:0:0:0:
256,192,129478,1,8,0:0:0:0:
256,192,129823,1,8,0:0:0:0:
256,192,129995,1,0,0:0:0:0:
256,192,130081,1,8,0:0:0:0:
256,192,130168,1,0,0:0:0:0:
256,192,130340,1,8,0:0:0:0:
256,192,130512,1,0,0:0:0:0:
256,192,130685,1,0,0:0:0:0:
256,192,130857,1,8,0:0:0:0:
256,192,130943,1,8,0:0:0:0:
256,192,131030,1,0,0:0:0:0:
256,192,131202,1,8,0:0:0:0:
256,192,131547,1,0,0:0:0:0:
256,192,131719,1,8,0:0:0:0:
256,192,131806,1,8,0:0:0:0:
256,192,131892,1,8,0:0:0:0:
256,192,132064,1,0,0:0:0:0:
256,192,132237,1,8,0:0:0:0:
256,192,132409,1,0,0:0:0:0:
256,192,132581,1,0,0:0:0:0:
256,192,132668,1,0,0:0:0:0:
256,192,132754,1,8,0:0:0:0:
256,192,133012,1,0,0:0:0:0:
256,192,133099,1,8,0:0:0:0:
256,192,133271,1,8,0:0:0:0:
256,192,133443,1,8,0:0:0:0:
256,192,133616,1,8,0:0:0:0:
256,192,133788,1,4,0:0:0:0:
256,192,134133,1,0,0:0:0:0:
256,192,134306,1,12,0:0:0:0:
256,192,134650,1,0,0:0:0:0:
256,192,134823,1,12,0:0:0:0:
256,192,134995,1,8,0:0:0:0:
256,192,135168,1,4,0:0:0:0:
256,192,135512,1,0,0:0:0:0:
256,192,135685,1,12,0:0:0:0:
256,192,135857,1,0,0:0:0:0:
256,192,136030,1,0,0:0:0:0:
256,192,136202,1,12,0:0:0:0:
256,192,136547,1,4,0:0:0:0:
256,192,136892,1,0,0:0:0:0:
256,192,137064,1,12,0:0:0:0:
256,192,137237,1,8,0:0:0:0:
256,192,137409,1,0,0:0:0:0:
256,192,137581,1,12,0:0:0:0:
256,192,137926,1,4,0:0:0:0:
256,192,138099,1,0,0:0:0:0:
256,192,138271,1,0,0:0:0:0:
256,192,138443,1,12,0:0:0:0:
256,192,138788,1,8,0:0:0:0:
256,192,138875,1,8,0:0:0:0:
256,192,138961,1,0,0:0:0:0:
256,192,139047,1,0,0:0:0:0:
256,192,139133,1,8,0:0:0:0:
256,192,139219,1,8,0:0:0:0:
256,192,139306,1,0,0:0:0:0:
256,192,139478,1,8,0:0:0:0:
256,192,139650,1,0,0:0:0:0:
256,192,139823,1,0,0:0:0:0:
256,192,139909,1,0,0:0:0:0:
256,192,139995,1,8,0:0:0:0:
256,192,140168,1,8,0:0:0:0:
256,192,140340,1,0,0:0:0:0:
256,192,140512,1,8,0:0:0:0:
256,192,140599,1,8,0:0:0:0:
256,192,140685,1,0,0:0:0:0:
256,192,140857,1,0,0:0:0:0:
256,192,140943,1,0,0:0:0:0:
256,192,141030,1,8,0:0:0:0:
256,192,141116,1,0,0:0:0:0:
256,192,141202,1,0,0:0:0:0:
256,192,141288,1,0,0:0:0:0:
256,192,141375,1,8,0:0:0:0:
256,192,141461,1,8,0:0:0:0:
256,192,141547,1,0,0:0:0:0:
256,192,141719,1,12,0:0:0:0:
256,192,142064,1,0,0:0:0:0:
256,192,142150,1,0,0:0:0:0:
256,192,142237,1,8,0:0:0:0:
256,192,142323,1,8,0:0:0:0:
256,192,142409,1,0,0:0:0:0:
256,192,142495,1,8,0:0:0:0:
256,192,142581,1,0,0:0:0:0:
256,192,142668,1,0,0:0:0:0:
256,192,142754,1,8,0:0:0:0:
256,192,142840,1,0,0:0:0:0:
256,192,142926,1,8,0:0:0:0:
256,192,143012,1,8,0:0:0:0:
256,192,143099,1,0,0:0:0:0:
256,192,143185,1,0,0:0:0:0:
256,192,143271,1,8,0:0:0:0:
256,192,143357,1,8,0:0:0:0:
256,192,143443,1,0,0:0:0:0:
256,192,144823,1,4,0:0:0:0:
256,192,146202,1,8,0:0:0:0:
256,192,147581,1,8,0:0:0:0:
256,192,148961,1,8,0:0:0:0:
256,192,149650,1,8,0:0:0:0:
256,192,150340,1,0,0:0:0:0:
256,192,151719,1,8,0:0:0:0:
256,192,153099,1,8,0:0:0:0:
256,192,154478,1,8,0:0:0:0:
256,192,155857,1,4,0:0:0:0:
256,192,157237,1,8,0:0:0:0:
256,192,158616,1,0,0:0:0:0:
256,192,159995,1,0,0:0:0:0:
256,192,160168,1,8,0:0:0:0:
256,192,160340,1,8,0:0:0:0:
256,192,160512,1,0,0:0:0:0:
256,192,160857,1,0,0:0:0:0:
256,192,161202,1,8,0:0:0:0:
256,192,161375,1,4,0:0:0:0:
256,192,162754,1,8,0:0:0:0:
256,192,164133,1,0,0:0:0:0:
256,192,165512,1,0,0:0:0:0:
256,192,166030,1,0,0:0:0:0:
256,192,166547,1,8,0:0:0:0:
256,192,166633,1,8,0:0:0:0:
256,192,166719,1,8,0:0:0:0:
256,192,166892,1,4,0:0:0:0:
256,192,167237,1,0,0:0:0:0:
256,192,167409,1,8,0:0:0:0:
256,192,167495,1,0,0:0:0:0:
256,192,167581,1,0,0:0:0:0:
256,192,167754,1,8,0:0:0:0:
256,192,167926,1,0,0:0:0:0:
256,192,168099,1,8,0:0:0:0:
256,192,168185,1,8,0:0:0:0:
256,192,168271,1,0,0:0:0:0:
256,192,168616,1,0,0:0:0:0:
256,192,168788,1,8,0:0:0:0:
256,192,168961,1,0,0:0:0:0:
256,192,169047,1,0,0:0:0:0:
256,192,169133,1,8,0:0:0:0:
256,192,169306,1,0,0:0:0:0:
256,192,169478,1,8,0:0:0:0:
256,192,169650,1,0,0:0:0:0:
256,192,169737,1,8,0:0:0:0:
256,192,169823,1,8,0:0:0:0:
256,192,169909,1,8,0:0:0:0:
256,192,169995,1,0,0:0:0:0:
256,192,170168,1,8,0:0:0:0:
256,192,170340,1,0,0:0:0:0:
256,192,170685,1,0,0:0:0:0:
256,192,170857,1,8,0:0:0:0:
256,192,170943,1,8,0:0:0:0:
256,192,171030,1,0,0:0:0:0:
256,192,171202,1,8,0:0:0:0:
256,192,171288,1,8,0:0:0:0:
256,192,171375,1,0,0:0:0:0:
256,192,171547,1,8,0:0:0:0:
256,192,171719,1,0,0:0:0:0:
256,192,171892,1,8,0:0:0:0:
256,192,171978,1,8,0:0:0:0:
256,192,172064,1,8,0:0:0:0:
256,192,172237,1,8,0:0:0:0:
256,192,172409,1,4,0:0:0:0:
256,192,172581,1,0,0:0:0:0:
256,192,172754,1,8,0:0:0:0:
256,192,172926,1,0,0:0:0:0:
256,192,173012,1,0,0:0:0:0:
256,192,173099,1,8,0:0:0:0:
256,192,173185,1,0,0:0:0:0:
256,192,173271,1,0,0:0:0:0:
256,192,173443,1,8,0:0:0:0:
256,192,173616,1,4,0:0:0:0:
256,192,173788,1,8,0:0:0:0:
256,192,173875,1,8,0:0:0:0:
256,192,174047,1,8,0:0:0:0:
256,192,174133,1,0,0:0:0:0:
256,192,174306,1,8,0:0:0:0:
256,192,174392,1,8,0:0:0:0:
256,192,174478,1,0,0:0:0:0:
256,192,174564,1,8,0:0:0:0:
256,192,174650,1,0,0:0:0:0:
256,192,174737,1,0,0:0:0:0:
256,192,174823,1,8,0:0:0:0:
256,192,175168,1,4,0:0:0:0:
256,192,175340,1,8,0:0:0:0:
256,192,175512,1,0,0:0:0:0:
256,192,175685,1,12,0:0:0:0:
256,192,176030,1,0,0:0:0:0:
256,192,176202,1,8,0:0:0:0:
256,192,176375,1,0,0:0:0:0:
256,192,176461,1,0,0:0:0:0:
256,192,176547,1,8,0:0:0:0:
256,192,176633,1,8,0:0:0:0:
256,192,176719,1,0,0:0:0:0:
256,192,176892,1,8,0:0:0:0:
256,192,177064,1,0,0:0:0:0:
256,192,177150,1,0,0:0:0:0:
256,192,177237,1,8,0:0:0:0:
256,192,177495,1,8,0:0:0:0:
256,192,177754,1,8,0:0:0:0:
256,192,177926,1,4,0:0:0:0:
256,192,178099,1,0,0:0:0:0:
256,192,178271,1,8,0:0:0:0:
256,192,178357,1,0,0:0:0:0:
256,192,178443,1,8,0:0:0:0:
256,192,178530,1,8,0:0:0:0:
256,192,178616,1,0,0:0:0:0:
256,192,178788,1,0,0:0:0:0:
256,192,178875,1,0,0:0:0:0:
256,192,178961,1,8,0:0:0:0:
256,192,179133,1,8,0:0:0:0:
256,192,179219,1,8,0:0:0:0:
256,192,179306,1,0,0:0:0:0:
256,192,179392,1,8,0:0:0:0:
256,192,179478,1,0,0:0:0:0:
256,192,179564,1,0,0:0:0:0:
256,192,179650,1,8,0:0:0:0:
256,192,179823,1,0,0:0:0:0:
256,192,179995,1,8,0:0:0:0:
256,192,180081,1,8,0:0:0:0:
256,192,180168,1,0,0:0:0:0:
256,192,180254,1,0,0:0:0:0:
256,192,180340,1,8,0:0:0:0:
256,192,180512,1,0,0:0:0:0:
256,192,180599,1,8,0:0:0:0:
256,192,180685,1,0,0:0:0:0:
256,192,180857,1,0,0:0:0:0:
256,192,180943,1,0,0:0:0:0:
256,192,181030,1,8,0:0:0:0:
256,192,181116,1,0,0:0:0:0:
256,192,181202,1,8,0:0:0:0:
256,192,181288,1,8,0:0:0:0:
256,192,181375,1,0,0:0:0:0:
256,192,181547,1,0,0:0:0:0:
256,192,181719,1,8,0:0:0:0:
256,192,181892,1,0,0:0:0:0:
256,192,181978,1,8,0:0:0:0:
256,192,182150,1,8,0:0:0:0:
256,192,182237,1,0,0:0:0:0:
256,192,182323,1,0,0:0:0:0:
256,192,182409,1,8,0:0:0:0:
256,192,182581,1,0,0:0:0:0:
256,192,182754,1,8,0:0:0:0:
256,192,182926,1,0,0:0:0:0:
256,192,183012,1,0,0:0:0:0:
256,192,183099,1,8,0:0:0:0:
256,192,183185,1,8,0:0:0:0:
256,192,183271,1,8,0:0:0:0:
256,192,183357,1,8,0:0:0:0:
256,192,183443,1,0,0:0:0:0:
256,192,183616,1,0,0:0:0:0:
256,192,183788,1,8,0:0:0:0:
256,192,183875,1,8,0:0:0:0:
256,192,183961,1,0,0:0:0:0:
256,192,184047,1,0,0:0:0:0:
256,192,184133,1,8,0:0:0:0:
256,192,184306,1,0,0:0:0:0:
256,192,184392,1,0,0:0:0:0:
256,192,184478,1,8,0:0:0:0:
256,192,184650,1,8,0:0:0:0:
256,192,184823,1,0,0:0:0:0:
256,192,184909,1,8,0:0:0:0:
256,192,184995,1,0,0:0:0:0:
256,192,185081,1,0,0:0:0:0:
256,192,185168,1,8,0:0:0:0:
256,192,185340,1,8,0:0:0:0:
256,192,185426,1,8,0:0:0:0:
256,192,185512,1,0,0:0:0:0:
256,192,185599,1,0,0:0:0:0:
256,192,185685,1,8,0:0:0:0:
256,192,185771,1,0,0:0:0:0:
256,192,185857,1,8,0:0:0:0:
256,192,186030,1,8,0:0:0:0:
256,192,186202,1,4,0:0:0:0:
256,192,186375,1,8,0:0:0:0:
256,192,186547,1,8,0:0:0:0:
256,192,186719,1,4,0:0:0:0:
256,192,186892,1,8,0:0:0:0:
256,192,187064,1,8,0:0:0:0:
256,192,187150,1,8,0:0:0:0:
256,192,187237,1,8,0:0:0:0:
256,192,187409,1,4,0:0:0:0:
256,192,187754,1,0,0:0:0:0:
256,192,187926,1,8,0:0:0:0:
256,192,188099,1,4,0:0:0:0:
256,192,188271,1,0,0:0:0:0:
256,192,188357,1,0,0:0:0:0:
256,192,188443,1,8,0:0:0:0:
256,192,188530,1,8,0:0:0:0:
256,192,188616,1,0,0:0:0:0:
256,192,188788,1,8,0:0:0:0:
256,192,188961,1,4,0:0:0:0:
256,192,189306,1,12,0:0:0:0:
256,192,189478,1,0,0:0:0:0:
256,192,189564,1,8,0:0:0:0:
256,192,189650,1,0,0:0:0:0:
256,192,189823,1,0,0:0:0:0:
256,192,189995,1,8,0:0:0:0:
256,192,190081,1,0,0:0:0:0:
256,192,190168,1,8,0:0:0:0:
256,192,190254,1,8,0:0:0:0:
256,192,190340,1,0,0:0:0:0:
256,192,190512,1,0,0:0:0:0:
256,192,190599,1,0,0:0:0:0:
256,192,190685,1,8,0:0:0:0:
256,192,190857,1,0,0:0:0:0:
256,192,190943,1,0,0:0:0:0:
256,192,191030,1,8,0:0:0:0:
256,192,191116,1,0,0:0:0:0:
256,192,191288,1,0,0:0:0:0:
256,192,191375,1,8,0:0:0:0:
256,192,191547,1,8,0:0:0:0:
256,192,191633,1,8,0:0:0:0:
256,192,191719,1,0,0:0:0:0:
256,192,191892,1,0,0:0:0:0:
256,192,192064,1,8,0:0:0:0:
256,192,192237,1,0,0:0:0:0:
256,192,192323,1,0,0:0:0:0:
256,192,192409,1,0,0:0:0:0:
256,192,192581,1,0,0:0:0:0:
256,192,192754,1,8,0:0:0:0:
256,192,192840,1,8,0:0:0:0:
256,192,192926,1,8,0:0:0:0:
256,192,193099,1,0,0:0:0:0:
256,192,193329,1,8,0:0:0:0:
256,192,193443,1,0,0:0:0:0:
256,192,193558,1,8,0:0:0:0:
256,192,193673,1,8,0:0:0:0:
256,192,193788,1,0,0:0:0:0:
256,192,193903,1,0,0:0:0:0:
256,192,194018,1,8,0:0:0:0:
256,192,194133,1,0,0:0:0:0:
256,192,194248,1,8,0:0:0:0:
256,192,194363,1,8,0:0:0:0:
256,192,194478,1,4,0:0:0:0:
256,192,194823,1,0,0:0:0:0:
256,192,194995,1,0,0:0:0:0:
256,192,195168,1,8,0:0:0:0:
256,192,195340,1,0,0:0:0:0:
256,192,195426,1,8,0:0:0:0:
256,192,195512,1,0,0:0:0:0:
256,192,195685,1,8,0:0:0:0:
256,192,195771,1,8,0:0:0:0:
256,192,195857,1,0,0:0:0:0:
256,192,196030,1,8,0:0:0:0:
256,192,196202,1,0,0:0:0:0:
256,192,196375,1,0,0:0:0:0:
256,192,196547,1,12,0:0:0:0:
256,192,196806,1,12,0:0:0:0:
256,192,197064,1,12,0:0:0:0:
256,192,197237,1,4,0:0:0:0:
256,192,197581,1,8,0:0:0:0:
256,192,197754,1,0,0:0:0:0:
256,192,197840,1,0,0:0:0:0:
256,192,197926,1,8,0:0:0:0:
256,192,198099,1,8,0:0:0:0:
256,192,198271,1,0,0:0:0:0:
256,192,198357,1,8,0:0:0:0:
256,192,198443,1,0,0:0:0:0:
256,192,198530,1,0,0:0:0:0:
256,192,198616,1,8,0:0:0:0:
256,192,198788,1,8,0:0:0:0:
256,192,198961,1,0,0:0:0:0:
256,192,199133,1,0,0:0:0:0:
256,192,199219,1,0,0:0:0:0:
256,192,199306,1,8,0:0:0:0:
256,192,199392,1,8,0:0:0:0:
256,192,199478,1,0,0:0:0:0:
256,192,199564,1,8,0:0:0:0:
256,192,199650,1,0,0:0:0:0:
256,192,199737,1,0,0:0:0:0:
256,192,199823,1,8,0:0:0:0:
256,192,199909,1,8,0:0:0:0:
256,192,199995,1,0,0:0:0:0:
256,192,200168,1,8,0:0:0:0:
256,192,200254,1,8,0:0:0:0:
256,192,200340,1,0,0:0:0:0:
256,192,200426,1,0,0:0:0:0:
256,192,200512,1,8,0:0:0:0:
256,192,200599,1,0,0:0:0:0:
256,192,200685,1,8,0:0:0:0:
256,192,200771,1,8,0:0:0:0:
256,192,200857,1,0,0:0:0:0:
256,192,200943,1,0,0:0:0:0:
256,192,201030,1,8,0:0:0:0:
256,192,201116,1,0,0:0:0:0:
256,192,201202,1,0,0:0:0:0:
256,192,201288,1,0,0:0:0:0:
256,192,201375,1,8,0:0:0:0:
256,192,201461,1,8,0:0:0:0:
256,192,201547,1,8,0:0:0:0:
256,192,201633,1,8,0:0:0:0:
256,192,201719,1,0,0:0:0:0:
256,192,201806,1,0,0:0:0:0:
256,192,201892,1,0,0:0:0:0:
256,192,201978,1,0,0:0:0:0:
256,192,202064,1,8,0:0:0:0:
256,192,202150,1,8,0:0:0:0:
256,192,202237,1,0,0:0:0:0:
256,192,202323,1,0,0:0:0:0:
256,192,202409,1,8,0:0:0:0:
256,192,202495,1,0,0:0:0:0:
256,192,202581,1,8,0:0:0:0:
256,192,202668,1,8,0:0:0:0:
256,192,202754,1,0,0:0:0:0:
256,192,202840,1,8,0:0:0:0:
256,192,202926,1,0,0:0:0:0:
256,192,203012,1,0,0:0:0:0:
256,192,203099,1,8,0:0:0:0:
256,192,203185,1,0,0:0:0:0:
256,192,203271,1,0,0:0:0:0:
256,192,203357,1,0,0:0:0:0:
256,192,203443,1,8,0:0:0:0:
256,192,203530,1,8,0:0:0:0:
256,192,203616,1,0,0:0:0:0:
256,192,203702,1,8,0:0:0:0:
256,192,203788,1,0,0:0:0:0:
256,192,203961,1,12,0:0:0:0:
256,192,205512,1,8,0:0:0:0:
256,192,205857,12,8,206719,0:0:0:0:
256,192,206892,5,4,0:0:0:0:
256,192,207150,1,0,0:0:0:0:
256,192,207237,1,8,0:0:0:0:
256,192,207409,1,0,0:0:0:0:
256,192,207581,1,8,0:0:0:0:
256,192,207754,1,0,0:0:0:0:
256,192,207840,1,0,0:0:0:0:
256,192,207926,1,8,0:0:0:0:
256,192,208099,1,8,0:0:0:0:
256,192,208185,1,8,0:0:0:0:
256,192,208271,1,0,0:0:0:0:
256,192,208443,1,0,0:0:0:0:
256,192,208616,1,8,0:0:0:0:
256,192,208788,1,0,0:0:0:0:
256,192,208961,1,8,0:0:0:0:
256,192,209133,1,0,0:0:0:0:
256,192,209219,1,0,0:0:0:0:
256,192,209306,1,8,0:0:0:0:
256,192,209392,1,8,0:0:0:0:
256,192,209478,1,0,0:0:0:0:
256,192,209564,1,8,0:0:0:0:
256,192,209650,1,0,0:0:0:0:
256,192,209909,1,0,0:0:0:0:
256,192,209995,1,8,0:0:0:0:
256,192,210168,1,0,0:0:0:0:
256,192,210340,1,8,0:0:0:0:
256,192,210512,1,0,0:0:0:0:
256,192,210599,1,0,0:0:0:0:
256,192,210685,1,8,0:0:0:0:
256,192,210857,1,8,0:0:0:0:
256,192,211030,1,0,0:0:0:0:
256,192,211116,1,8,0:0:0:0:
256,192,211202,1,0,0:0:0:0:
256,192,211288,1,0,0:0:0:0:
256,192,211375,1,8,0:0:0:0:
256,192,211461,1,8,0:0:0:0:
256,192,211547,1,0,0:0:0:0:
256,192,211719,1,12,0:0:0:0:
256,192,211978,1,12,0:0:0:0:
256,192,212237,1,12,0:0:0:0:
256,192,212409,1,4,0:0:0:0:
256,192,212754,1,8,0:0:0:0:
256,192,212926,1,0,0:0:0:0:
256,192,213012,1,8,0:0:0:0:
256,192,213099,1,0,0:0:0:0:
256,192,213271,1,0,0:0:0:0:
256,192,213443,1,8,0:0:0:0:
256,192,213616,1,8,0:0:0:0:
256,192,213702,1,8,0:0:0:0:
256,192,213788,1,0,0:0:0:0:
256,192,213961,1,0,0:0:0:0:
256,192,214133,1,8,0:0:0:0:
256,192,214306,1,0,0:0:0:0:
256,192,214392,1,0,0:0:0:0:
256,192,214478,1,8,0:0:0:0:
256,192,214564,1,8,0:0:0:0:
256,192,214650,1,0,0:0:0:0:
256,192,214823,1,8,0:0:0:0:
256,192,214995,1,0,0:0:0:0:
256,192,215081,1,0,0:0:0:0:
256,192,215168,1,8,0:0:0:0:
256,192,215340,1,0,0:0:0:0:
256,192,215512,1,8,0:0:0:0:
256,192,215685,1,0,0:0:0:0:
256,192,215771,1,0,0:0:0:0:
256,192,215857,1,8,0:0:0:0:
256,192,215943,1,0,0:0:0:0:
256,192,216030,1,8,0:0:0:0:
256,192,216116,1,8,0:0:0:0:
256,192,216202,1,0,0:0:0:0:
256,192,216375,1,12,0:0:0:0:
256,192,216719,1,0,0:0:0:0:
256,192,216892,1,8,0:0:0:0:
256,192,217064,1,4,0:0:0:0:
256,192,217237,1,8,0:0:0:0:
256,192,217323,1,8,0:0:0:0:
256,192,217409,1,0,0:0:0:0:
256,192,217495,1,8,0:0:0:0:
256,192,217581,1,0,0:0:0:0:
256,192,217754,1,8,0:0:0:0:
256,192,217926,1,4,0:0:0:0:
256,192,218271,1,12,0:0:0:0:
256,192,218443,1,0,0:0:0:0:
256,192,218616,1,8,0:0:0:0:
256,192,218788,1,0,0:0:0:0:
256,192,218875,1,0,0:0:0:0:
256,192,218961,1,8,0:0:0:0:
256,192,219133,1,8,0:0:0:0:
256,192,219219,1,8,0:0:0:0:
256,192,219306,1,0,0:0:0:0:
256,192,219478,1,8,0:0:0:0:
256,192,219564,1,0,0:0:0:0:
256,192,219650,1,8,0:0:0:0:
256,192,219737,1,8,0:0:0:0:
256,192,219823,1,0,0:0:0:0:
256,192,219909,1,0,0:0:0:0:
256,192,219995,1,8,0:0:0:0:
256,192,220168,1,0,0:0:0:0:
256,192,220254,1,0,0:0:0:0:
256,192,220340,1,8,0:0:0:0:
256,192,220426,1,8,0:0:0:0:
256,192,220512,1,0,0:0:0:0:
256,192,220599,1,8,0:0:0:0:
256,192,220685,1,0,0:0:0:0:
256,192,220857,1,0,0:0:0:0:
256,192,221030,1,8,0:0:0:0:
256,192,221116,1,8,0:0:0:0:
256,192,221202,1,0,0:0:0:0:
256,192,221288,1,0,0:0:0:0:
256,192,221375,1,8,0:0:0:0:
256,192,221547,1,0,0:0:0:0:
256,192,221719,1,8,0:0:0:0:
256,192,221806,1,0,0:0:0:0:
256,192,221892,1,8,0:0:0:0:
256,192,221978,1,8,0:0:0:0:
256,192,222064,1,0,0:0:0:0:
256,192,222150,1,0,0:0:0:0:
256,192,222237,1,0,0:0:0:0:
256,192,222323,1,0,0:0:0:0:
256,192,222409,1,8,0:0:0:0:
256,192,222581,1,0,0:0:0:0:
256,192,222754,1,12,0:0:0:0:
256,192,223012,1,12,0:0:0:0:
256,192,223271,1,12,0:0:0:0:
256,192,223443,1,4,0:0:0:0:
256,192,223788,1,8,0:0:0:0:
256,192,223961,1,0,0:0:0:0:
256,192,224047,1,0,0:0:0:0:
256,192,224133,1,8,0:0:0:0:
256,192,224219,1,8,0:0:0:0:
256,192,224306,1,0,0:0:0:0:
256,192,224478,1,8,0:0:0:0:
256,192,224650,1,0,0:0:0:0:
256,192,224737,1,0,0:0:0:0:
256,192,224823,1,8,0:0:0:0:
256,192,224995,1,0,0:0:0:0:
256,192,225168,1,8,0:0:0:0:
256,192,225254,1,8,0:0:0:0:
256,192,225340,1,0,0:0:0:0:
256,192,225426,1,8,0:0:0:0:
256,192,225512,1,0,0:0:0:0:
256,192,225599,1,0,0:0:0:0:
256,192,225685,1,8,0:0:0:0:
256,192,225771,1,0,0:0:0:0:
256,192,225857,1,8,0:0:0:0:
256,192,226030,1,0,0:0:0:0:
256,192,226116,1,0,0:0:0:0:
256,192,226202,1,8,0:0:0:0:
256,192,226375,1,8,0:0:0:0:
256,192,226461,1,8,0:0:0:0:
256,192,226547,1,0,0:0:0:0:
256,192,226633,1,0,0:0:0:0:
256,192,226719,1,8,0:0:0:0:
256,192,226806,1,0,0:0:0:0:
256,192,226892,1,8,0:0:0:0:
256,192,226978,1,8,0:0:0:0:
256,192,227064,1,0,0:0:0:0:
256,192,227150,1,0,0:0:0:0:
256,192,227237,1,8,0:0:0:0:
256,192,227409,1,4,0:0:0:0:
256,192,227754,1,0,0:0:0:0:
256,192,227926,1,8,0:0:0:0:
256,192,228099,1,4,0:0:0:0:
256,192,228271,1,8,0:0:0:0:
256,192,228357,1,8,0:0:0:0:
256,192,228443,1,0,0:0:0:0:
256,192,228530,1,8,0:0:0:0:
256,192,228616,1,0,0:0:0:0:
256,192,228788,1,8,0:0:0:0:
256,192,228875,1,8,0:0:0:0:
256,192,228961,1,0,0:0:0:0:
256,192,229306,1,8,0:0:0:0:
256,192,229478,1,8,0:0:0:0:
256,192,229823,1,8,0:0:0:0:
256,192,230340,1,0,0:0:0:0:
256,192,230685,1,8,0:0:0:0:
256,192,230857,1,8,0:0:0:0:
256,192,231202,1,8,0:0:0:0:
256,192,232352,1,8,0:0:0:0:
256,192,232409,1,8,0:0:0:0:
256,192,232581,12,0,237237,0:0:0:0:
