osu file format v14

[General]
AudioFilename: audio.mp3
AudioLeadIn: 0
PreviewTime: 56457
Countdown: 0
SampleSet: Normal
StackLeniency: 0.7
Mode: 1
LetterboxInBreaks: 0
WidescreenStoryboard: 1

[Editor]
DistanceSpacing: 0.8
BeatDivisor: 4
GridSize: 32
TimelineZoom: 3

[Metadata]
Title:kaleidoscope
TitleUnicode:kaleidoscope
Artist:ChouCho
ArtistUnicode:ChouCho
Creator:ler1211
Version:oni
Source:劇場版Fate/kaleid liner プリズマ☆イリヤ 雪下の誓い
Tags:prisma illya prisma☆illya prisma*illya ちょうちょ fate kaleid anime movie gekijouban Oath Under Snow Vow in the Snow Sekka no Chikai japanese pop jpop j-pop type-moon typemoon ed ending theme song full size ver version
BeatmapID:4477645
BeatmapSetID:2080547

[Difficulty]
HPDrainRate:5.5
CircleSize:5
OverallDifficulty:5.5
ApproachRate:5
SliderMultiplier:1.4
SliderTickRate:1

[Events]
//Background and Video events
0,0,"kaleid.jpg",0,30
//Break Periods
//Storyboard Layer 0 (Background)
//Storyboard Layer 1 (Fail)
//Storyboard Layer 2 (Pass)
//Storyboard Layer 3 (Foreground)
//Storyboard Layer 4 (Overlay)
//Storyboard Sound Samples

[TimingPoints]
1375,344.827586206897,4,1,0,90,1,0
1375,-100,4,1,0,90,0,0
12581,-111.111111111111,4,1,0,75,0,0
20683,-111.111111111111,4,1,0,80,0,0
20769,-111.111111111111,4,1,0,81,0,0
20855,-111.111111111111,4,1,0,81,0,0
20942,-111.111111111111,4,1,0,82,0,0
21028,-111.111111111111,4,1,0,83,0,0
21114,-111.111111111111,4,1,0,83,0,0
21200,-111.111111111111,4,1,0,84,0,0
21286,-111.111111111111,4,1,0,84,0,0
21373,-111.111111111111,4,1,0,85,0,0
21459,-111.111111111111,4,1,0,86,0,0
21545,-111.111111111111,4,1,0,86,0,0
21631,-111.111111111111,4,1,0,87,0,0
21717,-111.111111111111,4,1,0,88,0,0
21804,-111.111111111111,4,1,0,88,0,0
21890,-111.111111111111,4,1,0,89,0,0
21976,-111.111111111111,4,1,0,89,0,0
22062,-111.111111111111,4,1,0,90,0,0
22581,-76.9230769230769,4,1,0,90,0,0
23271,-100,4,1,0,90,0,0
34478,-111.111111111111,4,1,0,90,0,0
45510,-100,4,1,0,90,0,0
56547,-90.9090909090909,4,1,0,100,0,1
78616,-90.9090909090909,4,1,0,90,0,0
78788,-100,4,1,0,90,0,0
89737,-111.111111111111,4,1,0,50,0,0
94564,-111.111111111111,4,1,0,90,0,0
94995,-100,4,1,0,90,0,0
122926,-111.111111111111,4,1,0,90,0,0
133786,-100,4,1,0,90,0,0
144711,-125,4,1,0,80,0,0
144823,-125,4,1,0,80,0,1
144909,-125,4,1,0,50,0,1
147581,-125,4,1,0,50,0,0
150340,-125,4,1,0,50,0,1
153099,-125,4,1,0,50,0,0
155685,-111.111111111111,4,1,0,80,0,0
155857,-111.111111111111,4,1,0,80,0,1
156030,-111.111111111111,4,1,0,65,0,1
158616,-111.111111111111,4,1,0,65,0,0
161288,-111.111111111111,4,1,0,80,0,0
161375,-111.111111111111,4,1,0,80,0,1
161547,-111.111111111111,4,1,0,70,0,1
164133,-111.111111111111,4,1,0,70,0,0
166461,-111.111111111111,4,1,0,80,0,0
166806,-100,4,1,0,90,0,0
177926,-90.9090909090909,4,1,0,100,0,1
203961,-90.9090909090909,4,1,0,100,0,0
204047,-90.9090909090909,4,1,0,10,0,0
205340,-111.111111111111,4,1,0,90,0,0
206892,-100,4,1,0,90,0,0
217926,-90.9090909090909,4,1,0,90,0,1
228961,-90.9090909090909,4,1,0,90,0,0
229047,-100,4,1,0,60,0,0
232323,-100,4,1,0,50,0,0
233012,-100,4,1,0,50,0,0
234306,-76.9230769230769,4,1,0,50,0,0
235685,-55.5555555555556,4,1,0,50,0,0
236979,-33.3333333333333,4,1,0,50,0,0

[HitObjects]
256,192,1375,5,4,0:0:0:0:
256,192,1719,1,0,0:0:0:0:
256,192,1892,1,8,0:0:0:0:
256,192,1978,1,8,0:0:0:0:
256,192,2064,1,0,0:0:0:0:
256,192,2237,1,8,0:0:0:0:
256,192,2409,1,8,0:0:0:0:
256,192,2581,1,0,0:0:0:0:
256,192,2668,1,8,0:0:0:0:
256,192,2754,1,0,0:0:0:0:
256,192,2926,1,8,0:0:0:0:
256,192,3099,1,0,0:0:0:0:
256,192,3271,1,8,0:0:0:0:
256,192,3357,1,8,0:0:0:0:
256,192,3443,1,0,0:0:0:0:
256,192,3616,1,0,0:0:0:0:
256,192,3788,1,8,0:0:0:0:
256,192,3875,1,8,0:0:0:0:
256,192,3961,1,0,0:0:0:0:
256,192,4047,1,0,0:0:0:0:
256,192,4133,1,8,0:0:0:0:
256,192,4306,1,0,0:0:0:0:
256,192,4478,1,8,0:0:0:0:
256,192,4650,1,0,0:0:0:0:
256,192,4737,1,0,0:0:0:0:
256,192,4823,1,8,0:0:0:0:
256,192,4995,1,0,0:0:0:0:
256,192,5168,1,8,0:0:0:0:
256,192,5254,1,8,0:0:0:0:
256,192,5340,1,8,0:0:0:0:
256,192,5426,1,8,0:0:0:0:
256,192,5512,1,0,0:0:0:0:
256,192,5685,1,8,0:0:0:0:
256,192,5857,1,0,0:0:0:0:
256,192,6030,1,8,0:0:0:0:
256,192,6116,1,0,0:0:0:0:
256,192,6202,1,8,0:0:0:0:
256,192,6375,1,0,0:0:0:0:
256,192,6461,1,0,0:0:0:0:
256,192,6547,1,8,0:0:0:0:
256,192,6633,1,8,0:0:0:0:
256,192,6719,1,8,0:0:0:0:
256,192,6806,1,8,0:0:0:0:
256,192,6892,1,0,0:0:0:0:
256,192,7237,1,8,0:0:0:0:
256,192,7409,1,0,0:0:0:0:
256,192,7495,1,0,0:0:0:0:
256,192,7581,1,8,0:0:0:0:
256,192,7754,1,0,0:0:0:0:
256,192,7926,1,8,0:0:0:0:
256,192,8099,1,0,0:0:0:0:
256,192,8185,1,8,0:0:0:0:
256,192,8271,1,0,0:0:0:0:
256,192,8443,1,0,0:0:0:0:
256,192,8616,1,8,0:0:0:0:
256,192,8788,1,0,0:0:0:0:
256,192,8875,1,0,0:0:0:0:
256,192,8961,1,0,0:0:0:0:
256,192,9133,1,0,0:0:0:0:
256,192,9306,1,8,0:0:0:0:
256,192,9650,1,12,0:0:0:0:
256,192,9823,1,0,0:0:0:0:
256,192,9995,1,0,0:0:0:0:
256,192,10168,1,12,0:0:0:0:
256,192,10340,1,0,0:0:0:0:
256,192,10512,1,0,0:0:0:0:
256,192,10685,1,12,0:0:0:0:
256,192,11030,1,12,0:0:0:0:
256,192,11202,1,0,0:0:0:0:
256,192,11375,1,8,0:0:0:0:
256,192,11547,1,4,0:0:0:0:
256,192,11892,1,8,0:0:0:0:
256,192,11978,1,8,0:0:0:0:
256,192,12064,1,0,0:0:0:0:
256,192,12150,1,0,0:0:0:0:
256,192,12237,1,8,0:0:0:0:
256,192,12409,1,4,0:0:0:0:
256,192,12754,1,0,0:0:0:0:
256,192,13099,1,0,0:0:0:0:
256,192,13443,1,0,0:0:0:0:
256,192,13616,1,8,0:0:0:0:
256,192,13788,1,0,0:0:0:0:
256,192,13961,1,0,0:0:0:0:
256,192,14133,1,8,0:0:0:0:
256,192,14478,1,0,0:0:0:0:
256,192,14823,1,0,0:0:0:0:
256,192,14995,1,8,0:0:0:0:
256,192,15168,1,0,0:0:0:0:
256,192,15512,1,0,0:0:0:0:
256,192,15857,1,8,0:0:0:0:
256,192,16202,1,0,0:0:0:0:
256,192,16375,1,8,0:0:0:0:
256,192,16547,1,0,0:0:0:0:
256,192,16892,1,8,0:0:0:0:
256,192,17064,1,0,0:0:0:0:
256,192,17237,1,0,0:0:0:0:
256,192,17581,1,0,0:0:0:0:
256,192,17754,1,8,0:0:0:0:
256,192,17926,1,0,0:0:0:0:
256,192,18271,1,0,0:0:0:0:
256,192,18616,1,0,0:0:0:0:
256,192,18961,1,0,0:0:0:0:
256,192,19133,1,0,0:0:0:0:
256,192,19306,1,8,0:0:0:0:
256,192,19650,1,0,0:0:0:0:
256,192,19995,1,0,0:0:0:0:
256,192,20168,1,8,0:0:0:0:
256,192,20340,1,0,0:0:0:0:
256,192,20512,1,8,0:0:0:0:
256,192,20685,1,4,0:0:0:0:
256,192,21030,1,0,0:0:0:0:
256,192,21202,1,8,0:0:0:0:
256,192,21375,1,0,0:0:0:0:
256,192,21547,1,8,0:0:0:0:
256,192,21719,1,8,0:0:0:0:
256,192,21892,1,8,0:0:0:0:
256,192,22064,1,4,0:0:0:0:
256,192,22754,1,12,0:0:0:0:
256,192,22926,1,12,0:0:0:0:
256,192,23443,1,4,0:0:0:0:
256,192,23788,1,8,0:0:0:0:
256,192,23961,1,0,0:0:0:0:
256,192,24047,1,8,0:0:0:0:
256,192,24133,1,0,0:0:0:0:
256,192,24306,1,0,0:0:0:0:
256,192,24478,1,8,0:0:0:0:
256,192,24823,1,0,0:0:0:0:
256,192,24995,1,0,0:0:0:0:
256,192,25168,1,8,0:0:0:0:
256,192,25340,1,0,0:0:0:0:
256,192,25426,1,0,0:0:0:0:
256,192,25512,1,8,0:0:0:0:
256,192,25685,1,0,0:0:0:0:
256,192,25857,1,8,0:0:0:0:
256,192,25943,1,8,0:0:0:0:
256,192,26030,1,8,0:0:0:0:
256,192,26202,1,0,0:0:0:0:
256,192,26547,1,8,0:0:0:0:
256,192,26719,1,0,0:0:0:0:
256,192,26806,1,0,0:0:0:0:
256,192,26892,1,8,0:0:0:0:
256,192,27064,1,0,0:0:0:0:
256,192,27237,1,8,0:0:0:0:
256,192,27581,1,8,0:0:0:0:
256,192,27754,1,0,0:0:0:0:
256,192,27926,1,8,0:0:0:0:
256,192,28099,1,8,0:0:0:0:
256,192,28185,1,8,0:0:0:0:
256,192,28271,1,0,0:0:0:0:
256,192,28443,1,0,0:0:0:0:
256,192,28616,1,8,0:0:0:0:
256,192,28788,1,8,0:0:0:0:
256,192,28961,1,0,0:0:0:0:
256,192,29306,1,8,0:0:0:0:
256,192,29478,1,0,0:0:0:0:
256,192,29564,1,0,0:0:0:0:
256,192,29650,1,8,0:0:0:0:
256,192,29823,1,0,0:0:0:0:
256,192,29995,1,8,0:0:0:0:
256,192,30168,1,8,0:0:0:0:
256,192,30254,1,8,0:0:0:0:
256,192,30340,1,0,0:0:0:0:
256,192,30512,1,0,0:0:0:0:
256,192,30685,1,8,0:0:0:0:
256,192,30857,1,8,0:0:0:0:
256,192,31030,1,0,0:0:0:0:
256,192,31202,1,0,0:0:0:0:
256,192,31288,1,0,0:0:0:0:
256,192,31375,1,8,0:0:0:0:
256,192,31547,1,8,0:0:0:0:
256,192,31719,1,0,0:0:0:0:
256,192,32064,1,8,0:0:0:0:
256,192,32237,1,0,0:0:0:0:
256,192,32409,1,8,0:0:0:0:
256,192,32581,1,0,0:0:0:0:
256,192,32668,1,0,0:0:0:0:
256,192,32754,1,8,0:0:0:0:
256,192,32926,1,0,0:0:0:0:
256,192,33099,1,8,0:0:0:0:
256,192,33185,1,8,0:0:0:0:
256,192,33271,1,0,0:0:0:0:
256,192,33357,1,0,0:0:0:0:
256,192,33443,1,8,0:0:0:0:
256,192,33616,1,0,0:0:0:0:
256,192,33702,1,8,0:0:0:0:
256,192,33788,1,0,0:0:0:0:
256,192,33961,1,12,0:0:0:0:
256,192,34478,1,4,0:0:0:0:
256,192,34995,1,0,0:0:0:0:
256,192,35168,1,8,0:0:0:0:
256,192,35512,1,8,0:0:0:0:
256,192,35685,1,0,0:0:0:0:
256,192,36030,1,8,0:0:0:0:
256,192,36375,1,0,0:0:0:0:
256,192,36547,1,8,0:0:0:0:
256,192,36892,1,8,0:0:0:0:
256,192,37237,1,0,0:0:0:0:
256,192,37754,1,0,0:0:0:0:
256,192,37926,1,8,0:0:0:0:
256,192,38099,1,8,0:0:0:0:
256,192,38443,1,0,0:0:0:0:
256,192,38788,1,8,0:0:0:0:
256,192,39133,1,0,0:0:0:0:
256,192,39306,1,8,0:0:0:0:
256,192,39478,1,0,0:0:0:0:
256,192,39650,1,0,0:0:0:0:
256,192,39995,1,0,0:0:0:0:
256,192,40168,1,0,0:0:0:0:
256,192,40512,1,0,0:0:0:0:
256,192,40685,1,8,0:0:0:0:
256,192,41030,1,8,0:0:0:0:
256,192,41202,1,0,0:0:0:0:
256,192,41547,1,8,0:0:0:0:
256,192,41892,1,0,0:0:0:0:
256,192,42064,1,8,0:0:0:0:
256,192,42409,1,8,0:0:0:0:
256,192,42581,1,8,0:0:0:0:
256,192,42754,1,0,0:0:0:0:
256,192,43271,1,0,0:0:0:0:
256,192,43443,1,8,0:0:0:0:
256,192,43616,1,8,0:0:0:0:
256,192,43961,1,0,0:0:0:0:
256,192,44306,1,8,0:0:0:0:
256,192,44478,1,0,0:0:0:0:
256,192,44650,1,8,0:0:0:0:
256,192,44737,1,8,0:0:0:0:
256,192,44823,1,0,0:0:0:0:
256,192,44909,1,0,0:0:0:0:
256,192,45081,1,0,0:0:0:0:
256,192,45168,1,8,0:0:0:0:
256,192,45512,1,4,0:0:0:0:
256,192,45857,1,8,0:0:0:0:
256,192,46030,1,4,0:0:0:0:
256,192,46547,1,4,0:0:0:0:
256,192,46892,1,8,0:0:0:0:
256,192,47064,1,4,0:0:0:0:
256,192,47409,1,8,0:0:0:0:
256,192,47581,1,4,0:0:0:0:
256,192,47926,1,4,0:0:0:0:
256,192,48271,1,12,0:0:0:0:
256,192,48616,1,0,0:0:0:0:
256,192,48788,1,12,0:0:0:0:
256,192,49133,1,0,0:0:0:0:
256,192,49306,1,12,0:0:0:0:
256,192,49650,1,12,0:0:0:0:
256,192,49823,1,0,0:0:0:0:
256,192,49995,1,0,0:0:0:0:
256,192,50168,1,12,0:0:0:0:
256,192,50512,1,8,0:0:0:0:
256,192,50599,1,8,0:0:0:0:
256,192,50685,1,0,0:0:0:0:
256,192,50771,1,0,0:0:0:0:
256,192,50857,1,8,0:0:0:0:
256,192,50943,1,8,0:0:0:0:
256,192,51030,1,0,0:0:0:0:
256,192,51375,1,8,0:0:0:0:
256,192,51547,1,0,0:0:0:0:
256,192,51719,1,8,0:0:0:0:
256,192,51892,1,8,0:0:0:0:
256,192,52064,1,8,0:0:0:0:
256,192,52237,1,0,0:0:0:0:
256,192,52581,1,8,0:0:0:0:
256,192,52754,1,0,0:0:0:0:
256,192,52926,1,0,0:0:0:0:
256,192,53012,1,0,0:0:0:0:
256,192,53099,1,8,0:0:0:0:
256,192,53271,1,0,0:0:0:0:
256,192,53443,1,8,0:0:0:0:
256,192,53788,1,4,0:0:0:0:
256,192,53961,1,8,0:0:0:0:
256,192,54133,1,0,0:0:0:0:
256,192,54306,1,12,0:0:0:0:
256,192,54650,1,8,0:0:0:0:
256,192,54737,1,8,0:0:0:0:
256,192,54823,1,8,0:0:0:0:
256,192,54995,1,4,0:0:0:0:
256,192,55340,1,0,0:0:0:0:
256,192,55512,1,12,0:0:0:0:
256,192,56030,1,8,0:0:0:0:
256,192,56116,1,8,0:0:0:0:
256,192,56202,1,8,0:0:0:0:
256,192,56288,1,8,0:0:0:0:
256,192,56375,1,8,0:0:0:0:
256,192,56547,1,4,0:0:0:0:
256,192,56892,1,8,0:0:0:0:
256,192,57064,1,8,0:0:0:0:
256,192,57150,1,8,0:0:0:0:
256,192,57237,1,0,0:0:0:0:
256,192,57409,1,0,0:0:0:0:
256,192,57581,1,8,0:0:0:0:
256,192,57668,1,0,0:0:0:0:
256,192,57754,1,8,0:0:0:0:
256,192,57840,1,8,0:0:0:0:
256,192,57926,1,0,0:0:0:0:
256,192,58099,1,0,0:0:0:0:
256,192,58185,1,0,0:0:0:0:
256,192,58271,1,8,0:0:0:0:
256,192,58443,1,8,0:0:0:0:
256,192,58616,1,0,0:0:0:0:
256,192,58788,1,8,0:0:0:0:
256,192,58875,1,0,0:0:0:0:
256,192,58961,1,8,0:0:0:0:
256,192,59133,1,8,0:0:0:0:
256,192,59478,1,0,0:0:0:0:
256,192,59650,1,8,0:0:0:0:
256,192,59823,1,0,0:0:0:0:
256,192,59909,1,8,0:0:0:0:
256,192,59995,1,8,0:0:0:0:
256,192,60168,1,0,0:0:0:0:
256,192,60340,1,8,0:0:0:0:
256,192,60512,1,0,0:0:0:0:
256,192,60599,1,0,0:0:0:0:
256,192,60685,1,8,0:0:0:0:
256,192,60857,1,0,0:0:0:0:
256,192,61030,1,8,0:0:0:0:
256,192,61202,1,0,0:0:0:0:
256,192,61288,1,8,0:0:0:0:
256,192,61375,1,0,0:0:0:0:
256,192,61547,1,0,0:0:0:0:
256,192,61719,1,8,0:0:0:0:
256,192,61806,1,8,0:0:0:0:
256,192,61892,1,8,0:0:0:0:
256,192,61978,1,8,0:0:0:0:
256,192,62064,1,0,0:0:0:0:
256,192,62237,1,0,0:0:0:0:
256,192,62409,1,8,0:0:0:0:
256,192,62581,1,8,0:0:0:0:
256,192,62668,1,8,0:0:0:0:
256,192,62754,1,0,0:0:0:0:
256,192,62926,1,0,0:0:0:0:
256,192,63099,1,8,0:0:0:0:
256,192,63185,1,8,0:0:0:0:
256,192,63271,1,0,0:0:0:0:
256,192,63357,1,0,0:0:0:0:
256,192,63443,1,8,0:0:0:0:
256,192,63616,1,0,0:0:0:0:
256,192,63702,1,0,0:0:0:0:
256,192,63788,1,8,0:0:0:0:
256,192,63961,1,8,0:0:0:0:
256,192,64133,1,0,0:0:0:0:
256,192,64219,1,8,0:0:0:0:
256,192,64306,1,0,0:0:0:0:
256,192,64392,1,0,0:0:0:0:
256,192,64478,1,8,0:0:0:0:
256,192,64650,1,8,0:0:0:0:
256,192,64823,1,4,0:0:0:0:
256,192,65168,1,8,0:0:0:0:
256,192,65340,1,4,0:0:0:0:
256,192,65685,1,0,0:0:0:0:
256,192,65771,1,0,0:0:0:0:
256,192,65857,1,8,0:0:0:0:
256,192,66030,1,4,0:0:0:0:
256,192,66375,1,8,0:0:0:0:
256,192,66547,1,8,0:0:0:0:
256,192,66719,1,4,0:0:0:0:
256,192,67064,1,8,0:0:0:0:
256,192,67150,1,8,0:0:0:0:
256,192,67237,1,8,0:0:0:0:
256,192,67409,1,8,0:0:0:0:
256,192,67581,1,4,0:0:0:0:
256,192,67926,1,8,0:0:0:0:
256,192,68099,1,0,0:0:0:0:
256,192,68185,1,8,0:0:0:0:
256,192,68271,1,0,0:0:0:0:
256,192,68443,1,0,0:0:0:0:
256,192,68616,1,8,0:0:0:0:
256,192,68702,1,8,0:0:0:0:
256,192,68788,1,0,0:0:0:0:
256,192,68875,1,8,0:0:0:0:
256,192,68961,1,0,0:0:0:0:
256,192,69133,1,0,0:0:0:0:
256,192,69219,1,0,0:0:0:0:
256,192,69306,1,8,0:0:0:0:
256,192,69478,1,0,0:0:0:0:
256,192,69650,1,8,0:0:0:0:
256,192,69737,1,0,0:0:0:0:
256,192,69823,1,0,0:0:0:0:
256,192,69909,1,0,0:0:0:0:
256,192,69995,1,8,0:0:0:0:
256,192,70168,1,0,0:0:0:0:
256,192,70340,1,8,0:0:0:0:
256,192,70685,1,8,0:0:0:0:
256,192,70857,1,0,0:0:0:0:
256,192,70943,1,0,0:0:0:0:
256,192,71030,1,0,0:0:0:0:
256,192,71202,1,0,0:0:0:0:
256,192,71375,1,8,0:0:0:0:
256,192,71547,1,0,0:0:0:0:
256,192,71719,1,8,0:0:0:0:
256,192,71806,1,8,0:0:0:0:
256,192,71892,1,8,0:0:0:0:
256,192,71978,1,8,0:0:0:0:
256,192,72064,1,0,0:0:0:0:
256,192,72237,1,8,0:0:0:0:
256,192,72323,1,8,0:0:0:0:
256,192,72409,1,0,0:0:0:0:
256,192,72581,1,0,0:0:0:0:
256,192,72668,1,0,0:0:0:0:
256,192,72754,1,8,0:0:0:0:
256,192,72926,1,8,0:0:0:0:
256,192,73099,1,4,0:0:0:0:
256,192,73616,1,0,0:0:0:0:
256,192,73788,1,8,0:0:0:0:
256,192,73961,1,8,0:0:0:0:
256,192,74133,1,0,0:0:0:0:
256,192,74306,1,0,0:0:0:0:
256,192,74392,1,8,0:0:0:0:
256,192,74478,1,0,0:0:0:0:
256,192,74650,1,8,0:0:0:0:
256,192,74823,1,0,0:0:0:0:
256,192,74995,1,0,0:0:0:0:
256,192,75168,1,12,0:0:0:0:
256,192,75426,1,12,0:0:0:0:
256,192,75685,1,12,0:0:0:0:
256,192,75857,1,4,0:0:0:0:
256,192,76202,1,0,0:0:0:0:
256,192,76375,1,8,0:0:0:0:
256,192,76547,1,0,0:0:0:0:
256,192,76719,1,0,0:0:0:0:
256,192,76806,1,0,0:0:0:0:
256,192,76892,1,8,0:0:0:0:
256,192,77064,1,8,0:0:0:0:
256,192,77237,1,0,0:0:0:0:
256,192,77495,1,8,0:0:0:0:
256,192,77581,1,8,0:0:0:0:
256,192,77754,1,4,0:0:0:0:
256,192,78099,1,0,0:0:0:0:
256,192,78271,1,8,0:0:0:0:
256,192,78357,1,8,0:0:0:0:
256,192,78443,1,8,0:0:0:0:
256,192,78616,1,4,0:0:0:0:
256,192,78961,1,0,0:0:0:0:
256,192,79133,1,8,0:0:0:0:
256,192,79219,1,8,0:0:0:0:
256,192,79306,1,0,0:0:0:0:
256,192,79478,1,8,0:0:0:0:
256,192,79650,1,0,0:0:0:0:
256,192,79823,1,8,0:0:0:0:
256,192,79909,1,0,0:0:0:0:
256,192,79995,1,8,0:0:0:0:
256,192,80168,1,8,0:0:0:0:
256,192,80340,1,0,0:0:0:0:
256,192,80512,1,8,0:0:0:0:
256,192,80599,1,8,0:0:0:0:
256,192,80685,1,0,0:0:0:0:
256,192,80857,1,0,0:0:0:0:
256,192,81030,1,8,0:0:0:0:
256,192,81116,1,8,0:0:0:0:
256,192,81202,1,0,0:0:0:0:
256,192,81288,1,0,0:0:0:0:
256,192,81375,1,8,0:0:0:0:
256,192,81547,1,0,0:0:0:0:
256,192,81719,1,8,0:0:0:0:
256,192,81892,1,0,0:0:0:0:
256,192,81978,1,0,0:0:0:0:
256,192,82064,1,8,0:0:0:0:
256,192,82237,1,8,0:0:0:0:
256,192,82409,1,0,0:0:0:0:
256,192,82495,1,0,0:0:0:0:
256,192,82581,1,8,0:0:0:0:
256,192,82668,1,8,0:0:0:0:
256,192,82754,1,0,0:0:0:0:
256,192,82926,1,8,0:0:0:0:
256,192,83099,1,0,0:0:0:0:
256,192,83271,1,8,0:0:0:0:
256,192,83357,1,8,0:0:0:0:
256,192,83443,1,0,0:0:0:0:
256,192,83616,1,0,0:0:0:0:
256,192,83702,1,0,0:0:0:0:
256,192,83788,1,8,0:0:0:0:
256,192,83875,1,8,0:0:0:0:
256,192,83961,1,8,0:0:0:0:
256,192,84047,1,8,0:0:0:0:
256,192,84133,1,0,0:0:0:0:
256,192,84478,1,8,0:0:0:0:
256,192,84650,1,0,0:0:0:0:
256,192,84737,1,0,0:0:0:0:
256,192,84823,1,8,0:0:0:0:
256,192,84995,1,0,0:0:0:0:
256,192,85168,1,8,0:0:0:0:
256,192,85340,1,4,0:0:0:0:
256,192,85685,1,0,0:0:0:0:
256,192,85857,1,8,0:0:0:0:
256,192,86030,1,0,0:0:0:0:
256,192,86116,1,0,0:0:0:0:
256,192,86202,1,8,0:0:0:0:
256,192,86288,1,8,0:0:0:0:
256,192,86375,1,0,0:0:0:0:
256,192,86461,1,0,0:0:0:0:
256,192,86547,1,8,0:0:0:0:
256,192,86892,1,12,0:0:0:0:
256,192,87064,1,0,0:0:0:0:
256,192,87237,1,0,0:0:0:0:
256,192,87409,1,12,0:0:0:0:
256,192,87581,1,0,0:0:0:0:
256,192,87754,1,0,0:0:0:0:
256,192,87926,1,12,0:0:0:0:
256,192,88271,1,12,0:0:0:0:
256,192,88443,1,0,0:0:0:0:
256,192,88530,1,0,0:0:0:0:
256,192,88616,1,8,0:0:0:0:
256,192,88788,1,4,0:0:0:0:
256,192,89133,1,0,0:0:0:0:
256,192,89306,1,8,0:0:0:0:
256,192,89478,1,8,0:0:0:0:
256,192,89650,1,4,0:0:0:0:
256,192,90168,1,8,0:0:0:0:
256,192,90340,1,0,0:0:0:0:
256,192,90512,1,8,0:0:0:0:
256,192,90857,1,8,0:0:0:0:
256,192,91030,1,0,0:0:0:0:
256,192,91202,1,8,0:0:0:0:
256,192,91547,1,8,0:0:0:0:
256,192,91719,1,0,0:0:0:0:
256,192,91892,1,8,0:0:0:0:
256,192,92237,1,8,0:0:0:0:
256,192,92409,1,0,0:0:0:0:
256,192,92581,1,8,0:0:0:0:
256,192,92754,1,8,0:0:0:0:
256,192,92926,1,8,0:0:0:0:
256,192,93099,1,0,0:0:0:0:
256,192,93271,1,8,0:0:0:0:
256,192,93616,1,8,0:0:0:0:
256,192,93788,1,0,0:0:0:0:
256,192,93961,1,8,0:0:0:0:
256,192,94133,1,8,0:0:0:0:
256,192,94306,1,8,0:0:0:0:
256,192,94478,1,8,0:0:0:0:
256,192,94650,1,0,0:0:0:0:
256,192,94737,1,0,0:0:0:0:
256,192,94823,1,8,0:0:0:0:
256,192,95168,1,4,0:0:0:0:
256,192,95685,1,0,0:0:0:0:
256,192,95857,1,8,0:0:0:0:
256,192,96202,1,0,0:0:0:0:
256,192,96375,1,0,0:0:0:0:
256,192,96547,1,8,0:0:0:0:
256,192,96719,1,8,0:0:0:0:
256,192,96806,1,8,0:0:0:0:
256,192,96892,1,0,0:0:0:0:
256,192,97064,1,0,0:0:0:0:
256,192,97237,1,8,0:0:0:0:
256,192,97754,1,8,0:0:0:0:
256,192,97926,1,0,0:0:0:0:
256,192,98099,1,0,0:0:0:0:
256,192,98443,1,0,0:0:0:0:
256,192,98616,1,8,0:0:0:0:
256,192,98961,1,0,0:0:0:0:
256,192,99133,1,0,0:0:0:0:
256,192,99219,1,0,0:0:0:0:
256,192,99306,1,8,0:0:0:0:
256,192,99478,1,0,0:0:0:0:
256,192,99650,1,12,0:0:0:0:
256,192,99995,1,0,0:0:0:0:
256,192,100168,1,0,0:0:0:0:
256,192,100340,1,0,0:0:0:0:
256,192,100685,1,4,0:0:0:0:
256,192,101030,1,0,0:0:0:0:
256,192,101202,1,8,0:0:0:0:
256,192,101288,1,0,0:0:0:0:
256,192,101375,1,8,0:0:0:0:
256,192,101547,1,8,0:0:0:0:
256,192,101719,1,0,0:0:0:0:
256,192,101892,1,0,0:0:0:0:
256,192,101978,1,0,0:0:0:0:
256,192,102064,1,8,0:0:0:0:
256,192,102237,1,8,0:0:0:0:
256,192,102409,1,0,0:0:0:0:
256,192,102581,1,8,0:0:0:0:
256,192,102668,1,8,0:0:0:0:
256,192,102754,1,0,0:0:0:0:
256,192,102926,1,0,0:0:0:0:
256,192,103099,1,8,0:0:0:0:
256,192,103185,1,8,0:0:0:0:
256,192,103271,1,0,0:0:0:0:
256,192,103357,1,0,0:0:0:0:
256,192,103443,1,8,0:0:0:0:
256,192,103616,1,0,0:0:0:0:
256,192,103788,1,8,0:0:0:0:
256,192,103961,1,0,0:0:0:0:
256,192,104047,1,0,0:0:0:0:
256,192,104133,1,8,0:0:0:0:
256,192,104306,1,8,0:0:0:0:
256,192,104478,1,0,0:0:0:0:
256,192,104564,1,0,0:0:0:0:
256,192,104650,1,8,0:0:0:0:
256,192,104737,1,8,0:0:0:0:
256,192,104823,1,0,0:0:0:0:
256,192,104995,1,0,0:0:0:0:
256,192,105168,1,8,0:0:0:0:
256,192,105254,1,8,0:0:0:0:
256,192,105340,1,8,0:0:0:0:
256,192,105512,1,0,0:0:0:0:
256,192,105685,1,8,0:0:0:0:
256,192,105771,1,8,0:0:0:0:
256,192,105857,1,0,0:0:0:0:
256,192,105943,1,0,0:0:0:0:
256,192,106030,1,8,0:0:0:0:
256,192,106116,1,8,0:0:0:0:
256,192,106202,1,0,0:0:0:0:
256,192,106547,1,0,0:0:0:0:
256,192,106719,1,8,0:0:0:0:
256,192,106806,1,8,0:0:0:0:
256,192,106892,1,0,0:0:0:0:
256,192,107064,1,0,0:0:0:0:
256,192,107237,1,8,0:0:0:0:
256,192,107581,1,12,0:0:0:0:
256,192,107754,1,0,0:0:0:0:
256,192,107926,1,0,0:0:0:0:
256,192,108099,1,12,0:0:0:0:
256,192,108271,1,0,0:0:0:0:
256,192,108443,1,0,0:0:0:0:
256,192,108616,1,12,0:0:0:0:
256,192,108961,1,4,0:0:0:0:
256,192,109306,1,0,0:0:0:0:
256,192,109478,1,0,0:0:0:0:
256,192,109650,1,8,0:0:0:0:
256,192,109995,1,0,0:0:0:0:
256,192,110168,1,8,0:0:0:0:
256,192,110340,1,0,0:0:0:0:
256,192,110512,1,0,0:0:0:0:
256,192,110685,1,12,0:0:0:0:
256,192,111030,1,0,0:0:0:0:
256,192,111116,1,0,0:0:0:0:
256,192,111202,1,0,0:0:0:0:
256,192,111288,1,0,0:0:0:0:
256,192,111375,1,8,0:0:0:0:
256,192,111547,1,8,0:0:0:0:
256,192,111719,1,4,0:0:0:0:
256,192,112064,1,8,0:0:0:0:
256,192,112237,1,0,0:0:0:0:
256,192,112323,1,0,0:0:0:0:
256,192,112409,1,8,0:0:0:0:
256,192,112581,1,0,0:0:0:0:
256,192,112754,1,8,0:0:0:0:
256,192,112926,1,8,0:0:0:0:
256,192,113012,1,8,0:0:0:0:
256,192,113099,1,0,0:0:0:0:
256,192,113271,1,0,0:0:0:0:
256,192,113443,1,8,0:0:0:0:
256,192,113616,1,0,0:0:0:0:
256,192,113788,1,8,0:0:0:0:
256,192,113875,1,0,0:0:0:0:
256,192,113961,1,0,0:0:0:0:
256,192,114047,1,0,0:0:0:0:
256,192,114133,1,8,0:0:0:0:
256,192,114478,1,0,0:0:0:0:
256,192,114650,1,8,0:0:0:0:
256,192,114737,1,0,0:0:0:0:
256,192,114823,1,8,0:0:0:0:
256,192,114995,1,0,0:0:0:0:
256,192,115168,1,8,0:0:0:0:
256,192,115283,1,0,0:0:0:0:
256,192,115397,1,0,0:0:0:0:
256,192,115512,1,8,0:0:0:0:
256,192,115627,1,0,0:0:0:0:
256,192,115742,1,0,0:0:0:0:
256,192,115857,1,8,0:0:0:0:
256,192,116030,1,0,0:0:0:0:
256,192,116202,1,8,0:0:0:0:
256,192,116375,1,4,0:0:0:0:
256,192,116719,1,8,0:0:0:0:
256,192,116806,1,8,0:0:0:0:
256,192,116892,1,0,0:0:0:0:
256,192,116978,1,0,0:0:0:0:
256,192,117064,1,8,0:0:0:0:
256,192,117237,1,4,0:0:0:0:
256,192,117581,1,8,0:0:0:0:
256,192,117754,1,8,0:0:0:0:
256,192,117926,1,0,0:0:0:0:
256,192,118099,1,8,0:0:0:0:
256,192,118185,1,0,0:0:0:0:
256,192,118271,1,8,0:0:0:0:
256,192,118443,1,8,0:0:0:0:
256,192,118616,1,0,0:0:0:0:
256,192,118788,1,0,0:0:0:0:
256,192,118875,1,0,0:0:0:0:
256,192,118961,1,8,0:0:0:0:
256,192,119133,1,0,0:0:0:0:
256,192,119306,1,8,0:0:0:0:
256,192,119392,1,8,0:0:0:0:
256,192,119478,1,0,0:0:0:0:
256,192,119564,1,0,0:0:0:0:
256,192,119650,1,8,0:0:0:0:
256,192,119995,1,12,0:0:0:0:
256,192,120168,1,0,0:0:0:0:
256,192,120254,1,0,0:0:0:0:
256,192,120340,1,0,0:0:0:0:
256,192,120512,1,12,0:0:0:0:
256,192,120857,1,0,0:0:0:0:
256,192,120943,1,0,0:0:0:0:
256,192,121030,1,8,0:0:0:0:
256,192,121202,1,0,0:0:0:0:
256,192,121375,1,12,0:0:0:0:
256,192,121547,1,0,0:0:0:0:
256,192,121633,1,8,0:0:0:0:
256,192,121719,1,0,0:0:0:0:
256,192,121892,1,12,0:0:0:0:
256,192,122237,1,0,0:0:0:0:
256,192,122409,1,0,0:0:0:0:
256,192,122754,1,4,0:0:0:0:
256,192,123271,1,0,0:0:0:0:
256,192,123443,1,8,0:0:0:0:
256,192,123616,1,0,0:0:0:0:
256,192,123788,1,0,0:0:0:0:
256,192,123961,1,8,0:0:0:0:
256,192,124306,1,8,0:0:0:0:
256,192,124478,1,0,0:0:0:0:
256,192,124650,1,0,0:0:0:0:
256,192,124823,1,8,0:0:0:0:
256,192,124995,1,8,0:0:0:0:
256,192,125168,1,0,0:0:0:0:
256,192,125340,1,8,0:0:0:0:
256,192,125426,1,8,0:0:0:0:
256,192,125512,1,0,0:0:0:0:
256,192,125857,1,8,0:0:0:0:
256,192,126030,1,0,0:0:0:0:
256,192,126202,1,8,0:0:0:0:
256,192,126375,1,8,0:0:0:0:
256,192,126547,1,0,0:0:0:0:
256,192,126719,1,0,0:0:0:0:
256,192,127064,1,8,0:0:0:0:
256,192,127409,1,0,0:0:0:0:
256,192,127581,1,8,0:0:0:0:
256,192,127754,1,8,0:0:0:0:
256,192,127926,1,8,0:0:0:0:
256,192,128099,1,8,0:0:0:0:
256,192,128271,1,4,0:0:0:0:
256,192,128788,1,0,0:0:0:0:
256,192,128875,1,0,0:0:0:0:
256,192,128961,1,8,0:0:0:0:
256,192,129133,1,8,0:0:0:0:
256,192,129306,1,0,0:0:0:0:
256,192,129478,1,8,0:0:0:0:
256,192,129823,1,8,0:0:0:0:
256,192,129995,1,8,0:0:0:0:
256,192,130168,1,0,0:0:0:0:
256,192,130340,1,8,0:0:0:0:
256,192,130512,1,0,0:0:0:0:
256,192,130685,1,0,0:0:0:0:
256,192,130857,1,8,0:0:0:0:
256,192,130943,1,8,0:0:0:0:
256,192,131030,1,0,0:0:0:0:
256,192,131202,1,8,0:0:0:0:
256,192,131547,1,0,0:0:0:0:
256,192,131719,1,8,0:0:0:0:
256,192,131892,1,8,0:0:0:0:
256,192,132064,1,0,0:0:0:0:
256,192,132237,1,8,0:0:0:0:
256,192,132409,1,0,0:0:0:0:
256,192,132581,1,0,0:0:0:0:
256,192,132668,1,0,0:0:0:0:
256,192,132754,1,8,0:0:0:0:
256,192,133099,1,8,0:0:0:0:
256,192,133271,1,8,0:0:0:0:
256,192,133443,1,8,0:0:0:0:
256,192,133616,1,8,0:0:0:0:
256,192,133788,1,4,0:0:0:0:
256,192,134133,1,0,0:0:0:0:
256,192,134306,1,12,0:0:0:0:
256,192,134650,1,0,0:0:0:0:
256,192,134823,1,12,0:0:0:0:
256,192,135168,1,4,0:0:0:0:
256,192,135512,1,0,0:0:0:0:
256,192,135685,1,12,0:0:0:0:
256,192,135857,1,0,0:0:0:0:
256,192,136030,1,0,0:0:0:0:
256,192,136202,1,12,0:0:0:0:
256,192,136547,1,4,0:0:0:0:
256,192,136892,1,0,0:0:0:0:
256,192,137064,1,12,0:0:0:0:
256,192,137409,1,0,0:0:0:0:
256,192,137581,1,12,0:0:0:0:
256,192,137926,1,4,0:0:0:0:
256,192,138099,1,0,0:0:0:0:
256,192,138271,1,0,0:0:0:0:
256,192,138443,1,12,0:0:0:0:
256,192,138788,1,8,0:0:0:0:
256,192,138875,1,8,0:0:0:0:
256,192,138961,1,0,0:0:0:0:
256,192,139047,1,0,0:0:0:0:
256,192,139133,1,8,0:0:0:0:
256,192,139219,1,8,0:0:0:0:
256,192,139306,1,0,0:0:0:0:
256,192,139650,1,0,0:0:0:0:
256,192,139823,1,0,0:0:0:0:
256,192,139909,1,0,0:0:0:0:
256,192,139995,1,8,0:0:0:0:
256,192,140168,1,8,0:0:0:0:
256,192,140340,1,0,0:0:0:0:
256,192,140512,1,8,0:0:0:0:
256,192,140599,1,8,0:0:0:0:
256,192,140685,1,0,0:0:0:0:
256,192,140857,1,0,0:0:0:0:
256,192,140943,1,0,0:0:0:0:
256,192,141030,1,8,0:0:0:0:
256,192,141202,1,0,0:0:0:0:
256,192,141288,1,0,0:0:0:0:
256,192,141375,1,8,0:0:0:0:
256,192,141461,1,8,0:0:0:0:
256,192,141547,1,0,0:0:0:0:
256,192,141719,1,12,0:0:0:0:
256,192,142064,1,0,0:0:0:0:
256,192,142150,1,0,0:0:0:0:
256,192,142237,1,8,0:0:0:0:
256,192,142409,1,0,0:0:0:0:
256,192,142581,1,8,0:0:0:0:
256,192,142668,1,8,0:0:0:0:
256,192,142754,1,0,0:0:0:0:
256,192,142926,1,8,0:0:0:0:
256,192,143099,1,0,0:0:0:0:
256,192,143185,1,8,0:0:0:0:
256,192,143271,1,8,0:0:0:0:
256,192,143357,1,8,0:0:0:0:
256,192,143443,1,0,0:0:0:0:
256,192,144823,1,4,0:0:0:0:
256,192,146202,1,8,0:0:0:0:
256,192,147581,1,8,0:0:0:0:
256,192,148961,1,8,0:0:0:0:
256,192,149650,1,8,0:0:0:0:
256,192,150340,1,0,0:0:0:0:
256,192,151719,1,8,0:0:0:0:
256,192,153099,1,8,0:0:0:0:
256,192,154478,1,8,0:0:0:0:
256,192,155857,1,4,0:0:0:0:
256,192,157237,1,8,0:0:0:0:
256,192,158616,1,0,0:0:0:0:
256,192,159995,1,0,0:0:0:0:
256,192,160168,1,8,0:0:0:0:
256,192,160340,1,8,0:0:0:0:
256,192,160512,1,0,0:0:0:0:
256,192,160857,1,0,0:0:0:0:
256,192,161202,1,8,0:0:0:0:
256,192,161375,1,4,0:0:0:0:
256,192,162754,1,8,0:0:0:0:
256,192,164133,1,0,0:0:0:0:
256,192,165512,1,0,0:0:0:0:
256,192,166030,1,0,0:0:0:0:
256,192,166547,1,8,0:0:0:0:
256,192,166633,1,8,0:0:0:0:
256,192,166719,1,8,0:0:0:0:
256,192,166892,1,4,0:0:0:0:
256,192,167237,1,0,0:0:0:0:
256,192,167409,1,8,0:0:0:0:
256,192,167581,1,0,0:0:0:0:
256,192,167754,1,8,0:0:0:0:
256,192,167926,1,0,0:0:0:0:
256,192,168099,1,8,0:0:0:0:
256,192,168185,1,8,0:0:0:0:
256,192,168271,1,0,0:0:0:0:
256,192,168616,1,0,0:0:0:0:
256,192,168788,1,8,0:0:0:0:
256,192,168961,1,0,0:0:0:0:
256,192,169047,1,0,0:0:0:0:
256,192,169133,1,8,0:0:0:0:
256,192,169306,1,0,0:0:0:0:
256,192,169478,1,8,0:0:0:0:
256,192,169650,1,0,0:0:0:0:
256,192,169737,1,8,0:0:0:0:
256,192,169823,1,8,0:0:0:0:
256,192,169995,1,0,0:0:0:0:
256,192,170168,1,8,0:0:0:0:
256,192,170340,1,0,0:0:0:0:
256,192,170685,1,0,0:0:0:0:
256,192,170857,1,8,0:0:0:0:
256,192,170943,1,8,0:0:0:0:
256,192,171030,1,0,0:0:0:0:
256,192,171202,1,8,0:0:0:0:
256,192,171288,1,8,0:0:0:0:
256,192,171375,1,0,0:0:0:0:
256,192,171719,1,0,0:0:0:0:
256,192,171892,1,8,0:0:0:0:
256,192,171978,1,8,0:0:0:0:
256,192,172064,1,8,0:0:0:0:
256,192,172237,1,8,0:0:0:0:
256,192,172409,1,4,0:0:0:0:
256,192,172754,1,8,0:0:0:0:
256,192,172926,1,0,0:0:0:0:
256,192,173012,1,0,0:0:0:0:
256,192,173099,1,8,0:0:0:0:
256,192,173185,1,8,0:0:0:0:
256,192,173271,1,0,0:0:0:0:
256,192,173443,1,8,0:0:0:0:
256,192,173616,1,4,0:0:0:0:
256,192,173961,1,8,0:0:0:0:
256,192,174133,1,0,0:0:0:0:
256,192,174306,1,8,0:0:0:0:
256,192,174478,1,0,0:0:0:0:
256,192,174564,1,8,0:0:0:0:
256,192,174650,1,0,0:0:0:0:
256,192,174737,1,0,0:0:0:0:
256,192,174823,1,8,0:0:0:0:
256,192,175168,1,4,0:0:0:0:
256,192,175340,1,8,0:0:0:0:
256,192,175512,1,0,0:0:0:0:
256,192,175685,1,12,0:0:0:0:
256,192,176030,1,0,0:0:0:0:
256,192,176202,1,8,0:0:0:0:
256,192,176375,1,0,0:0:0:0:
256,192,176461,1,0,0:0:0:0:
256,192,176547,1,8,0:0:0:0:
256,192,176633,1,8,0:0:0:0:
256,192,176719,1,0,0:0:0:0:
256,192,176892,1,8,0:0:0:0:
256,192,177064,1,0,0:0:0:0:
256,192,177150,1,0,0:0:0:0:
256,192,177237,1,8,0:0:0:0:
256,192,177495,1,8,0:0:0:0:
256,192,177754,1,8,0:0:0:0:
256,192,177926,1,4,0:0:0:0:
256,192,178271,1,8,0:0:0:0:
256,192,178443,1,8,0:0:0:0:
256,192,178530,1,8,0:0:0:0:
256,192,178616,1,0,0:0:0:0:
256,192,178788,1,0,0:0:0:0:
256,192,178961,1,8,0:0:0:0:
256,192,179047,1,0,0:0:0:0:
256,192,179133,1,8,0:0:0:0:
256,192,179219,1,8,0:0:0:0:
256,192,179306,1,0,0:0:0:0:
256,192,179478,1,0,0:0:0:0:
256,192,179564,1,0,0:0:0:0:
256,192,179650,1,8,0:0:0:0:
256,192,179823,1,8,0:0:0:0:
256,192,179995,1,0,0:0:0:0:
256,192,180168,1,8,0:0:0:0:
256,192,180254,1,0,0:0:0:0:
256,192,180340,1,8,0:0:0:0:
256,192,180512,1,8,0:0:0:0:
256,192,180857,1,0,0:0:0:0:
256,192,181030,1,8,0:0:0:0:
256,192,181202,1,0,0:0:0:0:
256,192,181288,1,8,0:0:0:0:
256,192,181375,1,8,0:0:0:0:
256,192,181547,1,0,0:0:0:0:
256,192,181719,1,8,0:0:0:0:
256,192,181892,1,0,0:0:0:0:
256,192,181978,1,0,0:0:0:0:
256,192,182064,1,8,0:0:0:0:
256,192,182237,1,0,0:0:0:0:
256,192,182409,1,8,0:0:0:0:
256,192,182581,1,0,0:0:0:0:
256,192,182668,1,8,0:0:0:0:
256,192,182754,1,0,0:0:0:0:
256,192,182926,1,0,0:0:0:0:
256,192,183099,1,8,0:0:0:0:
256,192,183185,1,8,0:0:0:0:
256,192,183271,1,8,0:0:0:0:
256,192,183443,1,4,0:0:0:0:
256,192,183788,1,8,0:0:0:0:
256,192,183961,1,8,0:0:0:0:
256,192,184047,1,8,0:0:0:0:
256,192,184133,1,0,0:0:0:0:
256,192,184306,1,0,0:0:0:0:
256,192,184478,1,8,0:0:0:0:
256,192,184564,1,8,0:0:0:0:
256,192,184650,1,0,0:0:0:0:
256,192,184737,1,0,0:0:0:0:
256,192,184823,1,8,0:0:0:0:
256,192,184995,1,0,0:0:0:0:
256,192,185081,1,0,0:0:0:0:
256,192,185168,1,8,0:0:0:0:
256,192,185340,1,8,0:0:0:0:
256,192,185512,1,0,0:0:0:0:
256,192,185599,1,8,0:0:0:0:
256,192,185685,1,0,0:0:0:0:
256,192,185771,1,0,0:0:0:0:
256,192,185857,1,8,0:0:0:0:
256,192,186030,1,8,0:0:0:0:
256,192,186202,1,4,0:0:0:0:
256,192,186547,1,8,0:0:0:0:
256,192,186719,1,4,0:0:0:0:
256,192,187064,1,0,0:0:0:0:
256,192,187150,1,0,0:0:0:0:
256,192,187237,1,8,0:0:0:0:
256,192,187409,1,4,0:0:0:0:
256,192,187754,1,8,0:0:0:0:
256,192,187926,1,8,0:0:0:0:
256,192,188099,1,4,0:0:0:0:
256,192,188443,1,8,0:0:0:0:
256,192,188530,1,8,0:0:0:0:
256,192,188616,1,8,0:0:0:0:
256,192,188788,1,8,0:0:0:0:
256,192,188961,1,4,0:0:0:0:
256,192,189306,1,12,0:0:0:0:
256,192,189650,1,0,0:0:0:0:
256,192,189823,1,0,0:0:0:0:
256,192,189995,1,8,0:0:0:0:
256,192,190081,1,8,0:0:0:0:
256,192,190168,1,0,0:0:0:0:
256,192,190254,1,8,0:0:0:0:
256,192,190340,1,0,0:0:0:0:
256,192,190512,1,0,0:0:0:0:
256,192,190599,1,0,0:0:0:0:
256,192,190685,1,8,0:0:0:0:
256,192,190857,1,0,0:0:0:0:
256,192,191030,1,8,0:0:0:0:
256,192,191116,1,0,0:0:0:0:
256,192,191202,1,0,0:0:0:0:
256,192,191288,1,0,0:0:0:0:
256,192,191375,1,8,0:0:0:0:
256,192,191547,1,0,0:0:0:0:
256,192,191719,1,8,0:0:0:0:
256,192,192064,1,8,0:0:0:0:
256,192,192237,1,0,0:0:0:0:
256,192,192323,1,0,0:0:0:0:
256,192,192409,1,0,0:0:0:0:
256,192,192581,1,0,0:0:0:0:
256,192,192754,1,8,0:0:0:0:
256,192,192926,1,8,0:0:0:0:
256,192,193099,1,0,0:0:0:0:
256,192,193329,1,8,0:0:0:0:
256,192,193443,1,0,0:0:0:0:
256,192,193673,1,8,0:0:0:0:
256,192,193788,1,0,0:0:0:0:
256,192,193903,1,0,0:0:0:0:
256,192,194018,1,0,0:0:0:0:
256,192,194133,1,8,0:0:0:0:
256,192,194478,1,4,0:0:0:0:
256,192,194995,1,0,0:0:0:0:
256,192,195168,1,8,0:0:0:0:
256,192,195340,1,8,0:0:0:0:
256,192,195512,1,0,0:0:0:0:
256,192,195685,1,0,0:0:0:0:
256,192,195771,1,8,0:0:0:0:
256,192,195857,1,0,0:0:0:0:
256,192,196030,1,8,0:0:0:0:
256,192,196202,1,0,0:0:0:0:
256,192,196375,1,0,0:0:0:0:
256,192,196547,1,12,0:0:0:0:
256,192,196806,1,12,0:0:0:0:
256,192,197064,1,12,0:0:0:0:
256,192,197237,1,4,0:0:0:0:
256,192,197581,1,0,0:0:0:0:
256,192,197754,1,0,0:0:0:0:
256,192,197926,1,8,0:0:0:0:
256,192,198099,1,8,0:0:0:0:
256,192,198185,1,8,0:0:0:0:
256,192,198271,1,0,0:0:0:0:
256,192,198443,1,0,0:0:0:0:
256,192,198616,1,8,0:0:0:0:
256,192,198702,1,0,0:0:0:0:
256,192,198788,1,8,0:0:0:0:
256,192,198961,1,0,0:0:0:0:
256,192,199133,1,8,0:0:0:0:
256,192,199219,1,8,0:0:0:0:
256,192,199306,1,8,0:0:0:0:
256,192,199392,1,8,0:0:0:0:
256,192,199478,1,0,0:0:0:0:
256,192,199650,1,8,0:0:0:0:
256,192,199737,1,8,0:0:0:0:
256,192,199823,1,8,0:0:0:0:
256,192,199995,1,4,0:0:0:0:
256,192,200340,1,0,0:0:0:0:
256,192,200512,1,8,0:0:0:0:
256,192,200599,1,8,0:0:0:0:
256,192,200685,1,0,0:0:0:0:
256,192,200857,1,0,0:0:0:0:
256,192,201030,1,8,0:0:0:0:
256,192,201116,1,8,0:0:0:0:
256,192,201202,1,0,0:0:0:0:
256,192,201288,1,0,0:0:0:0:
256,192,201375,1,8,0:0:0:0:
256,192,201547,1,0,0:0:0:0:
256,192,201719,1,8,0:0:0:0:
256,192,201892,1,0,0:0:0:0:
256,192,201978,1,0,0:0:0:0:
256,192,202064,1,8,0:0:0:0:
256,192,202237,1,0,0:0:0:0:
256,192,202409,1,8,0:0:0:0:
256,192,202581,1,8,0:0:0:0:
256,192,202668,1,8,0:0:0:0:
256,192,202754,1,0,0:0:0:0:
256,192,202926,1,0,0:0:0:0:
256,192,203099,1,8,0:0:0:0:
256,192,203271,1,0,0:0:0:0:
256,192,203357,1,0,0:0:0:0:
256,192,203443,1,8,0:0:0:0:
256,192,203530,1,8,0:0:0:0:
256,192,203616,1,8,0:0:0:0:
256,192,203702,1,8,0:0:0:0:
256,192,203788,1,0,0:0:0:0:
256,192,203961,1,12,0:0:0:0:
256,192,205512,5,8,0:0:0:0:
256,192,205857,12,8,206719,0:0:0:0:
256,192,206892,5,4,0:0:0:0:
256,192,207237,1,8,0:0:0:0:
256,192,207409,1,0,0:0:0:0:
256,192,207581,1,8,0:0:0:0:
256,192,207754,1,0,0:0:0:0:
256,192,207840,1,0,0:0:0:0:
256,192,207926,1,8,0:0:0:0:
256,192,208099,1,8,0:0:0:0:
256,192,208185,1,8,0:0:0:0:
256,192,208271,1,0,0:0:0:0:
256,192,208443,1,0,0:0:0:0:
256,192,208616,1,8,0:0:0:0:
256,192,208788,1,0,0:0:0:0:
256,192,208961,1,8,0:0:0:0:
256,192,209133,1,0,0:0:0:0:
256,192,209219,1,0,0:0:0:0:
256,192,209306,1,8,0:0:0:0:
256,192,209392,1,8,0:0:0:0:
256,192,209478,1,8,0:0:0:0:
256,192,209564,1,8,0:0:0:0:
256,192,209650,1,0,0:0:0:0:
256,192,209995,1,8,0:0:0:0:
256,192,210168,1,0,0:0:0:0:
256,192,210340,1,8,0:0:0:0:
256,192,210512,1,0,0:0:0:0:
256,192,210599,1,0,0:0:0:0:
256,192,210685,1,8,0:0:0:0:
256,192,210857,1,8,0:0:0:0:
256,192,211030,1,0,0:0:0:0:
256,192,211116,1,0,0:0:0:0:
256,192,211202,1,0,0:0:0:0:
256,192,211288,1,0,0:0:0:0:
256,192,211375,1,8,0:0:0:0:
256,192,211547,1,0,0:0:0:0:
256,192,211719,1,12,0:0:0:0:
256,192,211978,1,12,0:0:0:0:
256,192,212237,1,12,0:0:0:0:
256,192,212409,1,4,0:0:0:0:
256,192,212754,1,8,0:0:0:0:
256,192,212926,1,0,0:0:0:0:
256,192,213012,1,8,0:0:0:0:
256,192,213099,1,0,0:0:0:0:
256,192,213271,1,0,0:0:0:0:
256,192,213443,1,8,0:0:0:0:
256,192,213616,1,8,0:0:0:0:
256,192,213702,1,8,0:0:0:0:
256,192,213788,1,0,0:0:0:0:
256,192,214133,1,8,0:0:0:0:
256,192,214306,1,0,0:0:0:0:
256,192,214392,1,0,0:0:0:0:
256,192,214478,1,8,0:0:0:0:
256,192,214564,1,8,0:0:0:0:
256,192,214650,1,0,0:0:0:0:
256,192,214823,1,8,0:0:0:0:
256,192,214995,1,0,0:0:0:0:
256,192,215081,1,0,0:0:0:0:
256,192,215168,1,8,0:0:0:0:
256,192,215340,1,0,0:0:0:0:
256,192,215512,1,8,0:0:0:0:
256,192,215685,1,0,0:0:0:0:
256,192,215771,1,0,0:0:0:0:
256,192,215857,1,0,0:0:0:0:
256,192,215943,1,0,0:0:0:0:
256,192,216030,1,8,0:0:0:0:
256,192,216116,1,8,0:0:0:0:
256,192,216202,1,0,0:0:0:0:
256,192,216375,1,12,0:0:0:0:
256,192,216719,1,0,0:0:0:0:
256,192,216892,1,8,0:0:0:0:
256,192,217064,1,4,0:0:0:0:
256,192,217409,1,0,0:0:0:0:
256,192,217495,1,0,0:0:0:0:
256,192,217581,1,8,0:0:0:0:
256,192,217754,1,8,0:0:0:0:
256,192,217926,1,4,0:0:0:0:
256,192,218271,1,12,0:0:0:0:
256,192,218616,1,8,0:0:0:0:
256,192,218788,1,0,0:0:0:0:
256,192,218875,1,0,0:0:0:0:
256,192,218961,1,8,0:0:0:0:
256,192,219133,1,8,0:0:0:0:
256,192,219219,1,8,0:0:0:0:
256,192,219306,1,0,0:0:0:0:
256,192,219478,1,0,0:0:0:0:
256,192,219650,1,8,0:0:0:0:
256,192,219737,1,0,0:0:0:0:
256,192,219823,1,8,0:0:0:0:
256,192,219995,1,8,0:0:0:0:
256,192,220168,1,0,0:0:0:0:
256,192,220254,1,0,0:0:0:0:
256,192,220340,1,8,0:0:0:0:
256,192,220426,1,8,0:0:0:0:
256,192,220512,1,8,0:0:0:0:
256,192,220599,1,8,0:0:0:0:
256,192,220685,1,0,0:0:0:0:
256,192,220857,1,0,0:0:0:0:
256,192,221030,1,8,0:0:0:0:
256,192,221202,1,0,0:0:0:0:
256,192,221288,1,0,0:0:0:0:
256,192,221375,1,8,0:0:0:0:
256,192,221547,1,0,0:0:0:0:
256,192,221719,1,8,0:0:0:0:
256,192,221806,1,8,0:0:0:0:
256,192,221892,1,8,0:0:0:0:
256,192,222064,1,0,0:0:0:0:
256,192,222150,1,0,0:0:0:0:
256,192,222237,1,0,0:0:0:0:
256,192,222323,1,0,0:0:0:0:
256,192,222409,1,8,0:0:0:0:
256,192,222581,1,0,0:0:0:0:
256,192,222754,1,12,0:0:0:0:
256,192,223012,1,12,0:0:0:0:
256,192,223271,1,12,0:0:0:0:
256,192,223443,1,4,0:0:0:0:
256,192,223788,1,8,0:0:0:0:
256,192,223961,1,0,0:0:0:0:
256,192,224047,1,0,0:0:0:0:
256,192,224133,1,8,0:0:0:0:
256,192,224219,1,8,0:0:0:0:
256,192,224306,1,0,0:0:0:0:
256,192,224478,1,8,0:0:0:0:
256,192,224650,1,0,0:0:0:0:
256,192,224737,1,0,0:0:0:0:
256,192,224823,1,8,0:0:0:0:
256,192,224995,1,0,0:0:0:0:
256,192,225168,1,8,0:0:0:0:
256,192,225254,1,8,0:0:0:0:
256,192,225340,1,0,0:0:0:0:
256,192,225426,1,8,0:0:0:0:
256,192,225512,1,0,0:0:0:0:
256,192,225685,1,0,0:0:0:0:
256,192,225857,1,8,0:0:0:0:
256,192,226030,1,0,0:0:0:0:
256,192,226116,1,0,0:0:0:0:
256,192,226202,1,8,0:0:0:0:
256,192,226375,1,0,0:0:0:0:
256,192,226461,1,0,0:0:0:0:
256,192,226547,1,0,0:0:0:0:
256,192,226633,1,0,0:0:0:0:
256,192,226719,1,8,0:0:0:0:
256,192,226892,1,8,0:0:0:0:
256,192,226978,1,8,0:0:0:0:
256,192,227064,1,0,0:0:0:0:
256,192,227150,1,0,0:0:0:0:
256,192,227237,1,8,0:0:0:0:
256,192,227409,1,4,0:0:0:0:
256,192,227754,1,0,0:0:0:0:
256,192,227926,1,8,0:0:0:0:
256,192,228099,1,4,0:0:0:0:
256,192,228271,1,8,0:0:0:0:
256,192,228357,1,8,0:0:0:0:
256,192,228443,1,8,0:0:0:0:
256,192,228530,1,8,0:0:0:0:
256,192,228616,1,0,0:0:0:0:
256,192,228788,1,8,0:0:0:0:
256,192,228875,1,8,0:0:0:0:
256,192,228961,1,0,0:0:0:0:
256,192,229306,1,8,0:0:0:0:
256,192,229478,1,8,0:0:0:0:
256,192,229823,1,8,0:0:0:0:
256,192,230340,1,0,0:0:0:0:
256,192,230685,1,8,0:0:0:0:
256,192,230857,1,8,0:0:0:0:
256,192,231202,1,8,0:0:0:0:
256,192,232352,1,8,0:0:0:0:
256,192,232409,1,8,0:0:0:0:
256,192,232581,12,0,237237,0:0:0:0:
