osu file format v14

[General]
AudioFilename: bouquet.mp3
AudioLeadIn: 0
PreviewTime: 76045
Countdown: 0
SampleSet: Soft
StackLeniency: 0.7
Mode: 0
LetterboxInBreaks: 0
WidescreenStoryboard: 1

[Editor]
Bookmarks: 21045,33545,41045,56045,71045,116045,151045,173545,188545,249795
DistanceSpacing: 0.9
BeatDivisor: 4
GridSize: 32
TimelineZoom: 2

[Metadata]
Title:bouquet
TitleUnicode:bouquet
Artist:ChouCho
ArtistUnicode:ChouCho
Creator:Kibbleru
Version:Kisses' Normal
Source:
Tags:ちょうちょ BetaStar Sotarks Kalibe -Nitrous Kisses
BeatmapID:1171498
BeatmapSetID:460580

[Difficulty]
HPDrainRate:4
CircleSize:3.5
OverallDifficulty:4.5
ApproachRate:5
SliderMultiplier:1.15
SliderTickRate:1

[Events]
//Background and Video events
0,0,"BG1.jpg",0,0
//Break Periods
2,108745,114845
2,188745,197345
//Storyboard Layer 0 (Background)
//Storyboard Layer 1 (Fail)
//Storyboard Layer 2 (Pass)
//Storyboard Layer 3 (Foreground)
Sprite,Foreground,Centre,"SB\dot.png",320,240 S,0,163545,,0.5 C,0,163545,,162,162,255 M,1,163545,164351,109,286,116,216 F,0,163545,164351,1,0
Sprite,Foreground,Centre,"SB\dot.png",320,240 S,0,163545,,0.5 C,0,163545,,162,162,255 M,1,163545,164351,109,286,54,242 F,0,163545,164351,1,0
Sprite,Foreground,Centre,"SB\dot.png",320,240 S,0,163545,,0.5 C,0,163545,,162,162,255 M,1,163545,164351,109,286,43,308 F,0,163545,164351,1,0
Sprite,Foreground,Centre,"SB\dot.png",320,240 S,0,163545,,0.5 C,0,163545,,162,162,255 M,1,163545,164351,109,286,92,354 F,0,163545,164351,1,0
Sprite,Foreground,Centre,"SB\dot.png",320,240 S,0,163545,,0.5 C,0,163545,,162,162,255 M,1,163545,164351,109,286,157,337 F,0,163545,164351,1,0
Sprite,Foreground,Centre,"SB\dot.png",320,240 S,0,163545,,0.5 C,0,163545,,162,162,255 M,1,163545,164351,109,286,178,273 F,0,163545,164351,1,0
Sprite,Foreground,Centre,"SB\dot.png",320,240 S,0,163545,,0.2 M,1,163545,164351,109,286,98,217 F,0,163545,164351,1,0
Sprite,Foreground,Centre,"SB\dot.png",320,240 S,0,163545,,0.2 M,1,163545,164351,109,286,52,279 F,0,163545,164351,1,0
Sprite,Foreground,Centre,"SB\dot.png",320,240 S,0,163545,,0.2 M,1,163545,164351,109,286,40,351 F,0,163545,164351,1,0
Sprite,Foreground,Centre,"SB\dot.png",320,240 S,0,163545,,0.2 M,1,163545,164351,109,286,68,327 F,0,163545,164351,1,0
Sprite,Foreground,Centre,"SB\dot.png",320,240 S,0,163545,,0.2 M,1,163545,164351,109,286,120,242 F,0,163545,164351,1,0
Sprite,Foreground,Centre,"SB\dot.png",320,240 S,0,163545,,0.2 M,1,163545,164351,109,286,166,222 F,0,163545,164351,1,0
Sprite,Foreground,Centre,"SB\dot.png",320,240 S,0,164170,,0.5 C,0,164170,,143,143,255 M,1,164170,164976,197,338,151,286 F,0,164170,164976,1,0
Sprite,Foreground,Centre,"SB\dot.png",320,240 S,0,164170,,0.5 C,0,164170,,143,143,255 M,1,164170,164976,197,338,128,349 F,0,164170,164976,1,0
Sprite,Foreground,Centre,"SB\dot.png",320,240 S,0,164170,,0.5 C,0,164170,,143,143,255 M,1,164170,164976,197,338,169,402 F,0,164170,164976,1,0
Sprite,Foreground,Centre,"SB\dot.png",320,240 S,0,164170,,0.5 C,0,164170,,143,143,255 M,1,164170,164976,197,338,236,396 F,0,164170,164976,1,0
Sprite,Foreground,Centre,"SB\dot.png",320,240 S,0,164170,,0.5 C,0,164170,,143,143,255 M,1,164170,164976,197,338,267,337 F,0,164170,164976,1,0
Sprite,Foreground,Centre,"SB\dot.png",320,240 S,0,164170,,0.5 C,0,164170,,143,143,255 M,1,164170,164976,197,338,234,279 F,0,164170,164976,1,0
Sprite,Foreground,Centre,"SB\dot.png",320,240 S,0,164170,,0.2 M,1,164170,164976,197,338,139,299 F,0,164170,164976,1,0
Sprite,Foreground,Centre,"SB\dot.png",320,240 S,0,164170,,0.2 M,1,164170,164976,197,338,128,384 F,0,164170,164976,1,0
Sprite,Foreground,Centre,"SB\dot.png",320,240 S,0,164170,,0.2 M,1,164170,164976,197,338,158,401 F,0,164170,164976,1,0
Sprite,Foreground,Centre,"SB\dot.png",320,240 S,0,164170,,0.2 M,1,164170,164976,197,338,211,324 F,0,164170,164976,1,0
Sprite,Foreground,Centre,"SB\dot.png",320,240 S,0,164170,,0.2 M,1,164170,164976,197,338,255,268 F,0,164170,164976,1,0
Sprite,Foreground,Centre,"SB\dot.png",320,240 S,0,164170,,0.2 M,1,164170,164976,197,338,266,316 F,0,164170,164976,1,0
Sprite,Foreground,Centre,"SB\dot.png",320,240 S,0,164638,,0.5 C,0,164638,,78,78,255 M,1,164638,165444,238,307,220,375 F,0,164638,165444,1,0
Sprite,Foreground,Centre,"SB\dot.png",320,240 S,0,164638,,0.5 C,0,164638,,78,78,255 M,1,164638,165444,238,307,285,359 F,0,164638,165444,1,0
Sprite,Foreground,Centre,"SB\dot.png",320,240 S,0,164638,,0.5 C,0,164638,,78,78,255 M,1,164638,165444,238,307,307,296 F,0,164638,165444,1,0
Sprite,Foreground,Centre,"SB\dot.png",320,240 S,0,164638,,0.5 C,0,164638,,78,78,255 M,1,164638,165444,238,307,266,243 F,0,164638,165444,1,0
Sprite,Foreground,Centre,"SB\dot.png",320,240 S,0,164638,,0.5 C,0,164638,,78,78,255 M,1,164638,165444,238,307,199,249 F,0,164638,165444,1,0
Sprite,Foreground,Centre,"SB\dot.png",320,240 S,0,164638,,0.5 C,0,164638,,78,78,255 M,1,164638,165444,238,307,168,309 F,0,164638,165444,1,0
Sprite,Foreground,Centre,"SB\dot.png",320,240 S,0,164638,,0.2 M,1,164638,165444,238,307,238,377 F,0,164638,165444,1,0
Sprite,Foreground,Centre,"SB\dot.png",320,240 S,0,164638,,0.2 M,1,164638,165444,238,307,287,325 F,0,164638,165444,1,0
Sprite,Foreground,Centre,"SB\dot.png",320,240 S,0,164638,,0.2 M,1,164638,165444,238,307,308,247 F,0,164638,165444,1,0
Sprite,Foreground,Centre,"SB\dot.png",320,240 S,0,164638,,0.2 M,1,164638,165444,238,307,288,257 F,0,164638,165444,1,0
Sprite,Foreground,Centre,"SB\dot.png",320,240 S,0,164638,,0.2 M,1,164638,165444,238,307,238,342 F,0,164638,165444,1,0
Sprite,Foreground,Centre,"SB\dot.png",320,240 S,0,164638,,0.2 M,1,164638,165444,238,307,189,375 F,0,164638,165444,1,0
Sprite,Foreground,Centre,"SB\dot.png",320,240 S,0,164795,,0.5 C,0,164795,,117,117,255 M,1,164795,165601,286,325,256,262 F,0,164795,165601,1,0
Sprite,Foreground,Centre,"SB\dot.png",320,240 S,0,164795,,0.5 C,0,164795,,117,117,255 M,1,164795,165601,286,325,217,316 F,0,164795,165601,1,0
Sprite,Foreground,Centre,"SB\dot.png",320,240 S,0,164795,,0.5 C,0,164795,,117,117,255 M,1,164795,165601,286,325,241,379 F,0,164795,165601,1,0
Sprite,Foreground,Centre,"SB\dot.png",320,240 S,0,164795,,0.5 C,0,164795,,117,117,255 M,1,164795,165601,286,325,307,392 F,0,164795,165601,1,0
Sprite,Foreground,Centre,"SB\dot.png",320,240 S,0,164795,,0.5 C,0,164795,,117,117,255 M,1,164795,165601,286,325,353,344 F,0,164795,165601,1,0
Sprite,Foreground,Centre,"SB\dot.png",320,240 S,0,164795,,0.5 C,0,164795,,117,117,255 M,1,164795,165601,286,325,338,278 F,0,164795,165601,1,0
Sprite,Foreground,Centre,"SB\dot.png",320,240 S,0,164795,,0.2 M,1,164795,165601,286,325,241,272 F,0,164795,165601,1,0
Sprite,Foreground,Centre,"SB\dot.png",320,240 S,0,164795,,0.2 M,1,164795,165601,286,325,216,355 F,0,164795,165601,1,0
Sprite,Foreground,Centre,"SB\dot.png",320,240 S,0,164795,,0.2 M,1,164795,165601,286,325,233,394 F,0,164795,165601,1,0
Sprite,Foreground,Centre,"SB\dot.png",320,240 S,0,164795,,0.2 M,1,164795,165601,286,325,280,331 F,0,164795,165601,1,0
Sprite,Foreground,Centre,"SB\dot.png",320,240 S,0,164795,,0.2 M,1,164795,165601,286,325,331,259 F,0,164795,165601,1,0
Sprite,Foreground,Centre,"SB\dot.png",320,240 S,0,164795,,0.2 M,1,164795,165601,286,325,356,285 F,0,164795,165601,1,0
Sprite,Foreground,Centre,"SB\dot.png",320,240 S,0,165420,,0.5 C,0,165420,,163,163,255 M,1,165420,166226,476,265,540,294 F,0,165420,166226,1,0
Sprite,Foreground,Centre,"SB\dot.png",320,240 S,0,165420,,0.5 C,0,165420,,163,163,255 M,1,165420,166226,476,265,535,227 F,0,165420,166226,1,0
Sprite,Foreground,Centre,"SB\dot.png",320,240 S,0,165420,,0.5 C,0,165420,,163,163,255 M,1,165420,166226,476,265,475,195 F,0,165420,166226,1,0
Sprite,Foreground,Centre,"SB\dot.png",320,240 S,0,165420,,0.5 C,0,165420,,163,163,255 M,1,165420,166226,476,265,417,228 F,0,165420,166226,1,0
Sprite,Foreground,Centre,"SB\dot.png",320,240 S,0,165420,,0.5 C,0,165420,,163,163,255 M,1,165420,166226,476,265,413,295 F,0,165420,166226,1,0
Sprite,Foreground,Centre,"SB\dot.png",320,240 S,0,165420,,0.5 C,0,165420,,163,163,255 M,1,165420,166226,476,265,467,334 F,0,165420,166226,1,0
Sprite,Foreground,Centre,"SB\dot.png",320,240 S,0,165420,,0.2 M,1,165420,166226,476,265,545,276 F,0,165420,166226,1,0
Sprite,Foreground,Centre,"SB\dot.png",320,240 S,0,165420,,0.2 M,1,165420,166226,476,265,533,201 F,0,165420,166226,1,0
Sprite,Foreground,Centre,"SB\dot.png",320,240 S,0,165420,,0.2 M,1,165420,166226,476,265,487,221 F,0,165420,166226,1,0
Sprite,Foreground,Centre,"SB\dot.png",320,240 S,0,165420,,0.2 M,1,165420,166226,476,265,435,306 F,0,165420,166226,1,0
Sprite,Foreground,Centre,"SB\dot.png",320,240 S,0,165420,,0.2 M,1,165420,166226,476,265,407,330 F,0,165420,166226,1,0
Sprite,Foreground,Centre,"SB\dot.png",320,240 S,0,165420,,0.2 M,1,165420,166226,476,265,419,258 F,0,165420,166226,1,0
Sprite,Foreground,Centre,"SB\dot.png",320,240 S,0,165732,,0.5 C,0,165732,,91,91,255 M,1,165732,166538,485,156,514,92 F,0,165732,166538,1,0
Sprite,Foreground,Centre,"SB\dot.png",320,240 S,0,165732,,0.5 C,0,165732,,91,91,255 M,1,165732,166538,485,156,447,97 F,0,165732,166538,1,0
Sprite,Foreground,Centre,"SB\dot.png",320,240 S,0,165732,,0.5 C,0,165732,,91,91,255 M,1,165732,166538,485,156,415,156 F,0,165732,166538,1,0
Sprite,Foreground,Centre,"SB\dot.png",320,240 S,0,165732,,0.5 C,0,165732,,91,91,255 M,1,165732,166538,485,156,447,215 F,0,165732,166538,1,0
Sprite,Foreground,Centre,"SB\dot.png",320,240 S,0,165732,,0.5 C,0,165732,,91,91,255 M,1,165732,166538,485,156,514,220 F,0,165732,166538,1,0
Sprite,Foreground,Centre,"SB\dot.png",320,240 S,0,165732,,0.5 C,0,165732,,91,91,255 M,1,165732,166538,485,156,554,166 F,0,165732,166538,1,0
Sprite,Foreground,Centre,"SB\dot.png",320,240 S,0,165732,,0.2 M,1,165732,166538,485,156,496,87 F,0,165732,166538,1,0
Sprite,Foreground,Centre,"SB\dot.png",320,240 S,0,165732,,0.2 M,1,165732,166538,485,156,444,127 F,0,165732,166538,1,0
Sprite,Foreground,Centre,"SB\dot.png",320,240 S,0,165732,,0.2 M,1,165732,166538,485,156,416,210 F,0,165732,166538,1,0
Sprite,Foreground,Centre,"SB\dot.png",320,240 S,0,165732,,0.2 M,1,165732,166538,485,156,428,213 F,0,165732,166538,1,0
Sprite,Foreground,Centre,"SB\dot.png",320,240 S,0,165732,,0.2 M,1,165732,166538,485,156,474,131 F,0,165732,166538,1,0
Sprite,Foreground,Centre,"SB\dot.png",320,240 S,0,165732,,0.2 M,1,165732,166538,485,156,526,86 F,0,165732,166538,1,0
Sprite,Foreground,Centre,"SB\dot.png",320,240 S,0,166045,,0.5 C,0,166045,,102,102,255 M,1,166045,166851,394,105,325,96 F,0,166045,166851,1,0
Sprite,Foreground,Centre,"SB\dot.png",320,240 S,0,166045,,0.5 C,0,166045,,102,102,255 M,1,166045,166851,394,105,349,159 F,0,166045,166851,1,0
Sprite,Foreground,Centre,"SB\dot.png",320,240 S,0,166045,,0.5 C,0,166045,,102,102,255 M,1,166045,166851,394,105,415,172 F,0,166045,166851,1,0
Sprite,Foreground,Centre,"SB\dot.png",320,240 S,0,166045,,0.5 C,0,166045,,102,102,255 M,1,166045,166851,394,105,461,124 F,0,166045,166851,1,0
Sprite,Foreground,Centre,"SB\dot.png",320,240 S,0,166045,,0.5 C,0,166045,,102,102,255 M,1,166045,166851,394,105,446,58 F,0,166045,166851,1,0
Sprite,Foreground,Centre,"SB\dot.png",320,240 S,0,166045,,0.5 C,0,166045,,102,102,255 M,1,166045,166851,394,105,383,36 F,0,166045,166851,1,0
Sprite,Foreground,Centre,"SB\dot.png",320,240 S,0,166045,,0.2 M,1,166045,166851,394,105,325,114 F,0,166045,166851,1,0
Sprite,Foreground,Centre,"SB\dot.png",320,240 S,0,166045,,0.2 M,1,166045,166851,394,105,352,174 F,0,166045,166851,1,0
Sprite,Foreground,Centre,"SB\dot.png",320,240 S,0,166045,,0.2 M,1,166045,166851,394,105,403,132 F,0,166045,166851,1,0
Sprite,Foreground,Centre,"SB\dot.png",320,240 S,0,166045,,0.2 M,1,166045,166851,394,105,450,49 F,0,166045,166851,1,0
Sprite,Foreground,Centre,"SB\dot.png",320,240 S,0,166045,,0.2 M,1,166045,166851,394,105,463,50 F,0,166045,166851,1,0
Sprite,Foreground,Centre,"SB\dot.png",320,240 S,0,166045,,0.2 M,1,166045,166851,394,105,436,132 F,0,166045,166851,1,0
Sprite,Foreground,Centre,"SB\dot.png",320,240 S,0,166513,,0.5 C,0,166513,,119,119,255 M,1,166513,167319,247,166,192,122 F,0,166513,167319,1,0
Sprite,Foreground,Centre,"SB\dot.png",320,240 S,0,166513,,0.5 C,0,166513,,119,119,255 M,1,166513,167319,247,166,181,188 F,0,166513,167319,1,0
Sprite,Foreground,Centre,"SB\dot.png",320,240 S,0,166513,,0.5 C,0,166513,,119,119,255 M,1,166513,167319,247,166,230,234 F,0,166513,167319,1,0
Sprite,Foreground,Centre,"SB\dot.png",320,240 S,0,166513,,0.5 C,0,166513,,119,119,255 M,1,166513,167319,247,166,295,217 F,0,166513,167319,1,0
Sprite,Foreground,Centre,"SB\dot.png",320,240 S,0,166513,,0.5 C,0,166513,,119,119,255 M,1,166513,167319,247,166,316,153 F,0,166513,167319,1,0
Sprite,Foreground,Centre,"SB\dot.png",320,240 S,0,166513,,0.5 C,0,166513,,119,119,255 M,1,166513,167319,247,166,274,101 F,0,166513,167319,1,0
Sprite,Foreground,Centre,"SB\dot.png",320,240 S,0,166513,,0.2 M,1,166513,167319,247,166,183,138 F,0,166513,167319,1,0
Sprite,Foreground,Centre,"SB\dot.png",320,240 S,0,166513,,0.2 M,1,166513,167319,247,166,182,221 F,0,166513,167319,1,0
Sprite,Foreground,Centre,"SB\dot.png",320,240 S,0,166513,,0.2 M,1,166513,167319,247,166,219,222 F,0,166513,167319,1,0
Sprite,Foreground,Centre,"SB\dot.png",320,240 S,0,166513,,0.2 M,1,166513,167319,247,166,272,141 F,0,166513,167319,1,0
Sprite,Foreground,Centre,"SB\dot.png",320,240 S,0,166513,,0.2 M,1,166513,167319,247,166,311,96 F,0,166513,167319,1,0
Sprite,Foreground,Centre,"SB\dot.png",320,240 S,0,166513,,0.2 M,1,166513,167319,247,166,312,155 F,0,166513,167319,1,0
Sprite,Foreground,Centre,"SB\dot.png",320,240 S,0,166670,,0.5 C,0,166670,,85,85,255 M,1,166670,167476,201,140,230,76 F,0,166670,167476,1,0
Sprite,Foreground,Centre,"SB\dot.png",320,240 S,0,166670,,0.5 C,0,166670,,85,85,255 M,1,166670,167476,201,140,163,81 F,0,166670,167476,1,0
Sprite,Foreground,Centre,"SB\dot.png",320,240 S,0,166670,,0.5 C,0,166670,,85,85,255 M,1,166670,167476,201,140,131,140 F,0,166670,167476,1,0
Sprite,Foreground,Centre,"SB\dot.png",320,240 S,0,166670,,0.5 C,0,166670,,85,85,255 M,1,166670,167476,201,140,163,199 F,0,166670,167476,1,0
Sprite,Foreground,Centre,"SB\dot.png",320,240 S,0,166670,,0.5 C,0,166670,,85,85,255 M,1,166670,167476,201,140,230,204 F,0,166670,167476,1,0
Sprite,Foreground,Centre,"SB\dot.png",320,240 S,0,166670,,0.5 C,0,166670,,85,85,255 M,1,166670,167476,201,140,270,150 F,0,166670,167476,1,0
Sprite,Foreground,Centre,"SB\dot.png",320,240 S,0,166670,,0.2 M,1,166670,167476,201,140,212,71 F,0,166670,167476,1,0
Sprite,Foreground,Centre,"SB\dot.png",320,240 S,0,166670,,0.2 M,1,166670,167476,201,140,160,111 F,0,166670,167476,1,0
Sprite,Foreground,Centre,"SB\dot.png",320,240 S,0,166670,,0.2 M,1,166670,167476,201,140,132,194 F,0,166670,167476,1,0
Sprite,Foreground,Centre,"SB\dot.png",320,240 S,0,166670,,0.2 M,1,166670,167476,201,140,144,197 F,0,166670,167476,1,0
Sprite,Foreground,Centre,"SB\dot.png",320,240 S,0,166670,,0.2 M,1,166670,167476,201,140,190,115 F,0,166670,167476,1,0
Sprite,Foreground,Centre,"SB\dot.png",320,240 S,0,166670,,0.2 M,1,166670,167476,201,140,242,70 F,0,166670,167476,1,0
Sprite,Foreground,Centre,"SB\dot.png",320,240 S,0,167138,,0.5 C,0,167138,,113,113,255 M,1,167138,167944,156,166,109,114 F,0,167138,167944,1,0
Sprite,Foreground,Centre,"SB\dot.png",320,240 S,0,167138,,0.5 C,0,167138,,113,113,255 M,1,167138,167944,156,166,87,178 F,0,167138,167944,1,0
Sprite,Foreground,Centre,"SB\dot.png",320,240 S,0,167138,,0.5 C,0,167138,,113,113,255 M,1,167138,167944,156,166,129,231 F,0,167138,167944,1,0
Sprite,Foreground,Centre,"SB\dot.png",320,240 S,0,167138,,0.5 C,0,167138,,113,113,255 M,1,167138,167944,156,166,196,224 F,0,167138,167944,1,0
Sprite,Foreground,Centre,"SB\dot.png",320,240 S,0,167138,,0.5 C,0,167138,,113,113,255 M,1,167138,167944,156,166,226,164 F,0,167138,167944,1,0
Sprite,Foreground,Centre,"SB\dot.png",320,240 S,0,167138,,0.5 C,0,167138,,113,113,255 M,1,167138,167944,156,166,192,106 F,0,167138,167944,1,0
Sprite,Foreground,Centre,"SB\dot.png",320,240 S,0,167138,,0.2 M,1,167138,167944,156,166,97,128 F,0,167138,167944,1,0
Sprite,Foreground,Centre,"SB\dot.png",320,240 S,0,167138,,0.2 M,1,167138,167944,156,166,88,213 F,0,167138,167944,1,0
Sprite,Foreground,Centre,"SB\dot.png",320,240 S,0,167138,,0.2 M,1,167138,167944,156,166,118,228 F,0,167138,167944,1,0
Sprite,Foreground,Centre,"SB\dot.png",320,240 S,0,167138,,0.2 M,1,167138,167944,156,166,171,151 F,0,167138,167944,1,0
Sprite,Foreground,Centre,"SB\dot.png",320,240 S,0,167138,,0.2 M,1,167138,167944,156,166,215,96 F,0,167138,167944,1,0
Sprite,Foreground,Centre,"SB\dot.png",320,240 S,0,167138,,0.2 M,1,167138,167944,156,166,224,145 F,0,167138,167944,1,0
Sprite,Foreground,Centre,"SB\dot.png",320,240 S,0,167607,,0.5 C,0,167607,,162,162,255 M,1,167607,168413,190,300,163,365 F,0,167607,168413,1,0
Sprite,Foreground,Centre,"SB\dot.png",320,240 S,0,167607,,0.5 C,0,167607,,162,162,255 M,1,167607,168413,190,300,230,358 F,0,167607,168413,1,0
Sprite,Foreground,Centre,"SB\dot.png",320,240 S,0,167607,,0.5 C,0,167607,,162,162,255 M,1,167607,168413,190,300,260,298 F,0,167607,168413,1,0
Sprite,Foreground,Centre,"SB\dot.png",320,240 S,0,167607,,0.5 C,0,167607,,162,162,255 M,1,167607,168413,190,300,226,240 F,0,167607,168413,1,0
Sprite,Foreground,Centre,"SB\dot.png",320,240 S,0,167607,,0.5 C,0,167607,,162,162,255 M,1,167607,168413,190,300,159,237 F,0,167607,168413,1,0
Sprite,Foreground,Centre,"SB\dot.png",320,240 S,0,167607,,0.5 C,0,167607,,162,162,255 M,1,167607,168413,190,300,120,292 F,0,167607,168413,1,0
Sprite,Foreground,Centre,"SB\dot.png",320,240 S,0,167607,,0.2 M,1,167607,168413,190,300,180,369 F,0,167607,168413,1,0
Sprite,Foreground,Centre,"SB\dot.png",320,240 S,0,167607,,0.2 M,1,167607,168413,190,300,232,327 F,0,167607,168413,1,0
Sprite,Foreground,Centre,"SB\dot.png",320,240 S,0,167607,,0.2 M,1,167607,168413,190,300,259,245 F,0,167607,168413,1,0
Sprite,Foreground,Centre,"SB\dot.png",320,240 S,0,167607,,0.2 M,1,167607,168413,190,300,246,244 F,0,167607,168413,1,0
Sprite,Foreground,Centre,"SB\dot.png",320,240 S,0,167607,,0.2 M,1,167607,168413,190,300,200,326 F,0,167607,168413,1,0
Sprite,Foreground,Centre,"SB\dot.png",320,240 S,0,167607,,0.2 M,1,167607,168413,190,300,148,369 F,0,167607,168413,1,0
Sprite,Foreground,Centre,"SB\dot.png",320,240 S,0,167920,,0.5 C,0,167920,,134,134,255 M,1,167920,168726,283,344,341,305 F,0,167920,168726,1,0
Sprite,Foreground,Centre,"SB\dot.png",320,240 S,0,167920,,0.5 C,0,167920,,134,134,255 M,1,167920,168726,283,344,281,274 F,0,167920,168726,1,0
Sprite,Foreground,Centre,"SB\dot.png",320,240 S,0,167920,,0.5 C,0,167920,,134,134,255 M,1,167920,168726,283,344,223,308 F,0,167920,168726,1,0
Sprite,Foreground,Centre,"SB\dot.png",320,240 S,0,167920,,0.5 C,0,167920,,134,134,255 M,1,167920,168726,283,344,220,375 F,0,167920,168726,1,0
Sprite,Foreground,Centre,"SB\dot.png",320,240 S,0,167920,,0.5 C,0,167920,,134,134,255 M,1,167920,168726,283,344,275,414 F,0,167920,168726,1,0
Sprite,Foreground,Centre,"SB\dot.png",320,240 S,0,167920,,0.5 C,0,167920,,134,134,255 M,1,167920,168726,283,344,337,388 F,0,167920,168726,1,0
Sprite,Foreground,Centre,"SB\dot.png",320,240 S,0,167920,,0.2 M,1,167920,168726,283,344,329,291 F,0,167920,168726,1,0
Sprite,Foreground,Centre,"SB\dot.png",320,240 S,0,167920,,0.2 M,1,167920,168726,283,344,278,286 F,0,167920,168726,1,0
Sprite,Foreground,Centre,"SB\dot.png",320,240 S,0,167920,,0.2 M,1,167920,168726,283,344,230,367 F,0,167920,168726,1,0
Sprite,Foreground,Centre,"SB\dot.png",320,240 S,0,167920,,0.2 M,1,167920,168726,283,344,213,414 F,0,167920,168726,1,0
Sprite,Foreground,Centre,"SB\dot.png",320,240 S,0,167920,,0.2 M,1,167920,168726,283,344,237,357 F,0,167920,168726,1,0
Sprite,Foreground,Centre,"SB\dot.png",320,240 S,0,167920,,0.2 M,1,167920,168726,283,344,288,281 F,0,167920,168726,1,0
Sprite,Foreground,Centre,"SB\dot.png",320,240 S,0,168545,,0.5 C,0,168545,,105,105,255 M,1,168545,169351,292,240,292,310 F,0,168545,169351,1,0
Sprite,Foreground,Centre,"SB\dot.png",320,240 S,0,168545,,0.5 C,0,168545,,105,105,255 M,1,168545,169351,292,240,351,278 F,0,168545,169351,1,0
Sprite,Foreground,Centre,"SB\dot.png",320,240 S,0,168545,,0.5 C,0,168545,,105,105,255 M,1,168545,169351,292,240,356,211 F,0,168545,169351,1,0
Sprite,Foreground,Centre,"SB\dot.png",320,240 S,0,168545,,0.5 C,0,168545,,105,105,255 M,1,168545,169351,292,240,302,171 F,0,168545,169351,1,0
Sprite,Foreground,Centre,"SB\dot.png",320,240 S,0,168545,,0.5 C,0,168545,,105,105,255 M,1,168545,169351,292,240,239,194 F,0,168545,169351,1,0
Sprite,Foreground,Centre,"SB\dot.png",320,240 S,0,168545,,0.5 C,0,168545,,105,105,255 M,1,168545,169351,292,240,225,260 F,0,168545,169351,1,0
Sprite,Foreground,Centre,"SB\dot.png",320,240 S,0,168545,,0.2 M,1,168545,169351,292,240,310,308 F,0,168545,169351,1,0
Sprite,Foreground,Centre,"SB\dot.png",320,240 S,0,168545,,0.2 M,1,168545,169351,292,240,353,240 F,0,168545,169351,1,0
Sprite,Foreground,Centre,"SB\dot.png",320,240 S,0,168545,,0.2 M,1,168545,169351,292,240,360,172 F,0,168545,169351,1,0
Sprite,Foreground,Centre,"SB\dot.png",320,240 S,0,168545,,0.2 M,1,168545,169351,292,240,327,205 F,0,168545,169351,1,0
Sprite,Foreground,Centre,"SB\dot.png",320,240 S,0,168545,,0.2 M,1,168545,169351,292,240,274,289 F,0,168545,169351,1,0
Sprite,Foreground,Centre,"SB\dot.png",320,240 S,0,168545,,0.2 M,1,168545,169351,292,240,231,301 F,0,168545,169351,1,0
Sprite,Foreground,Centre,"SB\dot.png",320,240 S,0,169170,,0.5 C,0,169170,,117,117,255 M,1,169170,169976,470,154,509,212 F,0,169170,169976,1,0
Sprite,Foreground,Centre,"SB\dot.png",320,240 S,0,169170,,0.5 C,0,169170,,117,117,255 M,1,169170,169976,470,154,540,153 F,0,169170,169976,1,0
Sprite,Foreground,Centre,"SB\dot.png",320,240 S,0,169170,,0.5 C,0,169170,,117,117,255 M,1,169170,169976,470,154,507,95 F,0,169170,169976,1,0
Sprite,Foreground,Centre,"SB\dot.png",320,240 S,0,169170,,0.5 C,0,169170,,117,117,255 M,1,169170,169976,470,154,440,91 F,0,169170,169976,1,0
Sprite,Foreground,Centre,"SB\dot.png",320,240 S,0,169170,,0.5 C,0,169170,,117,117,255 M,1,169170,169976,470,154,401,145 F,0,169170,169976,1,0
Sprite,Foreground,Centre,"SB\dot.png",320,240 S,0,169170,,0.5 C,0,169170,,117,117,255 M,1,169170,169976,470,154,425,208 F,0,169170,169976,1,0
Sprite,Foreground,Centre,"SB\dot.png",320,240 S,0,169170,,0.2 M,1,169170,169976,470,154,522,200 F,0,169170,169976,1,0
Sprite,Foreground,Centre,"SB\dot.png",320,240 S,0,169170,,0.2 M,1,169170,169976,470,154,540,115 F,0,169170,169976,1,0
Sprite,Foreground,Centre,"SB\dot.png",320,240 S,0,169170,,0.2 M,1,169170,169976,470,154,516,88 F,0,169170,169976,1,0
Sprite,Foreground,Centre,"SB\dot.png",320,240 S,0,169170,,0.2 M,1,169170,169976,470,154,466,158 F,0,169170,169976,1,0
Sprite,Foreground,Centre,"SB\dot.png",320,240 S,0,169170,,0.2 M,1,169170,169976,470,154,418,223 F,0,169170,169976,1,0
Sprite,Foreground,Centre,"SB\dot.png",320,240 S,0,169170,,0.2 M,1,169170,169976,470,154,400,185 F,0,169170,169976,1,0
Sprite,Foreground,Centre,"SB\dot.png",320,240 S,0,169326,,0.5 C,0,169326,,167,167,255 M,1,169326,170132,470,154,534,125 F,0,169326,170132,1,0
Sprite,Foreground,Centre,"SB\dot.png",320,240 S,0,169326,,0.5 C,0,169326,,167,167,255 M,1,169326,170132,470,154,480,85 F,0,169326,170132,1,0
Sprite,Foreground,Centre,"SB\dot.png",320,240 S,0,169326,,0.5 C,0,169326,,167,167,255 M,1,169326,170132,470,154,417,108 F,0,169326,170132,1,0
Sprite,Foreground,Centre,"SB\dot.png",320,240 S,0,169326,,0.5 C,0,169326,,167,167,255 M,1,169326,170132,470,154,403,174 F,0,169326,170132,1,0
Sprite,Foreground,Centre,"SB\dot.png",320,240 S,0,169326,,0.5 C,0,169326,,167,167,255 M,1,169326,170132,470,154,450,221 F,0,169326,170132,1,0
Sprite,Foreground,Centre,"SB\dot.png",320,240 S,0,169326,,0.5 C,0,169326,,167,167,255 M,1,169326,170132,470,154,516,207 F,0,169326,170132,1,0
Sprite,Foreground,Centre,"SB\dot.png",320,240 S,0,169326,,0.2 M,1,169326,170132,470,154,524,109 F,0,169326,170132,1,0
Sprite,Foreground,Centre,"SB\dot.png",320,240 S,0,169326,,0.2 M,1,169326,170132,470,154,477,90 F,0,169326,170132,1,0
Sprite,Foreground,Centre,"SB\dot.png",320,240 S,0,169326,,0.2 M,1,169326,170132,470,154,425,166 F,0,169326,170132,1,0
Sprite,Foreground,Centre,"SB\dot.png",320,240 S,0,169326,,0.2 M,1,169326,170132,470,154,400,224 F,0,169326,170132,1,0
Sprite,Foreground,Centre,"SB\dot.png",320,240 S,0,169326,,0.2 M,1,169326,170132,470,154,416,178 F,0,169326,170132,1,0
Sprite,Foreground,Centre,"SB\dot.png",320,240 S,0,169326,,0.2 M,1,169326,170132,470,154,463,97 F,0,169326,170132,1,0
Sprite,Foreground,Centre,"SB\dot.png",320,240 S,0,169951,,0.5 C,0,169951,,126,126,255 M,1,169951,170757,264,180,219,234 F,0,169951,170757,1,0
Sprite,Foreground,Centre,"SB\dot.png",320,240 S,0,169951,,0.5 C,0,169951,,126,126,255 M,1,169951,170757,264,180,285,247 F,0,169951,170757,1,0
Sprite,Foreground,Centre,"SB\dot.png",320,240 S,0,169951,,0.5 C,0,169951,,126,126,255 M,1,169951,170757,264,180,331,199 F,0,169951,170757,1,0
Sprite,Foreground,Centre,"SB\dot.png",320,240 S,0,169951,,0.5 C,0,169951,,126,126,255 M,1,169951,170757,264,180,316,133 F,0,169951,170757,1,0
Sprite,Foreground,Centre,"SB\dot.png",320,240 S,0,169951,,0.5 C,0,169951,,126,126,255 M,1,169951,170757,264,180,253,111 F,0,169951,170757,1,0
Sprite,Foreground,Centre,"SB\dot.png",320,240 S,0,169951,,0.5 C,0,169951,,126,126,255 M,1,169951,170757,264,180,200,152 F,0,169951,170757,1,0
Sprite,Foreground,Centre,"SB\dot.png",320,240 S,0,169951,,0.2 M,1,169951,170757,264,180,234,243 F,0,169951,170757,1,0
Sprite,Foreground,Centre,"SB\dot.png",320,240 S,0,169951,,0.2 M,1,169951,170757,264,180,288,225 F,0,169951,170757,1,0
Sprite,Foreground,Centre,"SB\dot.png",320,240 S,0,169951,,0.2 M,1,169951,170757,264,180,327,140 F,0,169951,170757,1,0
Sprite,Foreground,Centre,"SB\dot.png",320,240 S,0,169951,,0.2 M,1,169951,170757,264,180,330,114 F,0,169951,170757,1,0
Sprite,Foreground,Centre,"SB\dot.png",320,240 S,0,169951,,0.2 M,1,169951,170757,264,180,294,186 F,0,169951,170757,1,0
Sprite,Foreground,Centre,"SB\dot.png",320,240 S,0,169951,,0.2 M,1,169951,170757,264,180,240,249 F,0,169951,170757,1,0
Sprite,Foreground,Centre,"SB\dot.png",320,240 S,0,171045,,0.5 C,0,171045,,125,125,255 M,1,171045,171851,141,251,130,182 F,0,171045,171851,1,0
Sprite,Foreground,Centre,"SB\dot.png",320,240 S,0,171045,,0.5 C,0,171045,,125,125,255 M,1,171045,171851,141,251,77,223 F,0,171045,171851,1,0
Sprite,Foreground,Centre,"SB\dot.png",320,240 S,0,171045,,0.5 C,0,171045,,125,125,255 M,1,171045,171851,141,251,83,290 F,0,171045,171851,1,0
Sprite,Foreground,Centre,"SB\dot.png",320,240 S,0,171045,,0.5 C,0,171045,,125,125,255 M,1,171045,171851,141,251,142,321 F,0,171045,171851,1,0
Sprite,Foreground,Centre,"SB\dot.png",320,240 S,0,171045,,0.5 C,0,171045,,125,125,255 M,1,171045,171851,141,251,201,288 F,0,171045,171851,1,0
Sprite,Foreground,Centre,"SB\dot.png",320,240 S,0,171045,,0.5 C,0,171045,,125,125,255 M,1,171045,171851,141,251,204,221 F,0,171045,171851,1,0
Sprite,Foreground,Centre,"SB\dot.png",320,240 S,0,171045,,0.2 M,1,171045,171851,141,251,112,187 F,0,171045,171851,1,0
Sprite,Foreground,Centre,"SB\dot.png",320,240 S,0,171045,,0.2 M,1,171045,171851,141,251,76,262 F,0,171045,171851,1,0
Sprite,Foreground,Centre,"SB\dot.png",320,240 S,0,171045,,0.2 M,1,171045,171851,141,251,77,321 F,0,171045,171851,1,0
Sprite,Foreground,Centre,"SB\dot.png",320,240 S,0,171045,,0.2 M,1,171045,171851,141,251,116,276 F,0,171045,171851,1,0
Sprite,Foreground,Centre,"SB\dot.png",320,240 S,0,171045,,0.2 M,1,171045,171851,141,251,170,194 F,0,171045,171851,1,0
Sprite,Foreground,Centre,"SB\dot.png",320,240 S,0,171045,,0.2 M,1,171045,171851,141,251,206,197 F,0,171045,171851,1,0
Sprite,Foreground,Centre,"SB\dot.png",320,240 S,0,254795,,0.5 C,0,254795,,255,17,17 M,1,254795,255601,410,129,477,148 F,0,254795,255601,1,0
Sprite,Foreground,Centre,"SB\dot.png",320,240 S,0,254795,,0.5 C,0,254795,,255,17,17 M,1,254795,255601,410,129,462,82 F,0,254795,255601,1,0
Sprite,Foreground,Centre,"SB\dot.png",320,240 S,0,254795,,0.5 C,0,254795,,255,17,17 M,1,254795,255601,410,129,399,60 F,0,254795,255601,1,0
Sprite,Foreground,Centre,"SB\dot.png",320,240 S,0,254795,,0.5 C,0,254795,,255,17,17 M,1,254795,255601,410,129,346,101 F,0,254795,255601,1,0
Sprite,Foreground,Centre,"SB\dot.png",320,240 S,0,254795,,0.5 C,0,254795,,255,17,17 M,1,254795,255601,410,129,352,168 F,0,254795,255601,1,0
Sprite,Foreground,Centre,"SB\dot.png",320,240 S,0,254795,,0.5 C,0,254795,,255,17,17 M,1,254795,255601,410,129,411,199 F,0,254795,255601,1,0
Sprite,Foreground,Centre,"SB\dot.png",320,240 S,0,254795,,0.2 M,1,254795,255601,410,129,480,130 F,0,254795,255601,1,0
Sprite,Foreground,Centre,"SB\dot.png",320,240 S,0,254795,,0.2 M,1,254795,255601,410,129,460,62 F,0,254795,255601,1,0
Sprite,Foreground,Centre,"SB\dot.png",320,240 S,0,254795,,0.2 M,1,254795,255601,410,129,411,94 F,0,254795,255601,1,0
Sprite,Foreground,Centre,"SB\dot.png",320,240 S,0,254795,,0.2 M,1,254795,255601,410,129,361,178 F,0,254795,255601,1,0
Sprite,Foreground,Centre,"SB\dot.png",320,240 S,0,254795,,0.2 M,1,254795,255601,410,129,340,190 F,0,254795,255601,1,0
Sprite,Foreground,Centre,"SB\dot.png",320,240 S,0,254795,,0.2 M,1,254795,255601,410,129,360,111 F,0,254795,255601,1,0
Sprite,Foreground,Centre,"SB\dot.png",320,240 S,0,255420,,0.5 C,0,255420,,255,4,4 M,1,255420,256226,339,295,339,365 F,0,255420,256226,1,0
Sprite,Foreground,Centre,"SB\dot.png",320,240 S,0,255420,,0.5 C,0,255420,,255,4,4 M,1,255420,256226,339,295,398,333 F,0,255420,256226,1,0
Sprite,Foreground,Centre,"SB\dot.png",320,240 S,0,255420,,0.5 C,0,255420,,255,4,4 M,1,255420,256226,339,295,403,266 F,0,255420,256226,1,0
Sprite,Foreground,Centre,"SB\dot.png",320,240 S,0,255420,,0.5 C,0,255420,,255,4,4 M,1,255420,256226,339,295,349,226 F,0,255420,256226,1,0
Sprite,Foreground,Centre,"SB\dot.png",320,240 S,0,255420,,0.5 C,0,255420,,255,4,4 M,1,255420,256226,339,295,286,249 F,0,255420,256226,1,0
Sprite,Foreground,Centre,"SB\dot.png",320,240 S,0,255420,,0.5 C,0,255420,,255,4,4 M,1,255420,256226,339,295,272,315 F,0,255420,256226,1,0
Sprite,Foreground,Centre,"SB\dot.png",320,240 S,0,255420,,0.2 M,1,255420,256226,339,295,357,363 F,0,255420,256226,1,0
Sprite,Foreground,Centre,"SB\dot.png",320,240 S,0,255420,,0.2 M,1,255420,256226,339,295,400,295 F,0,255420,256226,1,0
Sprite,Foreground,Centre,"SB\dot.png",320,240 S,0,255420,,0.2 M,1,255420,256226,339,295,407,227 F,0,255420,256226,1,0
Sprite,Foreground,Centre,"SB\dot.png",320,240 S,0,255420,,0.2 M,1,255420,256226,339,295,374,260 F,0,255420,256226,1,0
Sprite,Foreground,Centre,"SB\dot.png",320,240 S,0,255420,,0.2 M,1,255420,256226,339,295,321,344 F,0,255420,256226,1,0
Sprite,Foreground,Centre,"SB\dot.png",320,240 S,0,255420,,0.2 M,1,255420,256226,339,295,278,356 F,0,255420,256226,1,0
Sprite,Foreground,Centre,"SB\dot.png",320,240 S,0,255732,,0.5 C,0,255732,,255,37,37 M,1,255732,256538,250,241,317,221 F,0,255732,256538,1,0
Sprite,Foreground,Centre,"SB\dot.png",320,240 S,0,255732,,0.5 C,0,255732,,255,37,37 M,1,255732,256538,250,241,269,174 F,0,255732,256538,1,0
Sprite,Foreground,Centre,"SB\dot.png",320,240 S,0,255732,,0.5 C,0,255732,,255,37,37 M,1,255732,256538,250,241,204,189 F,0,255732,256538,1,0
Sprite,Foreground,Centre,"SB\dot.png",320,240 S,0,255732,,0.5 C,0,255732,,255,37,37 M,1,255732,256538,250,241,181,252 F,0,255732,256538,1,0
Sprite,Foreground,Centre,"SB\dot.png",320,240 S,0,255732,,0.5 C,0,255732,,255,37,37 M,1,255732,256538,250,241,222,305 F,0,255732,256538,1,0
Sprite,Foreground,Centre,"SB\dot.png",320,240 S,0,255732,,0.5 C,0,255732,,255,37,37 M,1,255732,256538,250,241,289,299 F,0,255732,256538,1,0
Sprite,Foreground,Centre,"SB\dot.png",320,240 S,0,255732,,0.2 M,1,255732,256538,250,241,309,204 F,0,255732,256538,1,0
Sprite,Foreground,Centre,"SB\dot.png",320,240 S,0,255732,,0.2 M,1,255732,256538,250,241,266,174 F,0,255732,256538,1,0
Sprite,Foreground,Centre,"SB\dot.png",320,240 S,0,255732,,0.2 M,1,255732,256538,250,241,213,243 F,0,255732,256538,1,0
Sprite,Foreground,Centre,"SB\dot.png",320,240 S,0,255732,,0.2 M,1,255732,256538,250,241,182,309 F,0,255732,256538,1,0
Sprite,Foreground,Centre,"SB\dot.png",320,240 S,0,255732,,0.2 M,1,255732,256538,250,241,191,274 F,0,255732,256538,1,0
Sprite,Foreground,Centre,"SB\dot.png",320,240 S,0,255732,,0.2 M,1,255732,256538,250,241,234,190 F,0,255732,256538,1,0
Sprite,Foreground,Centre,"SB\dot.png",320,240 S,0,256045,,0.5 C,0,256045,,255,15,15 M,1,256045,256851,154,281,87,301 F,0,256045,256851,1,0
Sprite,Foreground,Centre,"SB\dot.png",320,240 S,0,256045,,0.5 C,0,256045,,255,15,15 M,1,256045,256851,154,281,134,348 F,0,256045,256851,1,0
Sprite,Foreground,Centre,"SB\dot.png",320,240 S,0,256045,,0.5 C,0,256045,,255,15,15 M,1,256045,256851,154,281,200,334 F,0,256045,256851,1,0
Sprite,Foreground,Centre,"SB\dot.png",320,240 S,0,256045,,0.5 C,0,256045,,255,15,15 M,1,256045,256851,154,281,223,271 F,0,256045,256851,1,0
Sprite,Foreground,Centre,"SB\dot.png",320,240 S,0,256045,,0.5 C,0,256045,,255,15,15 M,1,256045,256851,154,281,183,217 F,0,256045,256851,1,0
Sprite,Foreground,Centre,"SB\dot.png",320,240 S,0,256045,,0.5 C,0,256045,,255,15,15 M,1,256045,256851,154,281,116,222 F,0,256045,256851,1,0
Sprite,Foreground,Centre,"SB\dot.png",320,240 S,0,256045,,0.2 M,1,256045,256851,154,281,94,318 F,0,256045,256851,1,0
Sprite,Foreground,Centre,"SB\dot.png",320,240 S,0,256045,,0.2 M,1,256045,256851,154,281,138,348 F,0,256045,256851,1,0
Sprite,Foreground,Centre,"SB\dot.png",320,240 S,0,256045,,0.2 M,1,256045,256851,154,281,191,279 F,0,256045,256851,1,0
Sprite,Foreground,Centre,"SB\dot.png",320,240 S,0,256045,,0.2 M,1,256045,256851,154,281,222,213 F,0,256045,256851,1,0
Sprite,Foreground,Centre,"SB\dot.png",320,240 S,0,256045,,0.2 M,1,256045,256851,154,281,214,248 F,0,256045,256851,1,0
Sprite,Foreground,Centre,"SB\dot.png",320,240 S,0,256045,,0.2 M,1,256045,256851,154,281,170,332 F,0,256045,256851,1,0
Sprite,Foreground,Centre,"SB\dot.png",320,240 S,0,256670,,0.5 C,0,256670,,255,63,63 M,1,256670,257476,232,439,162,439 F,0,256670,257476,1,0
Sprite,Foreground,Centre,"SB\dot.png",320,240 S,0,256670,,0.5 C,0,256670,,255,63,63 M,1,256670,257476,232,439,194,498 F,0,256670,257476,1,0
Sprite,Foreground,Centre,"SB\dot.png",320,240 S,0,256670,,0.5 C,0,256670,,255,63,63 M,1,256670,257476,232,439,261,503 F,0,256670,257476,1,0
Sprite,Foreground,Centre,"SB\dot.png",320,240 S,0,256670,,0.5 C,0,256670,,255,63,63 M,1,256670,257476,232,439,301,449 F,0,256670,257476,1,0
Sprite,Foreground,Centre,"SB\dot.png",320,240 S,0,256670,,0.5 C,0,256670,,255,63,63 M,1,256670,257476,232,439,278,386 F,0,256670,257476,1,0
Sprite,Foreground,Centre,"SB\dot.png",320,240 S,0,256670,,0.5 C,0,256670,,255,63,63 M,1,256670,257476,232,439,212,372 F,0,256670,257476,1,0
Sprite,Foreground,Centre,"SB\dot.png",320,240 S,0,256670,,0.2 M,1,256670,257476,232,439,164,457 F,0,256670,257476,1,0
Sprite,Foreground,Centre,"SB\dot.png",320,240 S,0,256670,,0.2 M,1,256670,257476,232,439,197,509 F,0,256670,257476,1,0
Sprite,Foreground,Centre,"SB\dot.png",320,240 S,0,256670,,0.2 M,1,256670,257476,232,439,250,457 F,0,256670,257476,1,0
Sprite,Foreground,Centre,"SB\dot.png",320,240 S,0,256670,,0.2 M,1,256670,257476,232,439,293,378 F,0,256670,257476,1,0
Sprite,Foreground,Centre,"SB\dot.png",320,240 S,0,256670,,0.2 M,1,256670,257476,232,439,300,390 F,0,256670,257476,1,0
Sprite,Foreground,Centre,"SB\dot.png",320,240 S,0,256670,,0.2 M,1,256670,257476,232,439,267,474 F,0,256670,257476,1,0
Sprite,Foreground,Centre,"SB\dot.png",320,240 S,0,256982,,0.5 C,0,256982,,255,34,34 M,1,256982,257788,328,401,284,455 F,0,256982,257788,1,0
Sprite,Foreground,Centre,"SB\dot.png",320,240 S,0,256982,,0.5 C,0,256982,,255,34,34 M,1,256982,257788,328,401,350,467 F,0,256982,257788,1,0
Sprite,Foreground,Centre,"SB\dot.png",320,240 S,0,256982,,0.5 C,0,256982,,255,34,34 M,1,256982,257788,328,401,396,418 F,0,256982,257788,1,0
Sprite,Foreground,Centre,"SB\dot.png",320,240 S,0,256982,,0.5 C,0,256982,,255,34,34 M,1,256982,257788,328,401,379,353 F,0,256982,257788,1,0
Sprite,Foreground,Centre,"SB\dot.png",320,240 S,0,256982,,0.5 C,0,256982,,255,34,34 M,1,256982,257788,328,401,316,332 F,0,256982,257788,1,0
Sprite,Foreground,Centre,"SB\dot.png",320,240 S,0,256982,,0.5 C,0,256982,,255,34,34 M,1,256982,257788,328,401,263,374 F,0,256982,257788,1,0
Sprite,Foreground,Centre,"SB\dot.png",320,240 S,0,256982,,0.2 M,1,256982,257788,328,401,299,465 F,0,256982,257788,1,0
Sprite,Foreground,Centre,"SB\dot.png",320,240 S,0,256982,,0.2 M,1,256982,257788,328,401,353,445 F,0,256982,257788,1,0
Sprite,Foreground,Centre,"SB\dot.png",320,240 S,0,256982,,0.2 M,1,256982,257788,328,401,392,360 F,0,256982,257788,1,0
Sprite,Foreground,Centre,"SB\dot.png",320,240 S,0,256982,,0.2 M,1,256982,257788,328,401,393,336 F,0,256982,257788,1,0
Sprite,Foreground,Centre,"SB\dot.png",320,240 S,0,256982,,0.2 M,1,256982,257788,328,401,357,408 F,0,256982,257788,1,0
Sprite,Foreground,Centre,"SB\dot.png",320,240 S,0,256982,,0.2 M,1,256982,257788,328,401,303,470 F,0,256982,257788,1,0
Sprite,Foreground,Centre,"SB\dot.png",320,240 S,0,257295,,0.5 C,0,257295,,255,46,46 M,1,257295,258101,321,247,263,286 F,0,257295,258101,1,0
Sprite,Foreground,Centre,"SB\dot.png",320,240 S,0,257295,,0.5 C,0,257295,,255,46,46 M,1,257295,258101,321,247,322,317 F,0,257295,258101,1,0
Sprite,Foreground,Centre,"SB\dot.png",320,240 S,0,257295,,0.5 C,0,257295,,255,46,46 M,1,257295,258101,321,247,381,284 F,0,257295,258101,1,0
Sprite,Foreground,Centre,"SB\dot.png",320,240 S,0,257295,,0.5 C,0,257295,,255,46,46 M,1,257295,258101,321,247,384,217 F,0,257295,258101,1,0
Sprite,Foreground,Centre,"SB\dot.png",320,240 S,0,257295,,0.5 C,0,257295,,255,46,46 M,1,257295,258101,321,247,330,178 F,0,257295,258101,1,0
Sprite,Foreground,Centre,"SB\dot.png",320,240 S,0,257295,,0.5 C,0,257295,,255,46,46 M,1,257295,258101,321,247,267,202 F,0,257295,258101,1,0
Sprite,Foreground,Centre,"SB\dot.png",320,240 S,0,257295,,0.2 M,1,257295,258101,321,247,275,300 F,0,257295,258101,1,0
Sprite,Foreground,Centre,"SB\dot.png",320,240 S,0,257295,,0.2 M,1,257295,258101,321,247,326,305 F,0,257295,258101,1,0
Sprite,Foreground,Centre,"SB\dot.png",320,240 S,0,257295,,0.2 M,1,257295,258101,321,247,374,225 F,0,257295,258101,1,0
Sprite,Foreground,Centre,"SB\dot.png",320,240 S,0,257295,,0.2 M,1,257295,258101,321,247,391,177 F,0,257295,258101,1,0
Sprite,Foreground,Centre,"SB\dot.png",320,240 S,0,257295,,0.2 M,1,257295,258101,321,247,367,233 F,0,257295,258101,1,0
Sprite,Foreground,Centre,"SB\dot.png",320,240 S,0,257295,,0.2 M,1,257295,258101,321,247,316,310 F,0,257295,258101,1,0
//Storyboard Sound Samples

[TimingPoints]
1045,312.5,4,2,1,50,1,0
7451,-100,4,2,1,70,0,0
20420,-100,4,2,1,50,0,0
36045,-100,4,2,1,70,0,0
41045,-100,4,2,1,50,0,0
53545,-100,4,2,1,70,0,0
56045,-100,4,2,1,60,0,0
74638,-100,4,2,1,70,0,0
75420,-100,4,2,1,60,0,0
75732,-100,4,2,1,50,0,0
76045,-100,4,2,1,80,0,1
106045,-100,4,2,1,80,0,0
114795,-100,4,2,1,50,0,0
126045,-100,4,2,1,70,0,0
131045,-100,4,2,1,60,0,0
149638,-100,4,2,1,70,0,0
150420,-100,4,2,1,60,0,0
150732,-100,4,2,1,50,0,0
151045,-100,4,2,1,80,0,1
171045,-100,4,2,1,70,0,0
183857,-100,4,2,1,80,0,0
188545,-100,4,2,1,60,0,0
199482,-100,4,2,1,70,0,0
209795,-100,4,2,1,80,0,1
239795,-100,4,2,1,70,0,0
259638,-100,4,2,1,70,0,0

[Colours]
Combo1 : 235,160,217
Combo2 : 153,197,206
Combo3 : 148,56,203
Combo4 : 10,100,250
SliderTrackOverride : 17,89,115
SliderBorder : 133,127,210

[HitObjects]
23,336,1045,6,0,B|127:321|127:321|195:335,1,172.5,12|8,0:1|0:1,0:0:0:0:
290,374,1826,1,0,3:0:0:0:
290,374,1982,2,0,L|303:195,1,172.5,8|0,0:1|0:0,0:0:0:0:
213,153,2763,1,8,0:1:0:0:
213,153,2920,2,0,P|159:174|98:164,1,115,0|8,0:0|0:1,0:0:0:0:
147,69,3545,6,0,L|324:56,1,172.5,8|0,0:1|0:0,0:0:0:0:
328,161,4326,1,0,3:0:0:0:
328,161,4482,2,0,B|300:218|300:218|319:340,1,172.5,8|0,0:1|0:0,0:0:0:0:
419,355,5263,1,8,0:1:0:0:
419,355,5420,2,0,L|428:218,1,115,0|8,3:0|0:1,0:0:0:0:
407,138,6045,6,0,P|322:118|230:163,1,172.5,8|8,0:1|0:1,0:0:0:0:
211,246,6826,1,0,3:0:0:0:
211,246,6982,2,0,L|197:55,1,172.5,8|0,0:1|0:0,0:0:0:0:
292,29,7763,1,8,0:1:0:0:
292,29,7920,2,0,L|412:37,1,115,0|8,0:0|0:1,0:0:0:0:
477,112,8545,6,0,B|437:138|434:215|434:215|361:144|310:139|310:139|388:204|351:300,1,431.25,8|2,0:1|0:0,0:0:0:0:
354,288,11045,6,0,L|222:273,1,115,12|8,0:1|0:0,0:0:0:0:
150,222,11670,2,0,P|192:185|254:180,1,115,8|8,0:1|0:0,0:0:0:0:
345,140,12295,2,0,B|362:87|362:87|345:20,1,115,8|8,0:1|0:0,0:0:0:0:
304,1,12763,2,0,L|185:14,1,115,10|10,0:1|0:1,0:0:0:0:
138,21,13232,1,8,0:0:0:0:
36,44,13545,6,0,P|42:100|64:153,1,115,10|8,0:1|0:0,0:0:0:0:
89,199,14013,1,2,3:2:0:0:
140,195,14170,2,0,L|120:324,1,115,8|8,0:1|0:0,0:0:0:0:
195,384,14795,2,0,B|248:363|248:363|326:385,1,115,8|8,0:1|0:0,0:0:0:0:
346,350,15263,2,0,P|402:342|464:335,1,115,10|10,0:1|0:1,0:0:0:0:
504,308,15732,1,8,0:0:0:0:
476,207,16045,6,0,L|487:67,1,115,10|8,0:1|0:0,0:0:0:0:
457,48,16513,1,2,3:2:0:0:
406,61,16670,2,0,B|355:66|355:66|286:48,1,115,8|8,0:1|0:0,0:0:0:0:
206,98,17295,2,0,L|215:220,1,115,8|8,0:1|0:0,0:0:0:0:
192,259,17763,2,0,B|130:276|130:276|63:260,1,115,10|10,0:1|0:1,0:0:0:0:
30,247,18232,1,8,0:0:0:0:
13,144,18545,6,0,L|4:17,1,115,10|8,0:1|0:0,0:0:0:0:
104,56,19170,2,0,B|165:68|165:68|231:50,1,115,8|12,0:1|0:0,0:0:0:0:
313,17,19795,1,12,0:0:0:0:
380,95,20107,1,12,0:0:0:0:
476,56,20420,2,0,P|479:27|482:-7,2,57.5,4|0|8,0:3|0:0|0:0,0:0:0:0:
477,159,21045,6,0,L|486:275,1,115,10|8,0:1|0:0,0:0:0:0:
385,247,21670,2,0,B|358:238|358:238|323:236,2,57.5,8|8|10,0:1|0:1|0:0,0:0:0:0:
338,339,22295,2,0,L|219:346,1,115,8|8,0:1|0:0,0:0:0:0:
176,324,22763,2,0,P|119:311|61:317,1,115,8|8,0:1|0:1,0:0:0:0:
17,341,23232,1,10,0:0:0:0:
8,237,23545,6,0,L|17:117,1,115,10|8,0:1|0:0,0:0:0:0:
102,64,24170,1,8,0:1:0:0:
191,116,24482,2,0,L|194:173,1,57.5,10|0,0:0|0:0,0:0:0:0:
223,217,24795,2,0,L|213:356,1,115,8|8,0:1|0:0,0:0:0:0:
252,367,25263,2,0,P|311:350|379:359,1,115,8|8,0:1|0:1,0:0:0:0:
412,373,25732,1,10,0:0:0:0:
490,304,26045,6,0,L|498:190,1,115,10|8,0:1|0:0,0:0:0:0:
427,113,26670,2,0,L|367:120,2,57.5,8|8|10,0:1|0:1|0:0,0:0:0:0:
489,30,27295,2,0,P|435:15|369:24,1,115,10|8,0:1|0:0,0:0:0:0:
329,41,27763,2,0,B|272:51|272:51|205:37,1,115,10|8,0:1|0:1,0:0:0:0:
166,25,28232,2,0,L|97:34,1,57.5,10|0,0:0|3:2,0:0:0:0:
78,80,28545,6,0,L|84:205,1,115,10|8,0:1|0:0,0:0:0:0:
165,258,29170,2,0,B|223:248|223:248|291:262,1,115,8|12,0:1|0:0,0:0:0:0:
368,208,29795,1,8,0:1:0:0:
300,129,30107,1,8,0:0:0:0:
387,73,30420,2,0,L|457:80,2,57.5,0|10|8,3:2|0:1|0:0,0:0:0:0:
300,16,31045,6,0,B|235:29|235:29|181:21,1,115,10|8,0:1|0:0,0:0:0:0:
135,12,31513,1,2,3:2:0:0:
89,36,31670,2,0,L|95:164,1,115,8|10,0:1|0:0,0:0:0:0:
169,222,32295,2,0,L|163:352,1,115,10|8,0:1|0:0,0:0:0:0:
258,378,32920,2,0,B|289:380|289:380|314:373,2,57.5,8|8|10,0:1|0:1|0:0,0:0:0:0:
274,275,33545,6,0,L|404:280,1,115,12|10,0:1|0:1,0:0:0:0:
476,224,34170,2,0,B|490:163|490:163|484:100,1,115,10|10,0:1|0:0,0:0:0:0:
382,128,34795,1,10,0:1:0:0:
352,29,35107,1,10,0:0:0:0:
256,69,35420,2,0,L|173:76,1,57.5,10|8,0:1|0:1,0:0:0:0:
149,56,35732,2,0,L|86:61,1,57.5,12|0,0:0|0:0,0:0:0:0:
40,53,36045,6,0,B|58:104|58:104|47:178,1,115,12|8,0:1|0:0,0:0:0:0:
89,259,36670,2,0,L|203:267,1,115,8|10,0:1|0:0,0:0:0:0:
302,235,37295,2,0,L|292:115,1,115,8|8,0:1|0:0,0:0:0:0:
309,71,37763,2,0,B|371:88|371:88|443:79,1,115,8|10,0:1|0:1,0:0:0:0:
470,63,38232,1,10,0:0:0:0:
503,161,38545,6,0,L|496:297,1,115,8|12,0:1|0:0,0:0:0:0:
398,243,39170,2,0,L|405:379,1,115,8|12,0:1|0:0,0:0:0:0:
300,367,39795,1,8,0:1:0:0:
272,267,40107,1,12,0:0:0:0:
317,174,40420,2,0,L|325:114,2,57.5,12|8|8,0:0|0:0|0:1,0:0:0:0:
393,243,41045,6,0,L|514:233,1,115,10|8,0:1|0:0,0:0:0:0:
512,130,41670,1,8,0:1:0:0:
410,150,41982,1,10,0:0:0:0:
317,97,42295,2,0,B|259:111|259:111|205:102,1,115,8|8,0:1|0:0,0:0:0:0:
153,87,42763,1,8,0:1:0:0:
111,118,42920,2,0,L|118:238,1,115,2|10,3:2|0:0,0:0:0:0:
206,285,43545,6,0,B|265:273|265:273|340:288,1,115,10|8,0:1|0:0,0:0:0:0:
414,243,44170,1,0,0:0:0:0:
406,139,44482,1,10,0:0:0:0:
307,171,44795,2,0,B|289:119|289:119|310:42,1,115,8|8,0:1|0:0,0:0:0:0:
337,21,45263,2,0,L|195:30,1,115,8|8,0:1|0:1,0:0:0:0:
170,31,45732,1,10,0:0:0:0:
81,85,46045,6,0,B|100:134|100:134|82:202,1,115,10|8,0:1|0:0,0:0:0:0:
171,249,46670,2,0,L|186:186,2,57.5,0|8|10,0:0|0:1|0:0,0:0:0:0:
118,338,47295,2,0,L|243:331,1,115,10|8,0:1|0:0,0:0:0:0:
282,316,47763,2,0,B|270:268|270:268|288:192,1,115,10|8,0:1|0:1,0:0:0:0:
327,173,48232,2,0,L|320:115,1,57.5,10|0,0:0|3:2,0:0:0:0:
287,76,48545,6,0,P|235:98|166:90,1,115,10|8,0:1|0:0,0:0:0:0:
104,167,49170,2,0,L|120:302,1,115,0|12,0:0|0:0,0:0:0:0:
220,268,49795,1,8,0:1:0:0:
208,370,50107,1,8,0:0:0:0:
308,345,50420,2,0,L|315:287,2,57.5,0|10|8,3:2|0:1|0:0,0:0:0:0:
208,370,51045,6,0,L|61:354,1,115,10|8,0:1|0:0,0:0:0:0:
42,365,51513,1,2,3:2:0:0:
10,323,51670,2,0,B|28:269|28:269|16:202,1,115,8|10,0:1|0:0,0:0:0:0:
114,175,52295,2,0,L|128:48,1,115,10|8,0:1|0:0,0:0:0:0:
221,18,52920,2,0,B|249:8|249:8|284:13,2,57.5,8|8|10,0:1|0:1|0:0,0:0:0:0:
212,121,53545,5,10,0:1:0:0:
301,172,53857,1,8,0:0:0:0:
363,86,54170,2,0,B|423:73|423:73|495:92,1,115,12|8,0:1|0:1,0:0:0:0:
512,121,54638,1,0,3:2:0:0:
494,169,54795,6,0,L|487:226,2,57.5,8|8|8,0:0|0:0|0:1,0:0:0:0:
390,180,55420,2,0,L|396:237,1,57.5,8|8,0:0|0:3,0:0:0:0:
354,267,55732,2,0,L|360:324,1,57.5,4|8,0:3|0:1,0:0:0:0:
316,352,56045,6,0,B|242:316|158:366|158:366|86:337,1,230,12|8,0:1|0:0,0:0:0:0:
19,275,56982,2,0,L|13:213,1,57.5,0|8,0:0|0:0,0:0:0:0:
46,177,57295,2,0,L|62:25,1,115,8|0,0:1|0:0,0:0:0:0:
150,15,57920,2,0,B|181:8|181:8|222:21,2,57.5,8|8|8,0:0|0:1|0:1,0:0:0:0:
183,113,58545,6,0,P|292:95|412:89,1,230,12|8,0:1|0:0,0:0:0:0:
476,169,59482,2,0,L|465:237,1,57.5,8|8,0:1|0:3,0:0:0:0:
419,246,59795,2,0,L|432:381,1,115,8|8,0:1|0:1,0:0:0:0:
327,345,60420,2,0,B|297:337|297:337|250:343,1,57.5,8|8,0:0|0:1,0:0:0:0:
224,362,60732,2,0,B|197:365|197:365|167:357,1,57.5,8|8,0:1|0:1,0:0:0:0:
132,319,61045,6,0,B|91:253|141:183|141:183|90:177|63:126,1,230,12|8,0:1|0:0,0:0:0:0:
159,84,61982,2,0,L|243:79,1,57.5,8|8,0:1|0:0,0:0:0:0:
261,106,62295,2,0,B|310:120|310:120|392:109,1,115,8|0,0:1|0:0,0:0:0:0:
457,51,62920,2,0,P|478:105|465:160,1,115,8|8,0:0|0:1,0:0:0:0:
396,236,63545,6,0,P|284:220|169:252,1,230,12|8,0:1|0:0,0:0:0:0:
71,227,64482,2,0,B|66:196|66:196|75:155,1,57.5,8|8,0:1|0:3,0:0:0:0:
111,136,64795,2,0,L|179:143,2,57.5,0|8|0,0:0|0:0|0:0,0:0:0:0:
152,41,65420,2,0,L|12:28,1,115,8|8,0:0|0:1,0:0:0:0:
10,130,66045,6,0,B|-5:204|37:247|37:247|87:198|129:209,1,230,12|8,0:1|0:0,0:0:0:0:
215,267,66982,1,8,0:1:0:0:
288,193,67295,2,0,L|281:121,2,57.5,8|8|0,0:1|0:0|0:0,0:0:0:0:
322,231,67763,1,8,0:1:0:0:
366,203,67920,2,0,L|490:198,1,115,8|0,0:0|0:0,0:0:0:0:
500,96,68545,6,0,P|386:81|275:109,1,230,12|8,0:1|0:0,0:0:0:0:
213,191,69482,1,8,0:1:0:0:
141,115,69795,2,0,L|136:52,2,57.5,8|8|8,0:0|0:0|0:3,0:0:0:0:
61,181,70420,1,8,0:0:0:0:
71,283,70732,1,8,0:1:0:0:
170,310,71045,6,0,B|276:238|377:306|377:306|388:231|455:211,1,345,12|8,0:1|0:1,0:0:0:0:
366,149,72295,2,0,P|252:171|119:171,1,230,8|8,0:1|0:1,0:0:0:0:
46,124,73232,1,8,0:1:0:0:
256,192,73545,12,12,74795,0:1:0:0:
140,88,76045,6,0,P|195:101|270:101,1,115,12|8,0:1|0:0,0:0:0:0:
346,147,76670,2,0,P|375:140|405:134,2,57.5,8|10|8,0:1|0:1|0:0,0:0:0:0:
306,180,77138,2,0,B|296:228|296:228|307:299,1,115,10|10,0:1|0:1,0:0:0:0:
324,341,77607,1,8,0:0:0:0:
282,371,77763,2,0,L|163:360,1,115,2|10,3:2|0:1,0:0:0:0:
115,358,78232,1,8,0:0:0:0:
54,273,78545,6,0,L|68:150,1,115,8|8,0:1|0:0,0:0:0:0:
30,53,79170,2,0,P|91:49|137:73,1,115,8|8,0:1|0:0,0:0:0:0:
214,143,79795,2,0,B|271:157|271:157|352:140,1,115,8|8,0:1|0:0,0:0:0:0:
367,172,80263,2,0,L|376:46,1,115,10|10,0:1|0:1,0:0:0:0:
378,5,80732,1,8,0:0:0:0:
480,21,81045,6,0,L|488:152,1,115,8|8,0:1|0:0,0:0:0:0:
453,233,81670,2,0,L|447:307,2,57.5,8|10|8,0:1|0:1|0:0,0:0:0:0:
367,172,82295,2,0,P|316:157|239:163,1,115,8|8,0:1|0:0,0:0:0:0:
208,181,82763,2,0,B|197:238|197:238|213:315,1,115,10|10,0:1|0:1,0:0:0:0:
240,334,83232,1,8,0:0:0:0:
343,322,83545,6,0,L|478:308,1,115,8|10,0:1|0:0,0:0:0:0:
486,210,84170,2,0,P|435:193|368:194,1,115,10|10,0:1|0:0,0:0:0:0:
322,102,84795,2,0,L|312:39,2,57.5,10|8|10,0:1|0:1|0:0,0:0:0:0:
279,131,85263,2,0,B|255:173|255:173|270:268,1,115,8|8,0:1|0:1,0:0:0:0:
305,271,85732,2,0,L|294:343,1,57.5,10|0,0:0|3:2,0:0:0:0:
256,360,86045,6,0,P|201:348|126:354,1,115,12|8,0:1|0:0,0:0:0:0:
58,290,86670,2,0,L|-11:282,2,57.5,8|2|8,0:1|0:1|0:0,0:0:0:0:
93,252,87138,2,0,L|87:128,1,115,10|10,0:1|0:1,0:0:0:0:
118,95,87607,1,8,0:0:0:0:
164,117,87763,2,0,B|208:127|208:127|303:109,1,115,10|10,0:1|0:1,0:0:0:0:
322,89,88232,1,8,0:0:0:0:
248,15,88545,6,0,L|122:25,1,115,8|12,0:1|0:0,0:0:0:0:
106,122,89170,2,0,L|174:116,2,57.5,10|8|10,0:1|0:1|0:0,0:0:0:0:
62,94,89638,1,8,0:1:0:0:
34,193,89951,1,8,0:1:0:0:
34,193,90107,1,10,0:0:0:0:
105,268,90420,2,0,B|112:342,2,57.5,10|8|8,0:1|0:0|0:0,0:0:0:0:
195,218,91045,6,0,L|207:337,2,115,12|12|8,0:1|0:0|0:1,0:0:0:0:
124,142,91982,1,8,0:0:0:0:
124,142,92138,2,0,P|170:117|241:128,1,115,10|10,0:1|0:1,0:0:0:0:
278,143,92607,1,8,0:0:0:0:
308,184,92763,2,0,B|288:225|288:225|301:323,1,115,2|10,3:2|0:1,0:0:0:0:
307,344,93232,1,8,0:0:0:0:
409,328,93545,6,0,P|431:275|422:214,1,115,8|8,0:1|0:0,0:0:0:0:
349,146,94170,2,0,L|478:126,1,115,8|8,0:1|0:0,0:0:0:0:
403,42,94795,2,0,L|274:64,1,115,8|8,0:1|0:0,0:0:0:0:
243,83,95263,2,0,P|190:65|124:66,1,115,10|10,0:1|0:1,0:0:0:0:
81,79,95732,1,8,0:0:0:0:
25,166,96045,6,0,L|36:280,1,115,12|8,0:1|0:0,0:0:0:0:
131,320,96670,2,0,L|139:246,2,57.5,8|10|8,0:1|0:1|0:0,0:0:0:0:
164,359,97138,2,0,B|209:347|209:347|280:359,1,115,2|2,3:2|0:0,0:0:0:0:
323,335,97607,1,8,0:0:0:0:
311,284,97763,2,0,L|321:157,1,115,10|10,0:1|0:1,0:0:0:0:
326,117,98232,1,8,0:0:0:0:
236,64,98545,6,0,P|180:82|121:76,1,115,8|10,0:1|0:0,0:0:0:0:
56,155,99170,2,0,L|69:286,1,115,10|10,0:1|0:0,0:0:0:0:
100,309,99638,2,0,B|137:319|137:319|221:307,1,115,0|8,3:2|0:1,0:0:0:0:
256,279,100107,1,10,0:0:0:0:
299,311,100263,2,0,L|412:330,1,115,8|8,0:1|0:1,0:0:0:0:
463,322,100732,1,10,0:0:0:0:
428,224,101045,6,0,B|423:156|423:156|448:102,1,115,12|8,0:1|0:0,0:0:0:0:
358,46,101670,2,0,L|429:32,2,57.5,8|2|8,0:1|0:1|0:0,0:0:0:0:
316,76,102138,2,0,L|327:198,1,115,10|10,0:1|0:1,0:0:0:0:
306,238,102607,1,8,0:0:0:0:
334,281,102763,2,0,P|391:268|461:287,1,115,10|10,0:1|0:1,0:0:0:0:
489,306,103232,1,8,0:0:0:0:
501,203,103545,6,0,L|513:72,2,115,12|12|10,0:1|0:0|0:1,0:0:0:0:
407,158,104482,1,10,0:0:0:0:
407,158,104638,2,0,P|354:140|283:150,1,115,12|8,0:1|0:1,0:0:0:0:
248,166,105107,1,10,0:0:0:0:
157,217,105420,2,0,L|164:294,1,57.5,8|8,0:0|0:0,0:0:0:0:
211,289,105732,2,0,L|204:366,1,57.5,8|8,0:0|0:0,0:0:0:0:
243,382,106045,5,12,0:1:0:0:
256,192,106201,12,0,108545,0:0:0:0:
292,344,116045,6,0,L|313:231,1,115,12|8,0:1|0:1,0:0:0:0:
232,163,116670,2,0,L|222:100,2,57.5,0|0|8,0:0|0:0|0:1,0:0:0:0:
200,203,117138,1,8,0:0:0:0:
150,185,117295,2,0,B|105:170|105:170|19:177,1,115,8|8,0:1|0:1,0:0:0:0:
15,276,117920,2,0,B|60:291|60:291|146:284,1,115,8|8,0:1|0:1,0:0:0:0:
226,253,118545,6,0,L|215:377,1,115,8|8,0:1|0:1,0:0:0:0:
319,371,119170,1,8,0:1:0:0:
321,267,119482,1,8,0:1:0:0:
321,267,119638,2,0,B|365:245|365:245|437:259,1,115,8|8,0:0|0:0,0:0:0:0:
479,273,120107,1,0,0:0:0:0:
483,169,120420,2,0,L|361:145,1,115,8|8,0:1|0:1,0:0:0:0:
325,120,120888,1,8,0:0:0:0:
282,149,121045,6,0,B|298:193|298:193|289:267,2,115,8|8|8,0:1|0:1|0:1,0:0:0:0:
234,128,121826,2,0,L|120:149,1,115,8|0,0:0|3:2,0:0:0:0:
71,165,122295,1,8,0:1:0:0:
31,260,122607,1,8,0:1:0:0:
125,311,122920,1,8,0:1:0:0:
125,311,123076,2,0,L|266:302,1,115,8|8,0:0|0:3,0:0:0:0:
291,305,123545,5,8,0:1:0:0:
261,205,123857,1,8,0:1:0:0:
359,173,124170,1,0,0:0:0:0:
399,267,124482,2,0,L|420:346,1,57.5,8|0,0:3|0:0,0:0:0:0:
394,370,124795,1,10,0:1:0:0:
41,191,126045,6,0,P|102:182|156:180,1,115,12|8,0:1|0:0,0:0:0:0:
245,127,126670,2,0,L|258:65,2,57.5,8|8|8,0:1|0:1|0:0,0:0:0:0:
306,210,127295,2,0,B|284:255|284:255|292:343,1,115,8|8,0:1|0:0,0:0:0:0:
382,365,127920,1,0,0:0:0:0:
473,316,128232,1,8,0:0:0:0:
415,230,128545,6,0,L|430:103,1,115,12|8,0:1|0:0,0:0:0:0:
338,64,129170,2,0,L|330:6,2,57.5,10|8|8,0:1|0:1|0:0,0:0:0:0:
277,148,129795,2,0,L|263:227,2,57.5,12|0|8,0:1|0:0|0:0,0:0:0:0:
227,56,130420,2,0,L|151:62,1,57.5,8|8,0:0|0:3,0:0:0:0:
122,40,130732,2,0,L|46:46,1,57.5,4|8,0:3|0:1,0:0:0:0:
12,38,131045,6,0,P|61:144|33:261,1,230,12|8,0:1|0:0,0:0:0:0:
81,345,131982,2,0,L|149:340,1,57.5,8|8,0:1|0:0,0:0:0:0:
175,304,132295,2,0,L|289:313,1,115,8|0,0:1|0:0,0:0:0:0:
376,257,132920,2,0,B|406:261|406:261|437:280,2,57.5,8|8|0,0:0|0:1|0:0,0:0:0:0:
299,186,133545,6,0,P|186:203|56:212,1,230,12|8,0:1|0:0,0:0:0:0:
104,309,134482,2,0,L|176:311,1,57.5,8|8,0:1|0:0,0:0:0:0:
201,343,134795,2,0,B|257:333|257:333|332:344,1,115,8|0,0:1|0:0,0:0:0:0:
408,297,135420,2,0,B|404:271|404:271|411:238,1,57.5,8|8,0:1|0:1,0:0:0:0:
447,204,135732,2,0,B|453:173|453:173|449:147,1,57.5,0|8,0:1|0:1,0:0:0:0:
407,116,136045,6,0,B|350:101|275:142|275:142|290:101|266:49,1,230,12|8,0:1|0:0,0:0:0:0:
173,104,136982,2,0,L|168:180,1,57.5,8|8,0:3|0:3,0:0:0:0:
133,199,137295,2,0,L|143:335,1,115,8|0,0:1|0:0,0:0:0:0:
239,347,137920,2,0,P|295:335|352:332,1,115,8|0,0:0|0:0,0:0:0:0:
442,383,138545,6,0,B|479:298|402:242|402:242|441:159,1,230,8|8,0:1|0:0,0:0:0:0:
333,145,139482,2,0,L|325:87,1,57.5,8|8,0:1|0:0,0:0:0:0:
356,45,139795,2,0,B|384:34|384:34|419:37,2,57.5,8|8|8,0:1|0:0|0:1,0:0:0:0:
253,27,140420,2,0,L|178:17,2,57.5,8|8|4,0:3|0:3|0:3,0:0:0:0:
236,129,141045,6,0,B|205:258|284:227|241:360,1,230,12|8,0:1|0:0,0:0:0:0:
139,357,141982,2,0,L|133:299,1,57.5,8|8,0:1|0:0,0:0:0:0:
92,267,142295,2,0,L|105:139,1,115,8|0,0:1|0:0,0:0:0:0:
48,64,142920,2,0,P|101:46|163:66,1,115,8|0,0:0|0:0,0:0:0:0:
235,128,143545,6,0,P|354:123|469:104,1,230,12|8,0:1|0:0,0:0:0:0:
495,203,144482,2,0,L|500:286,1,57.5,8|8,0:0|0:0,0:0:0:0:
471,304,144795,1,12,0:0:0:0:
420,292,144951,2,0,B|330:313|266:234|266:234|267:305|203:344,1,287.5,0|8,0:0|0:1,0:0:0:0:
150,239,146045,6,0,B|85:186|121:98|121:98|75:100|21:126|21:126|21:85|0:30,1,345,12|8,0:1|0:1,0:0:0:0:
105,16,147295,2,0,P|184:44|199:124,2,172.5,8|2|8,0:1|0:0|0:1,0:0:0:0:
256,192,148545,12,12,149795,0:1:0:0:
15,86,151045,5,12,0:1:0:0:
64,176,151357,2,0,B|36:237|36:237|45:299,1,115,12|8,0:0|0:1,0:0:0:0:
109,363,151982,1,8,0:0:0:0:
109,363,152138,2,0,L|244:354,1,115,8|8,0:1|0:1,0:0:0:0:
275,350,152607,1,8,0:0:0:0:
258,247,152920,1,2,0:0:0:0:
360,233,153232,1,10,0:0:0:0:
378,334,153545,5,10,0:1:0:0:
275,350,153857,1,8,0:0:0:0:
275,350,154013,2,0,P|224:333|156:328,1,115,0|8,3:2|0:1,0:0:0:0:
112,338,154482,1,8,0:0:0:0:
82,238,154795,1,2,0:0:0:0:
82,238,154951,2,0,P|139:233|193:215,1,115,0|0,0:0|3:2,0:0:0:0:
238,188,155420,1,8,0:1:0:0:
187,97,155732,1,8,0:0:0:0:
287,72,156045,6,0,B|323:95|323:95|401:85,1,115,12|8,0:1|0:0,0:0:0:0:
439,179,156670,2,0,L|508:169,2,57.5,8|0|8,0:1|0:0|0:0,0:0:0:0:
387,268,157295,2,0,B|376:295|376:295|391:341,2,57.5,8|0|8,0:1|0:0|0:0,0:0:0:0:
299,213,157920,2,0,L|242:221,2,57.5,8|8|8,0:1|0:1|0:0,0:0:0:0:
356,126,158545,6,0,P|366:61|346:10,1,115,12|8,0:1|0:0,0:0:0:0:
252,74,159170,2,0,L|195:66,2,57.5,8|8|8,0:1|0:1|0:0,0:0:0:0:
210,169,159795,1,8,0:1:0:0:
210,169,159951,1,8,0:0:0:0:
289,234,160263,1,8,0:0:0:0:
356,155,160576,1,8,0:0:0:0:
356,155,160732,2,0,B|401:174|401:174|483:152,1,115,8|8,0:0|0:1,0:0:0:0:
458,53,161357,5,12,0:0:0:0:
362,12,161670,1,8,0:1:0:0:
270,59,161982,1,12,0:0:0:0:
270,59,162138,2,0,B|209:77|209:77|143:62,1,115,8|8,0:1|0:1,0:0:0:0:
108,51,162607,1,12,0:0:0:0:
111,152,162920,2,0,L|178:172,2,57.5,8|8|12,0:1|0:1|0:0,0:0:0:0:
44,231,163545,6,0,L|48:290,2,57.5,10|10|10,0:1|0:1|0:0,0:0:0:0:
132,283,164170,2,0,L|136:342,2,57.5,10|10|8,0:1|0:1|0:0,0:0:0:0:
173,252,164638,1,10,0:1:0:0:
221,270,164795,2,0,B|259:287|259:287|353:274,1,115,2|12,0:1|0:0,0:0:0:0:
411,210,165420,2,0,L|415:152,1,57.5,8|8,0:1|0:1,0:0:0:0:
420,101,165732,1,8,0:0:0:0:
329,50,166045,6,0,P|273:56|206:79,1,115,12|8,0:1|0:0,0:0:0:0:
182,111,166513,1,0,0:0:0:0:
136,85,166670,2,0,B|141:58|141:58|127:31,2,57.5,8|8|8,0:1|0:1|0:0,0:0:0:0:
91,111,167138,2,0,P|67:160|90:224,1,115,8|8,0:1|0:1,0:0:0:0:
125,245,167607,1,12,0:0:0:0:
218,289,167920,2,0,B|223:315|223:315|209:342,2,57.5,8|8|12,0:1|0:1|0:0,0:0:0:0:
227,185,168545,6,0,B|266:168|266:168|352:180,1,115,12|8,0:0|0:0,0:0:0:0:
405,99,169170,1,8,0:0:0:0:
405,99,169326,2,0,L|290:79,1,115,8|8,0:0|0:0,0:0:0:0:
199,125,169951,2,0,B|223:157|260:174|260:174|187:224|156:316|156:316|127:246|76:196,1,402.5,8|12,0:3|0:1,0:0:0:0:
116,114,173545,6,0,P|208:126|328:67,1,230,12|8,0:1|0:0,0:0:0:0:
414,123,174482,2,0,L|411:185,1,57.5,8|0,0:1|3:2,0:0:0:0:
375,218,174795,2,0,L|383:346,1,115,8|0,0:1|0:0,0:0:0:0:
279,347,175420,2,0,P|226:320|150:328,1,115,8|0,0:0|0:0,0:0:0:0:
83,375,176045,6,0,B|41:280|126:229|126:229|107:153,1,230,12|8,0:1|0:0,0:0:0:0:
177,90,176982,2,0,L|247:80,1,57.5,8|8,0:1|0:3,0:0:0:0:
280,105,177295,2,0,L|299:182,2,57.5,8|8|0,0:1|0:0|0:0,0:0:0:0:
370,54,177920,2,0,B|378:24|378:24|371:-1,2,57.5,8|8|8,0:0|0:1|0:3,0:0:0:0:
275,11,178545,6,0,B|202:22|186:95|186:95|135:51|54:74,1,230,12|12,0:1|0:0,0:0:0:0:
108,173,179482,2,0,L|116:233,1,57.5,8|8,0:1|0:0,0:0:0:0:
163,250,179795,2,0,B|188:236|188:236|232:238,2,57.5,8|8|0,0:1|0:0|0:0,0:0:0:0:
226,331,180420,2,0,B|302:344|302:344|360:331,1,115,8|0,0:0|0:0,0:0:0:0:
436,372,181045,6,0,B|459:285|379:240|379:240|413:218|421:159,1,230,12|8,0:1|0:0,0:0:0:0:
250,56,182295,1,4,0:0:0:0:
264,158,182607,1,8,0:0:0:0:
272,261,182920,2,0,P|152:271|44:291,1,230,8|8,0:0|0:1,0:0:0:0:
0,200,183857,5,12,0:0:0:0:
77,130,184170,2,0,L|86:53,2,57.5,8|10|8,0:1|0:1|0:0,0:0:0:0:
117,162,184638,2,0,B|172:180|172:180|234:168,1,115,10|10,0:1|0:1,0:0:0:0:
278,155,185107,1,8,0:0:0:0:
352,78,185420,2,0,L|345:20,2,57.5,8|10|8,0:1|0:1|0:0,0:0:0:0:
435,139,186045,6,0,B|408:180|408:180|416:252,1,115,12|8,0:1|0:0,0:0:0:0:
371,339,186670,1,8,0:0:0:0:
316,251,186982,1,8,0:0:0:0:
246,327,187295,1,8,0:0:0:0:
256,192,187451,12,12,188545,0:1:0:0:
285,157,198545,6,0,B|295:104|328:68|328:68|161:95|161:95|187:134|194:204,1,345,12|10,0:1|0:1,0:0:0:0:
133,259,199795,2,0,P|247:243|386:233,1,230,8|10,0:0|0:1,0:0:0:0:
464,226,200732,1,8,0:1:0:0:
473,122,201045,6,0,B|380:48|266:118|266:118|255:43|188:23,1,345,12|10,0:1|0:1,0:0:0:0:
159,127,202295,2,0,L|44:112,1,115,12|8,0:0|0:1,0:0:0:0:
66,213,202920,1,8,0:3:0:0:
41,313,203232,1,4,0:3:0:0:
138,348,203545,6,0,B|269:307|227:380|362:357,1,230,12|12,0:1|0:0,0:0:0:0:
455,314,204482,1,8,0:1:0:0:
410,220,204795,2,0,L|426:157,2,57.5,10|8|0,0:1|0:1|0:0,0:0:0:0:
313,257,205420,1,12,0:0:0:0:
292,155,205732,1,8,0:0:0:0:
203,209,206045,6,0,B|159:218|159:218|86:196,1,115,12|8,0:1|0:1,0:0:0:0:
52,164,206513,2,0,L|45:286,1,115,10|8,0:1|0:0,0:0:0:0:
62,327,206982,2,0,P|147:304|222:336,2,172.5,10|10|12,0:1|0:1|0:1,0:0:0:0:
62,327,209795,6,0,L|54:189,1,115,12|8,0:1|0:0,0:0:0:0:
127,137,210420,2,0,L|131:79,2,57.5,8|10|8,0:1|0:1|0:0,0:0:0:0:
156,179,210888,2,0,B|192:197|192:197|277:184,1,115,10|10,0:1|0:1,0:0:0:0:
303,150,211357,1,8,0:0:0:0:
347,176,211513,2,0,B|364:231|364:231|347:289,1,115,2|10,3:2|0:1,0:0:0:0:
328,334,211982,1,8,0:0:0:0:
239,279,212295,6,0,L|95:272,1,115,8|8,0:1|0:0,0:0:0:0:
32,321,212920,2,0,B|19:280|19:280|37:196,1,115,8|8,0:1|0:0,0:0:0:0:
105,134,213545,2,0,P|158:128|221:153,1,115,8|8,0:1|0:0,0:0:0:0:
242,192,214013,2,0,B|298:174|298:174|384:182,1,115,10|10,0:1|0:1,0:0:0:0:
405,187,214482,1,12,0:0:0:0:
488,248,214795,6,0,P|506:194|490:132,1,115,8|8,0:1|0:0,0:0:0:0:
414,71,215420,2,0,L|408:-6,2,57.5,8|10|8,0:1|0:1|0:0,0:0:0:0:
370,99,215888,2,0,L|254:106,1,115,2|2,3:2|0:0,0:0:0:0:
204,94,216357,1,8,0:0:0:0:
168,131,216513,2,0,B|186:202|186:202|168:251,1,115,10|10,0:1|0:1,0:0:0:0:
146,286,216982,1,8,0:0:0:0:
218,360,217295,6,0,P|274:344|347:342,1,115,12|12,0:1|0:0,0:0:0:0:
381,250,217920,2,0,L|437:261,2,57.5,10|8|10,0:1|0:1|0:0,0:0:0:0:
342,216,218388,2,0,B|362:146|362:146|353:89,1,115,0|0,3:2|0:0,0:0:0:0:
331,58,218857,1,12,0:0:0:0:
228,74,219170,2,0,L|171:84,2,57.5,2|8|12,3:2|0:1|0:0,0:0:0:0:
243,176,219795,6,0,P|216:229|212:296,1,115,12|8,0:1|0:0,0:0:0:0:
174,380,220420,2,0,B|118:358|118:358|40:366,1,115,8|8,0:1|0:0,0:0:0:0:
14,345,220888,2,0,L|3:214,1,115,10|10,0:1|0:1,0:0:0:0:
0,180,221357,1,8,0:0:0:0:
92,132,221670,2,0,B|123:140|123:140|163:129,2,57.5,0|10|8,3:2|0:1|0:0,0:0:0:0:
23,54,222295,5,12,0:1:0:0:
125,38,222607,1,12,0:0:0:0:
227,29,222920,2,0,B|274:78|274:78|234:201,1,172.5,12|8,0:1|0:1,0:0:0:0:
137,214,223701,1,12,0:1:0:0:
137,214,223857,2,0,L|175:95,1,115,12|10,0:0|0:1,0:0:0:0:
98,31,224482,1,8,0:0:0:0:
201,0,224795,6,0,P|252:34|270:87,2,115,12|12|8,0:1|0:0|0:1,0:0:0:0:
173,99,225732,1,8,0:0:0:0:
173,99,225888,2,0,L|191:226,1,115,10|10,0:1|0:1,0:0:0:0:
234,238,226357,1,8,0:0:0:0:
274,205,226513,2,0,B|331:193|331:193|384:213,1,115,2|10,3:2|0:1,0:0:0:0:
432,232,226982,1,8,0:0:0:0:
372,314,227295,6,0,L|244:325,1,115,12|8,0:1|0:0,0:0:0:0:
160,364,227920,2,0,P|151:308|176:257,1,115,8|8,0:1|0:0,0:0:0:0:
264,203,228545,2,0,L|336:193,2,57.5,8|2|8,0:1|0:0|0:0,0:0:0:0:
223,171,229013,2,0,B|210:134|210:134|228:36,1,115,10|10,0:1|0:1,0:0:0:0:
238,9,229482,1,8,0:0:0:0:
341,9,229795,6,0,B|390:33|390:33|477:21,1,115,12|8,0:1|0:0,0:0:0:0:
512,113,230420,2,0,L|509:171,2,57.5,8|10|8,0:1|0:1|0:0,0:0:0:0:
460,111,230888,2,0,L|317:131,1,115,2|2,3:2|0:0,0:0:0:0:
309,163,231357,1,12,0:0:0:0:
329,210,231513,2,0,B|360:263|360:263|346:337,1,115,10|10,0:1|0:1,0:0:0:0:
334,365,231982,1,8,0:0:0:0:
233,340,232295,6,0,P|182:324|103:337,1,115,12|10,0:1|0:0,0:0:0:0:
33,274,232920,2,0,B|26:244|26:244|33:201,2,57.5,10|8|12,0:1|0:1|0:0,0:0:0:0:
128,232,233545,1,10,0:1:0:0:
116,129,233857,1,12,0:0:0:0:
100,26,234170,2,0,B|241:-3|200:72|343:26,1,230,2|12,3:2|0:1,0:0:0:0:
423,67,235107,5,12,0:1:0:0:
383,162,235420,2,0,L|388:219,2,57.5,8|2|8,0:1|0:1|0:0,0:0:0:0:
334,132,235888,2,0,B|274:125|274:125|208:148,1,115,10|10,0:1|0:1,0:0:0:0:
178,170,236357,1,12,0:0:0:0:
102,98,236670,2,0,L|108:26,2,57.5,0|10|12,3:2|0:1|0:0,0:0:0:0:
46,185,237295,6,0,L|54:268,1,57.5,8|2,0:1|0:0,0:0:0:0:
62,292,237607,1,12,0:0:0:0:
150,345,237920,1,10,0:1:0:0:
225,274,238232,1,10,0:0:0:0:
313,327,238545,2,0,P|376:313|452:315,1,115,2|12,0:0|0:0,0:0:0:0:
494,234,239170,2,0,L|504:157,1,57.5,10|8,0:1|0:0,0:0:0:0:
465,140,239482,2,0,L|474:66,1,57.5,8|4,0:3|0:3,0:0:0:0:
449,36,239795,6,0,P|337:58|216:65,1,230,12|8,0:1|0:0,0:0:0:0:
131,116,240732,2,0,L|142:179,1,57.5,8|8,0:1|0:0,0:0:0:0:
174,212,241045,2,0,B|206:211|206:211|245:223,2,57.5,8|8|0,0:1|0:0|0:0,0:0:0:0:
197,312,241670,2,0,L|254:317,1,57.5,8|8,0:0|0:1,0:0:0:0:
296,347,241982,2,0,L|353:341,1,57.5,0|8,0:0|0:1,0:0:0:0:
394,309,242295,6,0,B|432:231|363:153|363:153|412:95,1,230,12|8,0:1|0:0,0:0:0:0:
318,46,243232,2,0,L|242:35,1,57.5,8|8,0:1|0:3,0:0:0:0:
220,69,243545,2,0,L|106:84,1,115,8|0,0:1|0:0,0:0:0:0:
98,187,244170,2,0,P|213:158|342:157,1,230,8|12,0:0|0:1,0:0:0:0:
444,323,245420,5,12,0:0:0:0:
489,230,245732,2,0,L|492:173,1,57.5,8|8,0:1|0:0,0:0:0:0:
449,143,246045,2,0,B|443:84|443:84|460:23,1,115,8|0,0:1|0:0,0:0:0:0:
354,30,246670,2,0,L|363:101,1,57.5,8|8,0:0|0:1,0:0:0:0:
327,125,246982,2,0,L|336:196,1,57.5,8|0,0:0|0:0,0:0:0:0:
303,223,247295,6,0,B|220:189|149:251|149:251|128:224|80:208,1,230,12|8,0:1|0:0,0:0:0:0:
66,314,248232,1,8,0:0:0:0:
4,230,248545,1,8,0:0:0:0:
4,230,248701,1,8,0:1:0:0:
50,137,249013,1,8,0:0:0:0:
50,137,249170,1,8,0:0:0:0:
3,44,249482,1,8,0:0:0:0:
104,13,249795,6,0,B|140:36|140:36|240:22,1,115,12|8,0:1|0:0,0:0:0:0:
299,78,250420,2,0,L|307:134,2,57.5,8|10|8,0:1|0:1|0:0,0:0:0:0:
328,35,250888,2,0,L|441:52,1,115,10|8,0:1|0:1,0:0:0:0:
492,64,251357,1,8,0:0:0:0:
473,165,251670,2,0,L|463:221,2,57.5,10|8|10,0:1|0:1|0:0,0:0:0:0:
370,150,252295,6,0,B|359:122|359:122|364:88,2,57.5,12|8|8,0:1|0:1|0:0,0:0:0:0:
287,212,252920,2,0,B|233:229|233:229|172:221,1,115,8|10,0:1|0:0,0:0:0:0:
76,189,253545,2,0,B|65:217|65:217|70:251,2,57.5,10|8|8,0:1|0:1|0:0,0:0:0:0:
138,106,254170,2,0,L|274:122,1,115,2|8,0:0|0:0,0:0:0:0:
345,74,254795,6,0,B|379:124|379:124|345:180,1,115,8|8,0:0|0:0,0:0:0:0:
274,240,255420,1,8,0:0:0:0:
185,186,255732,1,8,0:0:0:0:
89,226,256045,2,0,B|55:276|55:276|83:322,1,115,8|8,0:0|0:0,0:0:0:0:
167,384,256670,1,8,0:0:0:0:
263,346,256982,1,8,0:0:0:0:
256,192,257295,12,12,259638,0:0:0:0:
