osu file format v14

[General]
AudioFilename: bouquet.mp3
AudioLeadIn: 0
PreviewTime: 76045
Countdown: 0
SampleSet: Soft
StackLeniency: 0.7
Mode: 0
LetterboxInBreaks: 0
WidescreenStoryboard: 1

[Editor]
Bookmarks: 29482
DistanceSpacing: 0.5
BeatDivisor: 4
GridSize: 4
TimelineZoom: 2

[Metadata]
Title:bouquet
TitleUnicode:bouquet
Artist:ChouCho
ArtistUnicode:ChouCho
Creator:Kibbleru
Version:Kalibe's Insane
Source:
Tags:ちょうちょ BetaStar Sotarks Kalibe -Nitrous Kisses
BeatmapID:1066567
BeatmapSetID:460580

[Difficulty]
HPDrainRate:6
CircleSize:4
OverallDifficulty:7.5
ApproachRate:9
SliderMultiplier:1.62
SliderTickRate:1

[Events]
//Background and Video events
0,0,"BG1.jpg",0,0
//Break Periods
2,108745,114795
//Storyboard Layer 0 (Background)
//Storyboard Layer 1 (Fail)
//Storyboard Layer 2 (Pass)
//Storyboard Layer 3 (Foreground)
Sprite,Foreground,Centre,"SB\dot.png",320,240 S,0,163545,,0.5 C,0,163545,,138,138,255 M,1,163545,164351,474,233,533,195 F,0,163545,164351,1,0
Sprite,Foreground,Centre,"SB\dot.png",320,240 S,0,163545,,0.5 C,0,163545,,138,138,255 M,1,163545,164351,474,233,473,163 F,0,163545,164351,1,0
Sprite,Foreground,Centre,"SB\dot.png",320,240 S,0,163545,,0.5 C,0,163545,,138,138,255 M,1,163545,164351,474,233,415,196 F,0,163545,164351,1,0
Sprite,Foreground,Centre,"SB\dot.png",320,240 S,0,163545,,0.5 C,0,163545,,138,138,255 M,1,163545,164351,474,233,411,263 F,0,163545,164351,1,0
Sprite,Foreground,Centre,"SB\dot.png",320,240 S,0,163545,,0.5 C,0,163545,,138,138,255 M,1,163545,164351,474,233,465,302 F,0,163545,164351,1,0
Sprite,Foreground,Centre,"SB\dot.png",320,240 S,0,163545,,0.5 C,0,163545,,138,138,255 M,1,163545,164351,474,233,527,278 F,0,163545,164351,1,0
Sprite,Foreground,Centre,"SB\dot.png",320,240 S,0,163545,,0.2 M,1,163545,164351,474,233,521,181 F,0,163545,164351,1,0
Sprite,Foreground,Centre,"SB\dot.png",320,240 S,0,163545,,0.2 M,1,163545,164351,474,233,470,174 F,0,163545,164351,1,0
Sprite,Foreground,Centre,"SB\dot.png",320,240 S,0,163545,,0.2 M,1,163545,164351,474,233,422,255 F,0,163545,164351,1,0
Sprite,Foreground,Centre,"SB\dot.png",320,240 S,0,163545,,0.2 M,1,163545,164351,474,233,404,303 F,0,163545,164351,1,0
Sprite,Foreground,Centre,"SB\dot.png",320,240 S,0,163545,,0.2 M,1,163545,164351,474,233,427,247 F,0,163545,164351,1,0
Sprite,Foreground,Centre,"SB\dot.png",320,240 S,0,163545,,0.2 M,1,163545,164351,474,233,478,171 F,0,163545,164351,1,0
Sprite,Foreground,Centre,"SB\dot.png",320,240 S,0,163701,,0.5 C,0,163701,,140,140,255 M,1,163701,164507,425,111,388,171 F,0,163701,164507,1,0
Sprite,Foreground,Centre,"SB\dot.png",320,240 S,0,163701,,0.5 C,0,163701,,140,140,255 M,1,163701,164507,425,111,456,174 F,0,163701,164507,1,0
Sprite,Foreground,Centre,"SB\dot.png",320,240 S,0,163701,,0.5 C,0,163701,,140,140,255 M,1,163701,164507,425,111,495,119 F,0,163701,164507,1,0
Sprite,Foreground,Centre,"SB\dot.png",320,240 S,0,163701,,0.5 C,0,163701,,140,140,255 M,1,163701,164507,425,111,470,57 F,0,163701,164507,1,0
Sprite,Foreground,Centre,"SB\dot.png",320,240 S,0,163701,,0.5 C,0,163701,,140,140,255 M,1,163701,164507,425,111,404,44 F,0,163701,164507,1,0
Sprite,Foreground,Centre,"SB\dot.png",320,240 S,0,163701,,0.5 C,0,163701,,140,140,255 M,1,163701,164507,425,111,357,93 F,0,163701,164507,1,0
Sprite,Foreground,Centre,"SB\dot.png",320,240 S,0,163701,,0.2 M,1,163701,164507,425,111,405,178 F,0,163701,164507,1,0
Sprite,Foreground,Centre,"SB\dot.png",320,240 S,0,163701,,0.2 M,1,163701,164507,425,111,458,148 F,0,163701,164507,1,0
Sprite,Foreground,Centre,"SB\dot.png",320,240 S,0,163701,,0.2 M,1,163701,164507,425,111,492,63 F,0,163701,164507,1,0
Sprite,Foreground,Centre,"SB\dot.png",320,240 S,0,163701,,0.2 M,1,163701,164507,425,111,486,50 F,0,163701,164507,1,0
Sprite,Foreground,Centre,"SB\dot.png",320,240 S,0,163701,,0.2 M,1,163701,164507,425,111,445,127 F,0,163701,164507,1,0
Sprite,Foreground,Centre,"SB\dot.png",320,240 S,0,163701,,0.2 M,1,163701,164507,425,111,392,181 F,0,163701,164507,1,0
Sprite,Foreground,Centre,"SB\dot.png",320,240 S,0,163857,,0.5 C,0,163857,,101,101,255 M,1,163857,164663,325,215,388,185 F,0,163857,164663,1,0
Sprite,Foreground,Centre,"SB\dot.png",320,240 S,0,163857,,0.5 C,0,163857,,101,101,255 M,1,163857,164663,325,215,334,146 F,0,163857,164663,1,0
Sprite,Foreground,Centre,"SB\dot.png",320,240 S,0,163857,,0.5 C,0,163857,,101,101,255 M,1,163857,164663,325,215,271,170 F,0,163857,164663,1,0
Sprite,Foreground,Centre,"SB\dot.png",320,240 S,0,163857,,0.5 C,0,163857,,101,101,255 M,1,163857,164663,325,215,258,236 F,0,163857,164663,1,0
Sprite,Foreground,Centre,"SB\dot.png",320,240 S,0,163857,,0.5 C,0,163857,,101,101,255 M,1,163857,164663,325,215,307,283 F,0,163857,164663,1,0
Sprite,Foreground,Centre,"SB\dot.png",320,240 S,0,163857,,0.5 C,0,163857,,101,101,255 M,1,163857,164663,325,215,372,267 F,0,163857,164663,1,0
Sprite,Foreground,Centre,"SB\dot.png",320,240 S,0,163857,,0.2 M,1,163857,164663,325,215,378,169 F,0,163857,164663,1,0
Sprite,Foreground,Centre,"SB\dot.png",320,240 S,0,163857,,0.2 M,1,163857,164663,325,215,330,152 F,0,163857,164663,1,0
Sprite,Foreground,Centre,"SB\dot.png",320,240 S,0,163857,,0.2 M,1,163857,164663,325,215,279,228 F,0,163857,164663,1,0
Sprite,Foreground,Centre,"SB\dot.png",320,240 S,0,163857,,0.2 M,1,163857,164663,325,215,255,285 F,0,163857,164663,1,0
Sprite,Foreground,Centre,"SB\dot.png",320,240 S,0,163857,,0.2 M,1,163857,164663,325,215,272,238 F,0,163857,164663,1,0
Sprite,Foreground,Centre,"SB\dot.png",320,240 S,0,163857,,0.2 M,1,163857,164663,325,215,320,157 F,0,163857,164663,1,0
Sprite,Foreground,Centre,"SB\dot.png",320,240 S,0,164013,,0.5 C,0,164013,,161,161,255 M,1,164013,164819,181,143,250,132 F,0,164013,164819,1,0
Sprite,Foreground,Centre,"SB\dot.png",320,240 S,0,164013,,0.5 C,0,164013,,161,161,255 M,1,164013,164819,181,143,209,79 F,0,164013,164819,1,0
Sprite,Foreground,Centre,"SB\dot.png",320,240 S,0,164013,,0.5 C,0,164013,,161,161,255 M,1,164013,164819,181,143,142,85 F,0,164013,164819,1,0
Sprite,Foreground,Centre,"SB\dot.png",320,240 S,0,164013,,0.5 C,0,164013,,161,161,255 M,1,164013,164819,181,143,111,145 F,0,164013,164819,1,0
Sprite,Foreground,Centre,"SB\dot.png",320,240 S,0,164013,,0.5 C,0,164013,,161,161,255 M,1,164013,164819,181,143,144,203 F,0,164013,164819,1,0
Sprite,Foreground,Centre,"SB\dot.png",320,240 S,0,164013,,0.5 C,0,164013,,161,161,255 M,1,164013,164819,181,143,212,206 F,0,164013,164819,1,0
Sprite,Foreground,Centre,"SB\dot.png",320,240 S,0,164013,,0.2 M,1,164013,164819,181,143,245,114 F,0,164013,164819,1,0
Sprite,Foreground,Centre,"SB\dot.png",320,240 S,0,164013,,0.2 M,1,164013,164819,181,143,206,74 F,0,164013,164819,1,0
Sprite,Foreground,Centre,"SB\dot.png",320,240 S,0,164013,,0.2 M,1,164013,164819,181,143,152,136 F,0,164013,164819,1,0
Sprite,Foreground,Centre,"SB\dot.png",320,240 S,0,164013,,0.2 M,1,164013,164819,181,143,115,209 F,0,164013,164819,1,0
Sprite,Foreground,Centre,"SB\dot.png",320,240 S,0,164013,,0.2 M,1,164013,164819,181,143,117,184 F,0,164013,164819,1,0
Sprite,Foreground,Centre,"SB\dot.png",320,240 S,0,164013,,0.2 M,1,164013,164819,181,143,156,99 F,0,164013,164819,1,0
Sprite,Foreground,Centre,"SB\dot.png",320,240 S,0,164482,,0.5 C,0,164482,,138,138,255 M,1,164482,165288,277,395,238,337 F,0,164482,165288,1,0
Sprite,Foreground,Centre,"SB\dot.png",320,240 S,0,164482,,0.5 C,0,164482,,138,138,255 M,1,164482,165288,277,395,207,397 F,0,164482,165288,1,0
Sprite,Foreground,Centre,"SB\dot.png",320,240 S,0,164482,,0.5 C,0,164482,,138,138,255 M,1,164482,165288,277,395,240,455 F,0,164482,165288,1,0
Sprite,Foreground,Centre,"SB\dot.png",320,240 S,0,164482,,0.5 C,0,164482,,138,138,255 M,1,164482,165288,277,395,308,458 F,0,164482,165288,1,0
Sprite,Foreground,Centre,"SB\dot.png",320,240 S,0,164482,,0.5 C,0,164482,,138,138,255 M,1,164482,165288,277,395,347,403 F,0,164482,165288,1,0
Sprite,Foreground,Centre,"SB\dot.png",320,240 S,0,164482,,0.5 C,0,164482,,138,138,255 M,1,164482,165288,277,395,322,341 F,0,164482,165288,1,0
Sprite,Foreground,Centre,"SB\dot.png",320,240 S,0,164482,,0.2 M,1,164482,165288,277,395,224,349 F,0,164482,165288,1,0
Sprite,Foreground,Centre,"SB\dot.png",320,240 S,0,164482,,0.2 M,1,164482,165288,277,395,207,434 F,0,164482,165288,1,0
Sprite,Foreground,Centre,"SB\dot.png",320,240 S,0,164482,,0.2 M,1,164482,165288,277,395,231,461 F,0,164482,165288,1,0
Sprite,Foreground,Centre,"SB\dot.png",320,240 S,0,164482,,0.2 M,1,164482,165288,277,395,282,390 F,0,164482,165288,1,0
Sprite,Foreground,Centre,"SB\dot.png",320,240 S,0,164482,,0.2 M,1,164482,165288,277,395,330,326 F,0,164482,165288,1,0
Sprite,Foreground,Centre,"SB\dot.png",320,240 S,0,164482,,0.2 M,1,164482,165288,277,395,347,364 F,0,164482,165288,1,0
Sprite,Foreground,Centre,"SB\dot.png",320,240 S,0,164795,,0.5 C,0,164795,,149,149,255 M,1,164795,165601,409,183,478,193 F,0,164795,165601,1,0
Sprite,Foreground,Centre,"SB\dot.png",320,240 S,0,164795,,0.5 C,0,164795,,149,149,255 M,1,164795,165601,409,183,455,130 F,0,164795,165601,1,0
Sprite,Foreground,Centre,"SB\dot.png",320,240 S,0,164795,,0.5 C,0,164795,,149,149,255 M,1,164795,165601,409,183,389,116 F,0,164795,165601,1,0
Sprite,Foreground,Centre,"SB\dot.png",320,240 S,0,164795,,0.5 C,0,164795,,149,149,255 M,1,164795,165601,409,183,342,164 F,0,164795,165601,1,0
Sprite,Foreground,Centre,"SB\dot.png",320,240 S,0,164795,,0.5 C,0,164795,,149,149,255 M,1,164795,165601,409,183,356,229 F,0,164795,165601,1,0
Sprite,Foreground,Centre,"SB\dot.png",320,240 S,0,164795,,0.5 C,0,164795,,149,149,255 M,1,164795,165601,409,183,419,252 F,0,164795,165601,1,0
Sprite,Foreground,Centre,"SB\dot.png",320,240 S,0,164795,,0.2 M,1,164795,165601,409,183,478,174 F,0,164795,165601,1,0
Sprite,Foreground,Centre,"SB\dot.png",320,240 S,0,164795,,0.2 M,1,164795,165601,409,183,452,114 F,0,164795,165601,1,0
Sprite,Foreground,Centre,"SB\dot.png",320,240 S,0,164795,,0.2 M,1,164795,165601,409,183,400,156 F,0,164795,165601,1,0
Sprite,Foreground,Centre,"SB\dot.png",320,240 S,0,164795,,0.2 M,1,164795,165601,409,183,354,238 F,0,164795,165601,1,0
Sprite,Foreground,Centre,"SB\dot.png",320,240 S,0,164795,,0.2 M,1,164795,165601,409,183,340,239 F,0,164795,165601,1,0
Sprite,Foreground,Centre,"SB\dot.png",320,240 S,0,164795,,0.2 M,1,164795,165601,409,183,366,157 F,0,164795,165601,1,0
Sprite,Foreground,Centre,"SB\dot.png",320,240 S,0,165263,,0.5 C,0,165263,,139,139,255 M,1,165263,166069,513,295,458,251 F,0,165263,166069,1,0
Sprite,Foreground,Centre,"SB\dot.png",320,240 S,0,165263,,0.5 C,0,165263,,139,139,255 M,1,165263,166069,513,295,447,317 F,0,165263,166069,1,0
Sprite,Foreground,Centre,"SB\dot.png",320,240 S,0,165263,,0.5 C,0,165263,,139,139,255 M,1,165263,166069,513,295,496,363 F,0,165263,166069,1,0
Sprite,Foreground,Centre,"SB\dot.png",320,240 S,0,165263,,0.5 C,0,165263,,139,139,255 M,1,165263,166069,513,295,561,346 F,0,165263,166069,1,0
Sprite,Foreground,Centre,"SB\dot.png",320,240 S,0,165263,,0.5 C,0,165263,,139,139,255 M,1,165263,166069,513,295,582,282 F,0,165263,166069,1,0
Sprite,Foreground,Centre,"SB\dot.png",320,240 S,0,165263,,0.5 C,0,165263,,139,139,255 M,1,165263,166069,513,295,540,230 F,0,165263,166069,1,0
Sprite,Foreground,Centre,"SB\dot.png",320,240 S,0,165263,,0.2 M,1,165263,166069,513,295,449,267 F,0,165263,166069,1,0
Sprite,Foreground,Centre,"SB\dot.png",320,240 S,0,165263,,0.2 M,1,165263,166069,513,295,448,350 F,0,165263,166069,1,0
Sprite,Foreground,Centre,"SB\dot.png",320,240 S,0,165263,,0.2 M,1,165263,166069,513,295,485,351 F,0,165263,166069,1,0
Sprite,Foreground,Centre,"SB\dot.png",320,240 S,0,165263,,0.2 M,1,165263,166069,513,295,538,270 F,0,165263,166069,1,0
Sprite,Foreground,Centre,"SB\dot.png",320,240 S,0,165263,,0.2 M,1,165263,166069,513,295,577,225 F,0,165263,166069,1,0
Sprite,Foreground,Centre,"SB\dot.png",320,240 S,0,165263,,0.2 M,1,165263,166069,513,295,578,284 F,0,165263,166069,1,0
Sprite,Foreground,Centre,"SB\dot.png",320,240 S,0,165420,,0.5 C,0,165420,,104,104,255 M,1,165420,166226,513,295,580,314 F,0,165420,166226,1,0
Sprite,Foreground,Centre,"SB\dot.png",320,240 S,0,165420,,0.5 C,0,165420,,104,104,255 M,1,165420,166226,513,295,565,248 F,0,165420,166226,1,0
Sprite,Foreground,Centre,"SB\dot.png",320,240 S,0,165420,,0.5 C,0,165420,,104,104,255 M,1,165420,166226,513,295,502,226 F,0,165420,166226,1,0
Sprite,Foreground,Centre,"SB\dot.png",320,240 S,0,165420,,0.5 C,0,165420,,104,104,255 M,1,165420,166226,513,295,449,267 F,0,165420,166226,1,0
Sprite,Foreground,Centre,"SB\dot.png",320,240 S,0,165420,,0.5 C,0,165420,,104,104,255 M,1,165420,166226,513,295,455,334 F,0,165420,166226,1,0
Sprite,Foreground,Centre,"SB\dot.png",320,240 S,0,165420,,0.5 C,0,165420,,104,104,255 M,1,165420,166226,513,295,514,365 F,0,165420,166226,1,0
Sprite,Foreground,Centre,"SB\dot.png",320,240 S,0,165420,,0.2 M,1,165420,166226,513,295,583,296 F,0,165420,166226,1,0
Sprite,Foreground,Centre,"SB\dot.png",320,240 S,0,165420,,0.2 M,1,165420,166226,513,295,563,228 F,0,165420,166226,1,0
Sprite,Foreground,Centre,"SB\dot.png",320,240 S,0,165420,,0.2 M,1,165420,166226,513,295,514,260 F,0,165420,166226,1,0
Sprite,Foreground,Centre,"SB\dot.png",320,240 S,0,165420,,0.2 M,1,165420,166226,513,295,464,344 F,0,165420,166226,1,0
Sprite,Foreground,Centre,"SB\dot.png",320,240 S,0,165420,,0.2 M,1,165420,166226,513,295,443,356 F,0,165420,166226,1,0
Sprite,Foreground,Centre,"SB\dot.png",320,240 S,0,165420,,0.2 M,1,165420,166226,513,295,463,277 F,0,165420,166226,1,0
Sprite,Foreground,Centre,"SB\dot.png",320,240 S,0,165732,,0.5 C,0,165732,,134,134,255 M,1,165732,166538,317,191,249,173 F,0,165732,166538,1,0
Sprite,Foreground,Centre,"SB\dot.png",320,240 S,0,165732,,0.5 C,0,165732,,134,134,255 M,1,165732,166538,317,191,265,238 F,0,165732,166538,1,0
Sprite,Foreground,Centre,"SB\dot.png",320,240 S,0,165732,,0.5 C,0,165732,,134,134,255 M,1,165732,166538,317,191,329,260 F,0,165732,166538,1,0
Sprite,Foreground,Centre,"SB\dot.png",320,240 S,0,165732,,0.5 C,0,165732,,134,134,255 M,1,165732,166538,317,191,381,218 F,0,165732,166538,1,0
Sprite,Foreground,Centre,"SB\dot.png",320,240 S,0,165732,,0.5 C,0,165732,,134,134,255 M,1,165732,166538,317,191,375,152 F,0,165732,166538,1,0
Sprite,Foreground,Centre,"SB\dot.png",320,240 S,0,165732,,0.5 C,0,165732,,134,134,255 M,1,165732,166538,317,191,315,121 F,0,165732,166538,1,0
Sprite,Foreground,Centre,"SB\dot.png",320,240 S,0,165732,,0.2 M,1,165732,166538,317,191,247,191 F,0,165732,166538,1,0
Sprite,Foreground,Centre,"SB\dot.png",320,240 S,0,165732,,0.2 M,1,165732,166538,317,191,268,259 F,0,165732,166538,1,0
Sprite,Foreground,Centre,"SB\dot.png",320,240 S,0,165732,,0.2 M,1,165732,166538,317,191,317,226 F,0,165732,166538,1,0
Sprite,Foreground,Centre,"SB\dot.png",320,240 S,0,165732,,0.2 M,1,165732,166538,317,191,367,141 F,0,165732,166538,1,0
Sprite,Foreground,Centre,"SB\dot.png",320,240 S,0,165732,,0.2 M,1,165732,166538,317,191,387,130 F,0,165732,166538,1,0
Sprite,Foreground,Centre,"SB\dot.png",320,240 S,0,165732,,0.2 M,1,165732,166538,317,191,366,209 F,0,165732,166538,1,0
Sprite,Foreground,Centre,"SB\dot.png",320,240 S,0,166045,,0.5 C,0,166045,,168,168,255 M,1,166045,166851,517,395,449,377 F,0,166045,166851,1,0
Sprite,Foreground,Centre,"SB\dot.png",320,240 S,0,166045,,0.5 C,0,166045,,168,168,255 M,1,166045,166851,517,395,465,442 F,0,166045,166851,1,0
Sprite,Foreground,Centre,"SB\dot.png",320,240 S,0,166045,,0.5 C,0,166045,,168,168,255 M,1,166045,166851,517,395,529,464 F,0,166045,166851,1,0
Sprite,Foreground,Centre,"SB\dot.png",320,240 S,0,166045,,0.5 C,0,166045,,168,168,255 M,1,166045,166851,517,395,581,422 F,0,166045,166851,1,0
Sprite,Foreground,Centre,"SB\dot.png",320,240 S,0,166045,,0.5 C,0,166045,,168,168,255 M,1,166045,166851,517,395,575,356 F,0,166045,166851,1,0
Sprite,Foreground,Centre,"SB\dot.png",320,240 S,0,166045,,0.5 C,0,166045,,168,168,255 M,1,166045,166851,517,395,515,325 F,0,166045,166851,1,0
Sprite,Foreground,Centre,"SB\dot.png",320,240 S,0,166045,,0.2 M,1,166045,166851,517,395,447,395 F,0,166045,166851,1,0
Sprite,Foreground,Centre,"SB\dot.png",320,240 S,0,166045,,0.2 M,1,166045,166851,517,395,468,463 F,0,166045,166851,1,0
Sprite,Foreground,Centre,"SB\dot.png",320,240 S,0,166045,,0.2 M,1,166045,166851,517,395,517,430 F,0,166045,166851,1,0
Sprite,Foreground,Centre,"SB\dot.png",320,240 S,0,166045,,0.2 M,1,166045,166851,517,395,567,345 F,0,166045,166851,1,0
Sprite,Foreground,Centre,"SB\dot.png",320,240 S,0,166045,,0.2 M,1,166045,166851,517,395,587,334 F,0,166045,166851,1,0
Sprite,Foreground,Centre,"SB\dot.png",320,240 S,0,166045,,0.2 M,1,166045,166851,517,395,566,413 F,0,166045,166851,1,0
Sprite,Foreground,Centre,"SB\dot.png",320,240 S,0,166513,,0.5 C,0,166513,,126,126,255 M,1,166513,167319,161,331,221,368 F,0,166513,167319,1,0
Sprite,Foreground,Centre,"SB\dot.png",320,240 S,0,166513,,0.5 C,0,166513,,126,126,255 M,1,166513,167319,161,331,224,301 F,0,166513,167319,1,0
Sprite,Foreground,Centre,"SB\dot.png",320,240 S,0,166513,,0.5 C,0,166513,,126,126,255 M,1,166513,167319,161,331,170,262 F,0,166513,167319,1,0
Sprite,Foreground,Centre,"SB\dot.png",320,240 S,0,166513,,0.5 C,0,166513,,126,126,255 M,1,166513,167319,161,331,107,286 F,0,166513,167319,1,0
Sprite,Foreground,Centre,"SB\dot.png",320,240 S,0,166513,,0.5 C,0,166513,,126,126,255 M,1,166513,167319,161,331,94,352 F,0,166513,167319,1,0
Sprite,Foreground,Centre,"SB\dot.png",320,240 S,0,166513,,0.5 C,0,166513,,126,126,255 M,1,166513,167319,161,331,143,399 F,0,166513,167319,1,0
Sprite,Foreground,Centre,"SB\dot.png",320,240 S,0,166513,,0.2 M,1,166513,167319,161,331,228,351 F,0,166513,167319,1,0
Sprite,Foreground,Centre,"SB\dot.png",320,240 S,0,166513,,0.2 M,1,166513,167319,161,331,223,271 F,0,166513,167319,1,0
Sprite,Foreground,Centre,"SB\dot.png",320,240 S,0,166513,,0.2 M,1,166513,167319,161,331,181,280 F,0,166513,167319,1,0
Sprite,Foreground,Centre,"SB\dot.png",320,240 S,0,166513,,0.2 M,1,166513,167319,161,331,128,364 F,0,166513,167319,1,0
Sprite,Foreground,Centre,"SB\dot.png",320,240 S,0,166513,,0.2 M,1,166513,167319,161,331,94,399 F,0,166513,167319,1,0
Sprite,Foreground,Centre,"SB\dot.png",320,240 S,0,166513,,0.2 M,1,166513,167319,161,331,99,333 F,0,166513,167319,1,0
Sprite,Foreground,Centre,"SB\dot.png",320,240 S,0,166591,,0.5 C,0,166591,,171,171,255 M,1,166591,167397,161,331,121,274 F,0,166591,167397,1,0
Sprite,Foreground,Centre,"SB\dot.png",320,240 S,0,166591,,0.5 C,0,166591,,171,171,255 M,1,166591,167397,161,331,91,334 F,0,166591,167397,1,0
Sprite,Foreground,Centre,"SB\dot.png",320,240 S,0,166591,,0.5 C,0,166591,,171,171,255 M,1,166591,167397,161,331,126,391 F,0,166591,167397,1,0
Sprite,Foreground,Centre,"SB\dot.png",320,240 S,0,166591,,0.5 C,0,166591,,171,171,255 M,1,166591,167397,161,331,193,393 F,0,166591,167397,1,0
Sprite,Foreground,Centre,"SB\dot.png",320,240 S,0,166591,,0.5 C,0,166591,,171,171,255 M,1,166591,167397,161,331,231,338 F,0,166591,167397,1,0
Sprite,Foreground,Centre,"SB\dot.png",320,240 S,0,166591,,0.5 C,0,166591,,171,171,255 M,1,166591,167397,161,331,205,276 F,0,166591,167397,1,0
Sprite,Foreground,Centre,"SB\dot.png",320,240 S,0,166591,,0.2 M,1,166591,167397,161,331,107,286 F,0,166591,167397,1,0
Sprite,Foreground,Centre,"SB\dot.png",320,240 S,0,166591,,0.2 M,1,166591,167397,161,331,91,371 F,0,166591,167397,1,0
Sprite,Foreground,Centre,"SB\dot.png",320,240 S,0,166591,,0.2 M,1,166591,167397,161,331,116,397 F,0,166591,167397,1,0
Sprite,Foreground,Centre,"SB\dot.png",320,240 S,0,166591,,0.2 M,1,166591,167397,161,331,167,325 F,0,166591,167397,1,0
Sprite,Foreground,Centre,"SB\dot.png",320,240 S,0,166591,,0.2 M,1,166591,167397,161,331,215,262 F,0,166591,167397,1,0
Sprite,Foreground,Centre,"SB\dot.png",320,240 S,0,166591,,0.2 M,1,166591,167397,161,331,231,301 F,0,166591,167397,1,0
Sprite,Foreground,Centre,"SB\dot.png",320,240 S,0,166670,,0.5 C,0,166670,,89,89,255 M,1,166670,167476,161,331,96,304 F,0,166670,167476,1,0
Sprite,Foreground,Centre,"SB\dot.png",320,240 S,0,166670,,0.5 C,0,166670,,89,89,255 M,1,166670,167476,161,331,103,371 F,0,166670,167476,1,0
Sprite,Foreground,Centre,"SB\dot.png",320,240 S,0,166670,,0.5 C,0,166670,,89,89,255 M,1,166670,167476,161,331,163,401 F,0,166670,167476,1,0
Sprite,Foreground,Centre,"SB\dot.png",320,240 S,0,166670,,0.5 C,0,166670,,89,89,255 M,1,166670,167476,161,331,221,367 F,0,166670,167476,1,0
Sprite,Foreground,Centre,"SB\dot.png",320,240 S,0,166670,,0.5 C,0,166670,,89,89,255 M,1,166670,167476,161,331,224,300 F,0,166670,167476,1,0
Sprite,Foreground,Centre,"SB\dot.png",320,240 S,0,166670,,0.5 C,0,166670,,89,89,255 M,1,166670,167476,161,331,168,261 F,0,166670,167476,1,0
Sprite,Foreground,Centre,"SB\dot.png",320,240 S,0,166670,,0.2 M,1,166670,167476,161,331,92,322 F,0,166670,167476,1,0
Sprite,Foreground,Centre,"SB\dot.png",320,240 S,0,166670,,0.2 M,1,166670,167476,161,331,105,396 F,0,166670,167476,1,0
Sprite,Foreground,Centre,"SB\dot.png",320,240 S,0,166670,,0.2 M,1,166670,167476,161,331,152,374 F,0,166670,167476,1,0
Sprite,Foreground,Centre,"SB\dot.png",320,240 S,0,166670,,0.2 M,1,166670,167476,161,331,204,288 F,0,166670,167476,1,0
Sprite,Foreground,Centre,"SB\dot.png",320,240 S,0,166670,,0.2 M,1,166670,167476,161,331,230,266 F,0,166670,167476,1,0
Sprite,Foreground,Centre,"SB\dot.png",320,240 S,0,166670,,0.2 M,1,166670,167476,161,331,217,340 F,0,166670,167476,1,0
Sprite,Foreground,Centre,"SB\dot.png",320,240 S,0,166982,,0.5 C,0,166982,,154,154,255 M,1,166982,167788,352,262,282,265 F,0,166982,167788,1,0
Sprite,Foreground,Centre,"SB\dot.png",320,240 S,0,166982,,0.5 C,0,166982,,154,154,255 M,1,166982,167788,352,262,317,322 F,0,166982,167788,1,0
Sprite,Foreground,Centre,"SB\dot.png",320,240 S,0,166982,,0.5 C,0,166982,,154,154,255 M,1,166982,167788,352,262,384,324 F,0,166982,167788,1,0
Sprite,Foreground,Centre,"SB\dot.png",320,240 S,0,166982,,0.5 C,0,166982,,154,154,255 M,1,166982,167788,352,262,422,269 F,0,166982,167788,1,0
Sprite,Foreground,Centre,"SB\dot.png",320,240 S,0,166982,,0.5 C,0,166982,,154,154,255 M,1,166982,167788,352,262,396,207 F,0,166982,167788,1,0
Sprite,Foreground,Centre,"SB\dot.png",320,240 S,0,166982,,0.5 C,0,166982,,154,154,255 M,1,166982,167788,352,262,329,196 F,0,166982,167788,1,0
Sprite,Foreground,Centre,"SB\dot.png",320,240 S,0,166982,,0.2 M,1,166982,167788,352,262,285,283 F,0,166982,167788,1,0
Sprite,Foreground,Centre,"SB\dot.png",320,240 S,0,166982,,0.2 M,1,166982,167788,352,262,319,332 F,0,166982,167788,1,0
Sprite,Foreground,Centre,"SB\dot.png",320,240 S,0,166982,,0.2 M,1,166982,167788,352,262,373,277 F,0,166982,167788,1,0
Sprite,Foreground,Centre,"SB\dot.png",320,240 S,0,166982,,0.2 M,1,166982,167788,352,262,414,200 F,0,166982,167788,1,0
Sprite,Foreground,Centre,"SB\dot.png",320,240 S,0,166982,,0.2 M,1,166982,167788,352,262,419,215 F,0,166982,167788,1,0
Sprite,Foreground,Centre,"SB\dot.png",320,240 S,0,166982,,0.2 M,1,166982,167788,352,262,385,299 F,0,166982,167788,1,0
Sprite,Foreground,Centre,"SB\dot.png",320,240 S,0,167138,,0.5 C,0,167138,,89,89,255 M,1,167138,167944,193,231,193,301 F,0,167138,167944,1,0
Sprite,Foreground,Centre,"SB\dot.png",320,240 S,0,167138,,0.5 C,0,167138,,89,89,255 M,1,167138,167944,193,231,252,269 F,0,167138,167944,1,0
Sprite,Foreground,Centre,"SB\dot.png",320,240 S,0,167138,,0.5 C,0,167138,,89,89,255 M,1,167138,167944,193,231,257,202 F,0,167138,167944,1,0
Sprite,Foreground,Centre,"SB\dot.png",320,240 S,0,167138,,0.5 C,0,167138,,89,89,255 M,1,167138,167944,193,231,203,162 F,0,167138,167944,1,0
Sprite,Foreground,Centre,"SB\dot.png",320,240 S,0,167138,,0.5 C,0,167138,,89,89,255 M,1,167138,167944,193,231,140,185 F,0,167138,167944,1,0
Sprite,Foreground,Centre,"SB\dot.png",320,240 S,0,167138,,0.5 C,0,167138,,89,89,255 M,1,167138,167944,193,231,126,251 F,0,167138,167944,1,0
Sprite,Foreground,Centre,"SB\dot.png",320,240 S,0,167138,,0.2 M,1,167138,167944,193,231,211,299 F,0,167138,167944,1,0
Sprite,Foreground,Centre,"SB\dot.png",320,240 S,0,167138,,0.2 M,1,167138,167944,193,231,254,231 F,0,167138,167944,1,0
Sprite,Foreground,Centre,"SB\dot.png",320,240 S,0,167138,,0.2 M,1,167138,167944,193,231,261,163 F,0,167138,167944,1,0
Sprite,Foreground,Centre,"SB\dot.png",320,240 S,0,167138,,0.2 M,1,167138,167944,193,231,228,196 F,0,167138,167944,1,0
Sprite,Foreground,Centre,"SB\dot.png",320,240 S,0,167138,,0.2 M,1,167138,167944,193,231,175,280 F,0,167138,167944,1,0
Sprite,Foreground,Centre,"SB\dot.png",320,240 S,0,167138,,0.2 M,1,167138,167944,193,231,132,292 F,0,167138,167944,1,0
Sprite,Foreground,Centre,"SB\dot.png",320,240 S,0,167607,,0.5 C,0,167607,,162,162,255 M,1,167607,168413,473,231,404,243 F,0,167607,168413,1,0
Sprite,Foreground,Centre,"SB\dot.png",320,240 S,0,167607,,0.5 C,0,167607,,162,162,255 M,1,167607,168413,473,231,446,296 F,0,167607,168413,1,0
Sprite,Foreground,Centre,"SB\dot.png",320,240 S,0,167607,,0.5 C,0,167607,,162,162,255 M,1,167607,168413,473,231,513,289 F,0,167607,168413,1,0
Sprite,Foreground,Centre,"SB\dot.png",320,240 S,0,167607,,0.5 C,0,167607,,162,162,255 M,1,167607,168413,473,231,543,229 F,0,167607,168413,1,0
Sprite,Foreground,Centre,"SB\dot.png",320,240 S,0,167607,,0.5 C,0,167607,,162,162,255 M,1,167607,168413,473,231,509,171 F,0,167607,168413,1,0
Sprite,Foreground,Centre,"SB\dot.png",320,240 S,0,167607,,0.5 C,0,167607,,162,162,255 M,1,167607,168413,473,231,442,168 F,0,167607,168413,1,0
Sprite,Foreground,Centre,"SB\dot.png",320,240 S,0,167607,,0.2 M,1,167607,168413,473,231,410,260 F,0,167607,168413,1,0
Sprite,Foreground,Centre,"SB\dot.png",320,240 S,0,167607,,0.2 M,1,167607,168413,473,231,449,300 F,0,167607,168413,1,0
Sprite,Foreground,Centre,"SB\dot.png",320,240 S,0,167607,,0.2 M,1,167607,168413,473,231,502,237 F,0,167607,168413,1,0
Sprite,Foreground,Centre,"SB\dot.png",320,240 S,0,167607,,0.2 M,1,167607,168413,473,231,539,165 F,0,167607,168413,1,0
Sprite,Foreground,Centre,"SB\dot.png",320,240 S,0,167607,,0.2 M,1,167607,168413,473,231,536,191 F,0,167607,168413,1,0
Sprite,Foreground,Centre,"SB\dot.png",320,240 S,0,167607,,0.2 M,1,167607,168413,473,231,497,276 F,0,167607,168413,1,0
Sprite,Foreground,Centre,"SB\dot.png",320,240 S,0,167763,,0.5 C,0,167763,,97,97,255 M,1,167763,168569,405,99,457,52 F,0,167763,168569,1,0
Sprite,Foreground,Centre,"SB\dot.png",320,240 S,0,167763,,0.5 C,0,167763,,97,97,255 M,1,167763,168569,405,99,394,30 F,0,167763,168569,1,0
Sprite,Foreground,Centre,"SB\dot.png",320,240 S,0,167763,,0.5 C,0,167763,,97,97,255 M,1,167763,168569,405,99,341,71 F,0,167763,168569,1,0
Sprite,Foreground,Centre,"SB\dot.png",320,240 S,0,167763,,0.5 C,0,167763,,97,97,255 M,1,167763,168569,405,99,347,138 F,0,167763,168569,1,0
Sprite,Foreground,Centre,"SB\dot.png",320,240 S,0,167763,,0.5 C,0,167763,,97,97,255 M,1,167763,168569,405,99,406,169 F,0,167763,168569,1,0
Sprite,Foreground,Centre,"SB\dot.png",320,240 S,0,167763,,0.5 C,0,167763,,97,97,255 M,1,167763,168569,405,99,465,136 F,0,167763,168569,1,0
Sprite,Foreground,Centre,"SB\dot.png",320,240 S,0,167763,,0.2 M,1,167763,168569,405,99,443,40 F,0,167763,168569,1,0
Sprite,Foreground,Centre,"SB\dot.png",320,240 S,0,167763,,0.2 M,1,167763,168569,405,99,391,47 F,0,167763,168569,1,0
Sprite,Foreground,Centre,"SB\dot.png",320,240 S,0,167763,,0.2 M,1,167763,168569,405,99,346,131 F,0,167763,168569,1,0
Sprite,Foreground,Centre,"SB\dot.png",320,240 S,0,167763,,0.2 M,1,167763,168569,405,99,336,168 F,0,167763,168569,1,0
Sprite,Foreground,Centre,"SB\dot.png",320,240 S,0,167763,,0.2 M,1,167763,168569,405,99,367,103 F,0,167763,168569,1,0
Sprite,Foreground,Centre,"SB\dot.png",320,240 S,0,167763,,0.2 M,1,167763,168569,405,99,419,32 F,0,167763,168569,1,0
Sprite,Foreground,Centre,"SB\dot.png",320,240 S,0,167841,,0.5 C,0,167841,,145,145,255 M,1,167841,168647,405,99,358,47 F,0,167841,168647,1,0
Sprite,Foreground,Centre,"SB\dot.png",320,240 S,0,167841,,0.5 C,0,167841,,145,145,255 M,1,167841,168647,405,99,336,111 F,0,167841,168647,1,0
Sprite,Foreground,Centre,"SB\dot.png",320,240 S,0,167841,,0.5 C,0,167841,,145,145,255 M,1,167841,168647,405,99,378,164 F,0,167841,168647,1,0
Sprite,Foreground,Centre,"SB\dot.png",320,240 S,0,167841,,0.5 C,0,167841,,145,145,255 M,1,167841,168647,405,99,445,157 F,0,167841,168647,1,0
Sprite,Foreground,Centre,"SB\dot.png",320,240 S,0,167841,,0.5 C,0,167841,,145,145,255 M,1,167841,168647,405,99,475,97 F,0,167841,168647,1,0
Sprite,Foreground,Centre,"SB\dot.png",320,240 S,0,167841,,0.5 C,0,167841,,145,145,255 M,1,167841,168647,405,99,441,39 F,0,167841,168647,1,0
Sprite,Foreground,Centre,"SB\dot.png",320,240 S,0,167841,,0.2 M,1,167841,168647,405,99,346,61 F,0,167841,168647,1,0
Sprite,Foreground,Centre,"SB\dot.png",320,240 S,0,167841,,0.2 M,1,167841,168647,405,99,337,146 F,0,167841,168647,1,0
Sprite,Foreground,Centre,"SB\dot.png",320,240 S,0,167841,,0.2 M,1,167841,168647,405,99,367,161 F,0,167841,168647,1,0
Sprite,Foreground,Centre,"SB\dot.png",320,240 S,0,167841,,0.2 M,1,167841,168647,405,99,420,84 F,0,167841,168647,1,0
Sprite,Foreground,Centre,"SB\dot.png",320,240 S,0,167841,,0.2 M,1,167841,168647,405,99,464,29 F,0,167841,168647,1,0
Sprite,Foreground,Centre,"SB\dot.png",320,240 S,0,167841,,0.2 M,1,167841,168647,405,99,473,78 F,0,167841,168647,1,0
Sprite,Foreground,Centre,"SB\dot.png",320,240 S,0,167920,,0.5 C,0,167920,,159,159,255 M,1,167920,168726,405,99,394,30 F,0,167920,168726,1,0
Sprite,Foreground,Centre,"SB\dot.png",320,240 S,0,167920,,0.5 C,0,167920,,159,159,255 M,1,167920,168726,405,99,341,71 F,0,167920,168726,1,0
Sprite,Foreground,Centre,"SB\dot.png",320,240 S,0,167920,,0.5 C,0,167920,,159,159,255 M,1,167920,168726,405,99,347,138 F,0,167920,168726,1,0
Sprite,Foreground,Centre,"SB\dot.png",320,240 S,0,167920,,0.5 C,0,167920,,159,159,255 M,1,167920,168726,405,99,406,169 F,0,167920,168726,1,0
Sprite,Foreground,Centre,"SB\dot.png",320,240 S,0,167920,,0.5 C,0,167920,,159,159,255 M,1,167920,168726,405,99,465,136 F,0,167920,168726,1,0
Sprite,Foreground,Centre,"SB\dot.png",320,240 S,0,167920,,0.5 C,0,167920,,159,159,255 M,1,167920,168726,405,99,468,69 F,0,167920,168726,1,0
Sprite,Foreground,Centre,"SB\dot.png",320,240 S,0,167920,,0.2 M,1,167920,168726,405,99,376,35 F,0,167920,168726,1,0
Sprite,Foreground,Centre,"SB\dot.png",320,240 S,0,167920,,0.2 M,1,167920,168726,405,99,340,110 F,0,167920,168726,1,0
Sprite,Foreground,Centre,"SB\dot.png",320,240 S,0,167920,,0.2 M,1,167920,168726,405,99,341,169 F,0,167920,168726,1,0
Sprite,Foreground,Centre,"SB\dot.png",320,240 S,0,167920,,0.2 M,1,167920,168726,405,99,380,124 F,0,167920,168726,1,0
Sprite,Foreground,Centre,"SB\dot.png",320,240 S,0,167920,,0.2 M,1,167920,168726,405,99,434,42 F,0,167920,168726,1,0
Sprite,Foreground,Centre,"SB\dot.png",320,240 S,0,167920,,0.2 M,1,167920,168726,405,99,470,45 F,0,167920,168726,1,0
Sprite,Foreground,Centre,"SB\dot.png",320,240 S,0,168232,,0.5 C,0,168232,,91,91,255 M,1,168232,169038,429,303,382,251 F,0,168232,169038,1,0
Sprite,Foreground,Centre,"SB\dot.png",320,240 S,0,168232,,0.5 C,0,168232,,91,91,255 M,1,168232,169038,429,303,360,315 F,0,168232,169038,1,0
Sprite,Foreground,Centre,"SB\dot.png",320,240 S,0,168232,,0.5 C,0,168232,,91,91,255 M,1,168232,169038,429,303,402,368 F,0,168232,169038,1,0
Sprite,Foreground,Centre,"SB\dot.png",320,240 S,0,168232,,0.5 C,0,168232,,91,91,255 M,1,168232,169038,429,303,469,361 F,0,168232,169038,1,0
Sprite,Foreground,Centre,"SB\dot.png",320,240 S,0,168232,,0.5 C,0,168232,,91,91,255 M,1,168232,169038,429,303,499,301 F,0,168232,169038,1,0
Sprite,Foreground,Centre,"SB\dot.png",320,240 S,0,168232,,0.5 C,0,168232,,91,91,255 M,1,168232,169038,429,303,465,243 F,0,168232,169038,1,0
Sprite,Foreground,Centre,"SB\dot.png",320,240 S,0,168232,,0.2 M,1,168232,169038,429,303,370,265 F,0,168232,169038,1,0
Sprite,Foreground,Centre,"SB\dot.png",320,240 S,0,168232,,0.2 M,1,168232,169038,429,303,361,350 F,0,168232,169038,1,0
Sprite,Foreground,Centre,"SB\dot.png",320,240 S,0,168232,,0.2 M,1,168232,169038,429,303,391,365 F,0,168232,169038,1,0
Sprite,Foreground,Centre,"SB\dot.png",320,240 S,0,168232,,0.2 M,1,168232,169038,429,303,444,288 F,0,168232,169038,1,0
Sprite,Foreground,Centre,"SB\dot.png",320,240 S,0,168232,,0.2 M,1,168232,169038,429,303,488,233 F,0,168232,169038,1,0
Sprite,Foreground,Centre,"SB\dot.png",320,240 S,0,168232,,0.2 M,1,168232,169038,429,303,497,282 F,0,168232,169038,1,0
Sprite,Foreground,Centre,"SB\dot.png",320,240 S,0,168388,,0.5 C,0,168388,,176,176,255 M,1,168388,169194,489,199,553,170 F,0,168388,169194,1,0
Sprite,Foreground,Centre,"SB\dot.png",320,240 S,0,168388,,0.5 C,0,168388,,176,176,255 M,1,168388,169194,489,199,499,130 F,0,168388,169194,1,0
Sprite,Foreground,Centre,"SB\dot.png",320,240 S,0,168388,,0.5 C,0,168388,,176,176,255 M,1,168388,169194,489,199,436,153 F,0,168388,169194,1,0
Sprite,Foreground,Centre,"SB\dot.png",320,240 S,0,168388,,0.5 C,0,168388,,176,176,255 M,1,168388,169194,489,199,422,219 F,0,168388,169194,1,0
Sprite,Foreground,Centre,"SB\dot.png",320,240 S,0,168388,,0.5 C,0,168388,,176,176,255 M,1,168388,169194,489,199,469,266 F,0,168388,169194,1,0
Sprite,Foreground,Centre,"SB\dot.png",320,240 S,0,168388,,0.5 C,0,168388,,176,176,255 M,1,168388,169194,489,199,535,252 F,0,168388,169194,1,0
Sprite,Foreground,Centre,"SB\dot.png",320,240 S,0,168388,,0.2 M,1,168388,169194,489,199,543,154 F,0,168388,169194,1,0
Sprite,Foreground,Centre,"SB\dot.png",320,240 S,0,168388,,0.2 M,1,168388,169194,489,199,496,135 F,0,168388,169194,1,0
Sprite,Foreground,Centre,"SB\dot.png",320,240 S,0,168388,,0.2 M,1,168388,169194,489,199,444,211 F,0,168388,169194,1,0
Sprite,Foreground,Centre,"SB\dot.png",320,240 S,0,168388,,0.2 M,1,168388,169194,489,199,419,269 F,0,168388,169194,1,0
Sprite,Foreground,Centre,"SB\dot.png",320,240 S,0,168388,,0.2 M,1,168388,169194,489,199,435,223 F,0,168388,169194,1,0
Sprite,Foreground,Centre,"SB\dot.png",320,240 S,0,168388,,0.2 M,1,168388,169194,489,199,482,142 F,0,168388,169194,1,0
Sprite,Foreground,Centre,"SB\dot.png",320,240 S,0,168545,,0.5 C,0,168545,,171,171,255 M,1,168545,169351,352,262,416,291 F,0,168545,169351,1,0
Sprite,Foreground,Centre,"SB\dot.png",320,240 S,0,168545,,0.5 C,0,168545,,171,171,255 M,1,168545,169351,352,262,411,224 F,0,168545,169351,1,0
Sprite,Foreground,Centre,"SB\dot.png",320,240 S,0,168545,,0.5 C,0,168545,,171,171,255 M,1,168545,169351,352,262,351,192 F,0,168545,169351,1,0
Sprite,Foreground,Centre,"SB\dot.png",320,240 S,0,168545,,0.5 C,0,168545,,171,171,255 M,1,168545,169351,352,262,293,225 F,0,168545,169351,1,0
Sprite,Foreground,Centre,"SB\dot.png",320,240 S,0,168545,,0.5 C,0,168545,,171,171,255 M,1,168545,169351,352,262,289,292 F,0,168545,169351,1,0
Sprite,Foreground,Centre,"SB\dot.png",320,240 S,0,168545,,0.5 C,0,168545,,171,171,255 M,1,168545,169351,352,262,343,331 F,0,168545,169351,1,0
Sprite,Foreground,Centre,"SB\dot.png",320,240 S,0,168545,,0.2 M,1,168545,169351,352,262,421,273 F,0,168545,169351,1,0
Sprite,Foreground,Centre,"SB\dot.png",320,240 S,0,168545,,0.2 M,1,168545,169351,352,262,409,198 F,0,168545,169351,1,0
Sprite,Foreground,Centre,"SB\dot.png",320,240 S,0,168545,,0.2 M,1,168545,169351,352,262,363,218 F,0,168545,169351,1,0
Sprite,Foreground,Centre,"SB\dot.png",320,240 S,0,168545,,0.2 M,1,168545,169351,352,262,311,303 F,0,168545,169351,1,0
Sprite,Foreground,Centre,"SB\dot.png",320,240 S,0,168545,,0.2 M,1,168545,169351,352,262,283,327 F,0,168545,169351,1,0
Sprite,Foreground,Centre,"SB\dot.png",320,240 S,0,168545,,0.2 M,1,168545,169351,352,262,295,255 F,0,168545,169351,1,0
Sprite,Foreground,Centre,"SB\dot.png",320,240 S,0,168701,,0.5 C,0,168701,,170,170,255 M,1,168701,169507,525,319,505,386 F,0,168701,169507,1,0
Sprite,Foreground,Centre,"SB\dot.png",320,240 S,0,168701,,0.5 C,0,168701,,170,170,255 M,1,168701,169507,525,319,571,372 F,0,168701,169507,1,0
Sprite,Foreground,Centre,"SB\dot.png",320,240 S,0,168701,,0.5 C,0,168701,,170,170,255 M,1,168701,169507,525,319,594,309 F,0,168701,169507,1,0
Sprite,Foreground,Centre,"SB\dot.png",320,240 S,0,168701,,0.5 C,0,168701,,170,170,255 M,1,168701,169507,525,319,554,255 F,0,168701,169507,1,0
Sprite,Foreground,Centre,"SB\dot.png",320,240 S,0,168701,,0.5 C,0,168701,,170,170,255 M,1,168701,169507,525,319,487,260 F,0,168701,169507,1,0
Sprite,Foreground,Centre,"SB\dot.png",320,240 S,0,168701,,0.5 C,0,168701,,170,170,255 M,1,168701,169507,525,319,455,319 F,0,168701,169507,1,0
Sprite,Foreground,Centre,"SB\dot.png",320,240 S,0,168701,,0.2 M,1,168701,169507,525,319,524,389 F,0,168701,169507,1,0
Sprite,Foreground,Centre,"SB\dot.png",320,240 S,0,168701,,0.2 M,1,168701,169507,525,319,573,339 F,0,168701,169507,1,0
Sprite,Foreground,Centre,"SB\dot.png",320,240 S,0,168701,,0.2 M,1,168701,169507,525,319,595,259 F,0,168701,169507,1,0
Sprite,Foreground,Centre,"SB\dot.png",320,240 S,0,168701,,0.2 M,1,168701,169507,525,319,576,268 F,0,168701,169507,1,0
Sprite,Foreground,Centre,"SB\dot.png",320,240 S,0,168701,,0.2 M,1,168701,169507,525,319,526,353 F,0,168701,169507,1,0
Sprite,Foreground,Centre,"SB\dot.png",320,240 S,0,168701,,0.2 M,1,168701,169507,525,319,477,387 F,0,168701,169507,1,0
Sprite,Foreground,Centre,"SB\dot.png",320,240 S,0,168857,,0.5 C,0,168857,,110,110,255 M,1,168857,169663,421,427,391,364 F,0,168857,169663,1,0
Sprite,Foreground,Centre,"SB\dot.png",320,240 S,0,168857,,0.5 C,0,168857,,110,110,255 M,1,168857,169663,421,427,352,418 F,0,168857,169663,1,0
Sprite,Foreground,Centre,"SB\dot.png",320,240 S,0,168857,,0.5 C,0,168857,,110,110,255 M,1,168857,169663,421,427,376,481 F,0,168857,169663,1,0
Sprite,Foreground,Centre,"SB\dot.png",320,240 S,0,168857,,0.5 C,0,168857,,110,110,255 M,1,168857,169663,421,427,442,494 F,0,168857,169663,1,0
Sprite,Foreground,Centre,"SB\dot.png",320,240 S,0,168857,,0.5 C,0,168857,,110,110,255 M,1,168857,169663,421,427,488,446 F,0,168857,169663,1,0
Sprite,Foreground,Centre,"SB\dot.png",320,240 S,0,168857,,0.5 C,0,168857,,110,110,255 M,1,168857,169663,421,427,473,380 F,0,168857,169663,1,0
Sprite,Foreground,Centre,"SB\dot.png",320,240 S,0,168857,,0.2 M,1,168857,169663,421,427,376,374 F,0,168857,169663,1,0
Sprite,Foreground,Centre,"SB\dot.png",320,240 S,0,168857,,0.2 M,1,168857,169663,421,427,351,457 F,0,168857,169663,1,0
Sprite,Foreground,Centre,"SB\dot.png",320,240 S,0,168857,,0.2 M,1,168857,169663,421,427,368,496 F,0,168857,169663,1,0
Sprite,Foreground,Centre,"SB\dot.png",320,240 S,0,168857,,0.2 M,1,168857,169663,421,427,415,433 F,0,168857,169663,1,0
Sprite,Foreground,Centre,"SB\dot.png",320,240 S,0,168857,,0.2 M,1,168857,169663,421,427,466,361 F,0,168857,169663,1,0
Sprite,Foreground,Centre,"SB\dot.png",320,240 S,0,168857,,0.2 M,1,168857,169663,421,427,491,387 F,0,168857,169663,1,0
Sprite,Foreground,Centre,"SB\dot.png",320,240 S,0,169170,,0.5 C,0,169170,,136,136,255 M,1,169170,169976,295,186,286,255 F,0,169170,169976,1,0
Sprite,Foreground,Centre,"SB\dot.png",320,240 S,0,169170,,0.5 C,0,169170,,136,136,255 M,1,169170,169976,295,186,348,231 F,0,169170,169976,1,0
Sprite,Foreground,Centre,"SB\dot.png",320,240 S,0,169170,,0.5 C,0,169170,,136,136,255 M,1,169170,169976,295,186,362,166 F,0,169170,169976,1,0
Sprite,Foreground,Centre,"SB\dot.png",320,240 S,0,169170,,0.5 C,0,169170,,136,136,255 M,1,169170,169976,295,186,314,119 F,0,169170,169976,1,0
Sprite,Foreground,Centre,"SB\dot.png",320,240 S,0,169170,,0.5 C,0,169170,,136,136,255 M,1,169170,169976,295,186,249,134 F,0,169170,169976,1,0
Sprite,Foreground,Centre,"SB\dot.png",320,240 S,0,169170,,0.5 C,0,169170,,136,136,255 M,1,169170,169976,295,186,226,197 F,0,169170,169976,1,0
Sprite,Foreground,Centre,"SB\dot.png",320,240 S,0,169170,,0.2 M,1,169170,169976,295,186,304,255 F,0,169170,169976,1,0
Sprite,Foreground,Centre,"SB\dot.png",320,240 S,0,169170,,0.2 M,1,169170,169976,295,186,350,195 F,0,169170,169976,1,0
Sprite,Foreground,Centre,"SB\dot.png",320,240 S,0,169170,,0.2 M,1,169170,169976,295,186,364,121 F,0,169170,169976,1,0
Sprite,Foreground,Centre,"SB\dot.png",320,240 S,0,169170,,0.2 M,1,169170,169976,295,186,338,143 F,0,169170,169976,1,0
Sprite,Foreground,Centre,"SB\dot.png",320,240 S,0,169170,,0.2 M,1,169170,169976,295,186,286,229 F,0,169170,169976,1,0
Sprite,Foreground,Centre,"SB\dot.png",320,240 S,0,169170,,0.2 M,1,169170,169976,295,186,240,251 F,0,169170,169976,1,0
Sprite,Foreground,Centre,"SB\dot.png",320,240 S,0,169326,,0.5 C,0,169326,,142,142,255 M,1,169326,170132,165,295,95,297 F,0,169326,170132,1,0
Sprite,Foreground,Centre,"SB\dot.png",320,240 S,0,169326,,0.5 C,0,169326,,142,142,255 M,1,169326,170132,165,295,128,355 F,0,169326,170132,1,0
Sprite,Foreground,Centre,"SB\dot.png",320,240 S,0,169326,,0.5 C,0,169326,,142,142,255 M,1,169326,170132,165,295,196,358 F,0,169326,170132,1,0
Sprite,Foreground,Centre,"SB\dot.png",320,240 S,0,169326,,0.5 C,0,169326,,142,142,255 M,1,169326,170132,165,295,235,303 F,0,169326,170132,1,0
Sprite,Foreground,Centre,"SB\dot.png",320,240 S,0,169326,,0.5 C,0,169326,,142,142,255 M,1,169326,170132,165,295,210,241 F,0,169326,170132,1,0
Sprite,Foreground,Centre,"SB\dot.png",320,240 S,0,169326,,0.5 C,0,169326,,142,142,255 M,1,169326,170132,165,295,144,228 F,0,169326,170132,1,0
Sprite,Foreground,Centre,"SB\dot.png",320,240 S,0,169326,,0.2 M,1,169326,170132,165,295,98,315 F,0,169326,170132,1,0
Sprite,Foreground,Centre,"SB\dot.png",320,240 S,0,169326,,0.2 M,1,169326,170132,165,295,131,365 F,0,169326,170132,1,0
Sprite,Foreground,Centre,"SB\dot.png",320,240 S,0,169326,,0.2 M,1,169326,170132,165,295,185,312 F,0,169326,170132,1,0
Sprite,Foreground,Centre,"SB\dot.png",320,240 S,0,169326,,0.2 M,1,169326,170132,165,295,226,234 F,0,169326,170132,1,0
Sprite,Foreground,Centre,"SB\dot.png",320,240 S,0,169326,,0.2 M,1,169326,170132,165,295,232,247 F,0,169326,170132,1,0
Sprite,Foreground,Centre,"SB\dot.png",320,240 S,0,169326,,0.2 M,1,169326,170132,165,295,199,331 F,0,169326,170132,1,0
Sprite,Foreground,Centre,"SB\dot.png",320,240 S,0,169795,,0.5 C,0,169795,,157,157,255 M,1,169795,170601,313,108,359,161 F,0,169795,170601,1,0
Sprite,Foreground,Centre,"SB\dot.png",320,240 S,0,169795,,0.5 C,0,169795,,157,157,255 M,1,169795,170601,313,108,382,98 F,0,169795,170601,1,0
Sprite,Foreground,Centre,"SB\dot.png",320,240 S,0,169795,,0.5 C,0,169795,,157,157,255 M,1,169795,170601,313,108,342,44 F,0,169795,170601,1,0
Sprite,Foreground,Centre,"SB\dot.png",320,240 S,0,169795,,0.5 C,0,169795,,157,157,255 M,1,169795,170601,313,108,275,49 F,0,169795,170601,1,0
Sprite,Foreground,Centre,"SB\dot.png",320,240 S,0,169795,,0.5 C,0,169795,,157,157,255 M,1,169795,170601,313,108,243,108 F,0,169795,170601,1,0
Sprite,Foreground,Centre,"SB\dot.png",320,240 S,0,169795,,0.5 C,0,169795,,157,157,255 M,1,169795,170601,313,108,275,167 F,0,169795,170601,1,0
Sprite,Foreground,Centre,"SB\dot.png",320,240 S,0,169795,,0.2 M,1,169795,170601,313,108,371,147 F,0,169795,170601,1,0
Sprite,Foreground,Centre,"SB\dot.png",320,240 S,0,169795,,0.2 M,1,169795,170601,313,108,382,62 F,0,169795,170601,1,0
Sprite,Foreground,Centre,"SB\dot.png",320,240 S,0,169795,,0.2 M,1,169795,170601,313,108,352,45 F,0,169795,170601,1,0
Sprite,Foreground,Centre,"SB\dot.png",320,240 S,0,169795,,0.2 M,1,169795,170601,313,108,300,121 F,0,169795,170601,1,0
Sprite,Foreground,Centre,"SB\dot.png",320,240 S,0,169795,,0.2 M,1,169795,170601,313,108,255,178 F,0,169795,170601,1,0
Sprite,Foreground,Centre,"SB\dot.png",320,240 S,0,169795,,0.2 M,1,169795,170601,313,108,244,131 F,0,169795,170601,1,0
Sprite,Foreground,Centre,"SB\dot.png",320,240 S,0,170107,,0.5 C,0,170107,,152,152,255 M,1,170107,170913,417,255,397,188 F,0,170107,170913,1,0
Sprite,Foreground,Centre,"SB\dot.png",320,240 S,0,170107,,0.5 C,0,170107,,152,152,255 M,1,170107,170913,417,255,350,236 F,0,170107,170913,1,0
Sprite,Foreground,Centre,"SB\dot.png",320,240 S,0,170107,,0.5 C,0,170107,,152,152,255 M,1,170107,170913,417,255,364,301 F,0,170107,170913,1,0
Sprite,Foreground,Centre,"SB\dot.png",320,240 S,0,170107,,0.5 C,0,170107,,152,152,255 M,1,170107,170913,417,255,427,324 F,0,170107,170913,1,0
Sprite,Foreground,Centre,"SB\dot.png",320,240 S,0,170107,,0.5 C,0,170107,,152,152,255 M,1,170107,170913,417,255,481,284 F,0,170107,170913,1,0
Sprite,Foreground,Centre,"SB\dot.png",320,240 S,0,170107,,0.5 C,0,170107,,152,152,255 M,1,170107,170913,417,255,476,217 F,0,170107,170913,1,0
Sprite,Foreground,Centre,"SB\dot.png",320,240 S,0,170107,,0.2 M,1,170107,170913,417,255,380,195 F,0,170107,170913,1,0
Sprite,Foreground,Centre,"SB\dot.png",320,240 S,0,170107,,0.2 M,1,170107,170913,417,255,349,275 F,0,170107,170913,1,0
Sprite,Foreground,Centre,"SB\dot.png",320,240 S,0,170107,,0.2 M,1,170107,170913,417,255,357,325 F,0,170107,170913,1,0
Sprite,Foreground,Centre,"SB\dot.png",320,240 S,0,170107,,0.2 M,1,170107,170913,417,255,401,271 F,0,170107,170913,1,0
Sprite,Foreground,Centre,"SB\dot.png",320,240 S,0,170107,,0.2 M,1,170107,170913,417,255,454,193 F,0,170107,170913,1,0
Sprite,Foreground,Centre,"SB\dot.png",320,240 S,0,170107,,0.2 M,1,170107,170913,417,255,485,207 F,0,170107,170913,1,0
Sprite,Foreground,Centre,"SB\dot.png",320,240 S,0,170420,,0.5 C,0,170420,,142,142,255 M,1,170420,171226,183,216,131,263 F,0,170420,171226,1,0
Sprite,Foreground,Centre,"SB\dot.png",320,240 S,0,170420,,0.5 C,0,170420,,142,142,255 M,1,170420,171226,183,216,195,285 F,0,170420,171226,1,0
Sprite,Foreground,Centre,"SB\dot.png",320,240 S,0,170420,,0.5 C,0,170420,,142,142,255 M,1,170420,171226,183,216,247,243 F,0,170420,171226,1,0
Sprite,Foreground,Centre,"SB\dot.png",320,240 S,0,170420,,0.5 C,0,170420,,142,142,255 M,1,170420,171226,183,216,241,177 F,0,170420,171226,1,0
Sprite,Foreground,Centre,"SB\dot.png",320,240 S,0,170420,,0.5 C,0,170420,,142,142,255 M,1,170420,171226,183,216,181,146 F,0,170420,171226,1,0
Sprite,Foreground,Centre,"SB\dot.png",320,240 S,0,170420,,0.5 C,0,170420,,142,142,255 M,1,170420,171226,183,216,123,180 F,0,170420,171226,1,0
Sprite,Foreground,Centre,"SB\dot.png",320,240 S,0,170420,,0.2 M,1,170420,171226,183,216,145,275 F,0,170420,171226,1,0
Sprite,Foreground,Centre,"SB\dot.png",320,240 S,0,170420,,0.2 M,1,170420,171226,183,216,198,268 F,0,170420,171226,1,0
Sprite,Foreground,Centre,"SB\dot.png",320,240 S,0,170420,,0.2 M,1,170420,171226,183,216,242,184 F,0,170420,171226,1,0
Sprite,Foreground,Centre,"SB\dot.png",320,240 S,0,170420,,0.2 M,1,170420,171226,183,216,251,148 F,0,170420,171226,1,0
Sprite,Foreground,Centre,"SB\dot.png",320,240 S,0,170420,,0.2 M,1,170420,171226,183,216,221,213 F,0,170420,171226,1,0
Sprite,Foreground,Centre,"SB\dot.png",320,240 S,0,170420,,0.2 M,1,170420,171226,183,216,168,283 F,0,170420,171226,1,0
Sprite,Foreground,Centre,"SB\dot.png",320,240 S,0,170732,,0.5 C,0,170732,,112,112,255 M,1,170732,171538,331,361,371,419 F,0,170732,171538,1,0
Sprite,Foreground,Centre,"SB\dot.png",320,240 S,0,170732,,0.5 C,0,170732,,112,112,255 M,1,170732,171538,331,361,401,359 F,0,170732,171538,1,0
Sprite,Foreground,Centre,"SB\dot.png",320,240 S,0,170732,,0.5 C,0,170732,,112,112,255 M,1,170732,171538,331,361,367,301 F,0,170732,171538,1,0
Sprite,Foreground,Centre,"SB\dot.png",320,240 S,0,170732,,0.5 C,0,170732,,112,112,255 M,1,170732,171538,331,361,300,298 F,0,170732,171538,1,0
Sprite,Foreground,Centre,"SB\dot.png",320,240 S,0,170732,,0.5 C,0,170732,,112,112,255 M,1,170732,171538,331,361,261,353 F,0,170732,171538,1,0
Sprite,Foreground,Centre,"SB\dot.png",320,240 S,0,170732,,0.5 C,0,170732,,112,112,255 M,1,170732,171538,331,361,287,415 F,0,170732,171538,1,0
Sprite,Foreground,Centre,"SB\dot.png",320,240 S,0,170732,,0.2 M,1,170732,171538,331,361,384,406 F,0,170732,171538,1,0
Sprite,Foreground,Centre,"SB\dot.png",320,240 S,0,170732,,0.2 M,1,170732,171538,331,361,401,321 F,0,170732,171538,1,0
Sprite,Foreground,Centre,"SB\dot.png",320,240 S,0,170732,,0.2 M,1,170732,171538,331,361,376,295 F,0,170732,171538,1,0
Sprite,Foreground,Centre,"SB\dot.png",320,240 S,0,170732,,0.2 M,1,170732,171538,331,361,326,366 F,0,170732,171538,1,0
Sprite,Foreground,Centre,"SB\dot.png",320,240 S,0,170732,,0.2 M,1,170732,171538,331,361,278,430 F,0,170732,171538,1,0
Sprite,Foreground,Centre,"SB\dot.png",320,240 S,0,170732,,0.2 M,1,170732,171538,331,361,261,391 F,0,170732,171538,1,0
Sprite,Foreground,Centre,"SB\dot.png",320,240 S,0,171045,,0.5 C,0,171045,,156,156,255 M,1,171045,171851,189,191,180,260 F,0,171045,171851,1,0
Sprite,Foreground,Centre,"SB\dot.png",320,240 S,0,171045,,0.5 C,0,171045,,156,156,255 M,1,171045,171851,189,191,242,236 F,0,171045,171851,1,0
Sprite,Foreground,Centre,"SB\dot.png",320,240 S,0,171045,,0.5 C,0,171045,,156,156,255 M,1,171045,171851,189,191,256,171 F,0,171045,171851,1,0
Sprite,Foreground,Centre,"SB\dot.png",320,240 S,0,171045,,0.5 C,0,171045,,156,156,255 M,1,171045,171851,189,191,208,124 F,0,171045,171851,1,0
Sprite,Foreground,Centre,"SB\dot.png",320,240 S,0,171045,,0.5 C,0,171045,,156,156,255 M,1,171045,171851,189,191,143,139 F,0,171045,171851,1,0
Sprite,Foreground,Centre,"SB\dot.png",320,240 S,0,171045,,0.5 C,0,171045,,156,156,255 M,1,171045,171851,189,191,120,202 F,0,171045,171851,1,0
Sprite,Foreground,Centre,"SB\dot.png",320,240 S,0,171045,,0.2 M,1,171045,171851,189,191,198,260 F,0,171045,171851,1,0
Sprite,Foreground,Centre,"SB\dot.png",320,240 S,0,171045,,0.2 M,1,171045,171851,189,191,244,200 F,0,171045,171851,1,0
Sprite,Foreground,Centre,"SB\dot.png",320,240 S,0,171045,,0.2 M,1,171045,171851,189,191,258,126 F,0,171045,171851,1,0
Sprite,Foreground,Centre,"SB\dot.png",320,240 S,0,171045,,0.2 M,1,171045,171851,189,191,232,148 F,0,171045,171851,1,0
Sprite,Foreground,Centre,"SB\dot.png",320,240 S,0,171045,,0.2 M,1,171045,171851,189,191,180,234 F,0,171045,171851,1,0
Sprite,Foreground,Centre,"SB\dot.png",320,240 S,0,171045,,0.2 M,1,171045,171851,189,191,134,256 F,0,171045,171851,1,0
Sprite,Foreground,Centre,"SB\dot.png",320,240 S,0,171513,,0.5 C,0,171513,,120,120,255 M,1,171513,172319,337,387,359,453 F,0,171513,172319,1,0
Sprite,Foreground,Centre,"SB\dot.png",320,240 S,0,171513,,0.5 C,0,171513,,120,120,255 M,1,171513,172319,337,387,405,404 F,0,171513,172319,1,0
Sprite,Foreground,Centre,"SB\dot.png",320,240 S,0,171513,,0.5 C,0,171513,,120,120,255 M,1,171513,172319,337,387,388,339 F,0,171513,172319,1,0
Sprite,Foreground,Centre,"SB\dot.png",320,240 S,0,171513,,0.5 C,0,171513,,120,120,255 M,1,171513,172319,337,387,325,318 F,0,171513,172319,1,0
Sprite,Foreground,Centre,"SB\dot.png",320,240 S,0,171513,,0.5 C,0,171513,,120,120,255 M,1,171513,172319,337,387,272,360 F,0,171513,172319,1,0
Sprite,Foreground,Centre,"SB\dot.png",320,240 S,0,171513,,0.5 C,0,171513,,120,120,255 M,1,171513,172319,337,387,279,427 F,0,171513,172319,1,0
Sprite,Foreground,Centre,"SB\dot.png",320,240 S,0,171513,,0.2 M,1,171513,172319,337,387,375,446 F,0,171513,172319,1,0
Sprite,Foreground,Centre,"SB\dot.png",320,240 S,0,171513,,0.2 M,1,171513,172319,337,387,406,365 F,0,171513,172319,1,0
Sprite,Foreground,Centre,"SB\dot.png",320,240 S,0,171513,,0.2 M,1,171513,172319,337,387,396,317 F,0,171513,172319,1,0
Sprite,Foreground,Centre,"SB\dot.png",320,240 S,0,171513,,0.2 M,1,171513,172319,337,387,351,373 F,0,171513,172319,1,0
Sprite,Foreground,Centre,"SB\dot.png",320,240 S,0,171513,,0.2 M,1,171513,172319,337,387,299,450 F,0,171513,172319,1,0
Sprite,Foreground,Centre,"SB\dot.png",320,240 S,0,171513,,0.2 M,1,171513,172319,337,387,268,434 F,0,171513,172319,1,0
Sprite,Foreground,Centre,"SB\dot.png",320,240 S,0,171982,,0.5 C,0,171982,,109,109,255 M,1,171982,172788,321,87,263,127 F,0,171982,172788,1,0
Sprite,Foreground,Centre,"SB\dot.png",320,240 S,0,171982,,0.5 C,0,171982,,109,109,255 M,1,171982,172788,321,87,323,157 F,0,171982,172788,1,0
Sprite,Foreground,Centre,"SB\dot.png",320,240 S,0,171982,,0.5 C,0,171982,,109,109,255 M,1,171982,172788,321,87,381,123 F,0,171982,172788,1,0
Sprite,Foreground,Centre,"SB\dot.png",320,240 S,0,171982,,0.5 C,0,171982,,109,109,255 M,1,171982,172788,321,87,384,56 F,0,171982,172788,1,0
Sprite,Foreground,Centre,"SB\dot.png",320,240 S,0,171982,,0.5 C,0,171982,,109,109,255 M,1,171982,172788,321,87,328,17 F,0,171982,172788,1,0
Sprite,Foreground,Centre,"SB\dot.png",320,240 S,0,171982,,0.5 C,0,171982,,109,109,255 M,1,171982,172788,321,87,266,43 F,0,171982,172788,1,0
Sprite,Foreground,Centre,"SB\dot.png",320,240 S,0,171982,,0.2 M,1,171982,172788,321,87,276,140 F,0,171982,172788,1,0
Sprite,Foreground,Centre,"SB\dot.png",320,240 S,0,171982,,0.2 M,1,171982,172788,321,87,327,145 F,0,171982,172788,1,0
Sprite,Foreground,Centre,"SB\dot.png",320,240 S,0,171982,,0.2 M,1,171982,172788,321,87,374,63 F,0,171982,172788,1,0
Sprite,Foreground,Centre,"SB\dot.png",320,240 S,0,171982,,0.2 M,1,171982,172788,321,87,391,17 F,0,171982,172788,1,0
Sprite,Foreground,Centre,"SB\dot.png",320,240 S,0,171982,,0.2 M,1,171982,172788,321,87,366,75 F,0,171982,172788,1,0
Sprite,Foreground,Centre,"SB\dot.png",320,240 S,0,171982,,0.2 M,1,171982,172788,321,87,315,150 F,0,171982,172788,1,0
Sprite,Foreground,Centre,"SB\dot.png",320,240 S,0,172451,,0.5 C,0,172451,,151,151,255 M,1,172451,173257,413,283,385,347 F,0,172451,173257,1,0
Sprite,Foreground,Centre,"SB\dot.png",320,240 S,0,172451,,0.5 C,0,172451,,151,151,255 M,1,172451,173257,413,283,452,341 F,0,172451,173257,1,0
Sprite,Foreground,Centre,"SB\dot.png",320,240 S,0,172451,,0.5 C,0,172451,,151,151,255 M,1,172451,173257,413,283,483,282 F,0,172451,173257,1,0
Sprite,Foreground,Centre,"SB\dot.png",320,240 S,0,172451,,0.5 C,0,172451,,151,151,255 M,1,172451,173257,413,283,450,224 F,0,172451,173257,1,0
Sprite,Foreground,Centre,"SB\dot.png",320,240 S,0,172451,,0.5 C,0,172451,,151,151,255 M,1,172451,173257,413,283,383,220 F,0,172451,173257,1,0
Sprite,Foreground,Centre,"SB\dot.png",320,240 S,0,172451,,0.5 C,0,172451,,151,151,255 M,1,172451,173257,413,283,344,274 F,0,172451,173257,1,0
Sprite,Foreground,Centre,"SB\dot.png",320,240 S,0,172451,,0.2 M,1,172451,173257,413,283,402,352 F,0,172451,173257,1,0
Sprite,Foreground,Centre,"SB\dot.png",320,240 S,0,172451,,0.2 M,1,172451,173257,413,283,454,311 F,0,172451,173257,1,0
Sprite,Foreground,Centre,"SB\dot.png",320,240 S,0,172451,,0.2 M,1,172451,173257,413,283,482,228 F,0,172451,173257,1,0
Sprite,Foreground,Centre,"SB\dot.png",320,240 S,0,172451,,0.2 M,1,172451,173257,413,283,470,226 F,0,172451,173257,1,0
Sprite,Foreground,Centre,"SB\dot.png",320,240 S,0,172451,,0.2 M,1,172451,173257,413,283,424,308 F,0,172451,173257,1,0
Sprite,Foreground,Centre,"SB\dot.png",320,240 S,0,172451,,0.2 M,1,172451,173257,413,283,372,353 F,0,172451,173257,1,0
Sprite,Foreground,Centre,"SB\dot.png",320,240 S,0,172920,,0.5 C,0,172920,,152,152,255 M,1,172920,173726,157,319,159,389 F,0,172920,173726,1,0
Sprite,Foreground,Centre,"SB\dot.png",320,240 S,0,172920,,0.5 C,0,172920,,152,152,255 M,1,172920,173726,157,319,217,355 F,0,172920,173726,1,0
Sprite,Foreground,Centre,"SB\dot.png",320,240 S,0,172920,,0.5 C,0,172920,,152,152,255 M,1,172920,173726,157,319,220,288 F,0,172920,173726,1,0
Sprite,Foreground,Centre,"SB\dot.png",320,240 S,0,172920,,0.5 C,0,172920,,152,152,255 M,1,172920,173726,157,319,164,249 F,0,172920,173726,1,0
Sprite,Foreground,Centre,"SB\dot.png",320,240 S,0,172920,,0.5 C,0,172920,,152,152,255 M,1,172920,173726,157,319,102,275 F,0,172920,173726,1,0
Sprite,Foreground,Centre,"SB\dot.png",320,240 S,0,172920,,0.5 C,0,172920,,152,152,255 M,1,172920,173726,157,319,91,341 F,0,172920,173726,1,0
Sprite,Foreground,Centre,"SB\dot.png",320,240 S,0,172920,,0.2 M,1,172920,173726,157,319,177,386 F,0,172920,173726,1,0
Sprite,Foreground,Centre,"SB\dot.png",320,240 S,0,172920,,0.2 M,1,172920,173726,157,319,219,317 F,0,172920,173726,1,0
Sprite,Foreground,Centre,"SB\dot.png",320,240 S,0,172920,,0.2 M,1,172920,173726,157,319,224,251 F,0,172920,173726,1,0
Sprite,Foreground,Centre,"SB\dot.png",320,240 S,0,172920,,0.2 M,1,172920,173726,157,319,190,286 F,0,172920,173726,1,0
Sprite,Foreground,Centre,"SB\dot.png",320,240 S,0,172920,,0.2 M,1,172920,173726,157,319,137,370 F,0,172920,173726,1,0
Sprite,Foreground,Centre,"SB\dot.png",320,240 S,0,172920,,0.2 M,1,172920,173726,157,319,95,378 F,0,172920,173726,1,0
Sprite,Foreground,Centre,"SB\dot.png",320,240 S,0,254795,,0.5 C,0,254795,,255,0,0 M,1,254795,255601,305,267,277,331 F,0,254795,255601,1,0
Sprite,Foreground,Centre,"SB\dot.png",320,240 S,0,254795,,0.5 C,0,254795,,255,0,0 M,1,254795,255601,305,267,344,325 F,0,254795,255601,1,0
Sprite,Foreground,Centre,"SB\dot.png",320,240 S,0,254795,,0.5 C,0,254795,,255,0,0 M,1,254795,255601,305,267,375,266 F,0,254795,255601,1,0
Sprite,Foreground,Centre,"SB\dot.png",320,240 S,0,254795,,0.5 C,0,254795,,255,0,0 M,1,254795,255601,305,267,342,208 F,0,254795,255601,1,0
Sprite,Foreground,Centre,"SB\dot.png",320,240 S,0,254795,,0.5 C,0,254795,,255,0,0 M,1,254795,255601,305,267,275,204 F,0,254795,255601,1,0
Sprite,Foreground,Centre,"SB\dot.png",320,240 S,0,254795,,0.5 C,0,254795,,255,0,0 M,1,254795,255601,305,267,236,258 F,0,254795,255601,1,0
Sprite,Foreground,Centre,"SB\dot.png",320,240 S,0,254795,,0.2 M,1,254795,255601,305,267,294,336 F,0,254795,255601,1,0
Sprite,Foreground,Centre,"SB\dot.png",320,240 S,0,254795,,0.2 M,1,254795,255601,305,267,346,295 F,0,254795,255601,1,0
Sprite,Foreground,Centre,"SB\dot.png",320,240 S,0,254795,,0.2 M,1,254795,255601,305,267,374,212 F,0,254795,255601,1,0
Sprite,Foreground,Centre,"SB\dot.png",320,240 S,0,254795,,0.2 M,1,254795,255601,305,267,362,210 F,0,254795,255601,1,0
Sprite,Foreground,Centre,"SB\dot.png",320,240 S,0,254795,,0.2 M,1,254795,255601,305,267,316,292 F,0,254795,255601,1,0
Sprite,Foreground,Centre,"SB\dot.png",320,240 S,0,254795,,0.2 M,1,254795,255601,305,267,264,337 F,0,254795,255601,1,0
Sprite,Foreground,Centre,"SB\dot.png",320,240 S,0,255107,,0.5 C,0,255107,,255,2,2 M,1,255107,255913,537,315,566,379 F,0,255107,255913,1,0
Sprite,Foreground,Centre,"SB\dot.png",320,240 S,0,255107,,0.5 C,0,255107,,255,2,2 M,1,255107,255913,537,315,606,325 F,0,255107,255913,1,0
Sprite,Foreground,Centre,"SB\dot.png",320,240 S,0,255107,,0.5 C,0,255107,,255,2,2 M,1,255107,255913,537,315,583,262 F,0,255107,255913,1,0
Sprite,Foreground,Centre,"SB\dot.png",320,240 S,0,255107,,0.5 C,0,255107,,255,2,2 M,1,255107,255913,537,315,517,248 F,0,255107,255913,1,0
Sprite,Foreground,Centre,"SB\dot.png",320,240 S,0,255107,,0.5 C,0,255107,,255,2,2 M,1,255107,255913,537,315,470,296 F,0,255107,255913,1,0
Sprite,Foreground,Centre,"SB\dot.png",320,240 S,0,255107,,0.5 C,0,255107,,255,2,2 M,1,255107,255913,537,315,484,361 F,0,255107,255913,1,0
Sprite,Foreground,Centre,"SB\dot.png",320,240 S,0,255107,,0.2 M,1,255107,255913,537,315,582,369 F,0,255107,255913,1,0
Sprite,Foreground,Centre,"SB\dot.png",320,240 S,0,255107,,0.2 M,1,255107,255913,537,315,607,286 F,0,255107,255913,1,0
Sprite,Foreground,Centre,"SB\dot.png",320,240 S,0,255107,,0.2 M,1,255107,255913,537,315,591,246 F,0,255107,255913,1,0
Sprite,Foreground,Centre,"SB\dot.png",320,240 S,0,255107,,0.2 M,1,255107,255913,537,315,543,309 F,0,255107,255913,1,0
Sprite,Foreground,Centre,"SB\dot.png",320,240 S,0,255107,,0.2 M,1,255107,255913,537,315,492,381 F,0,255107,255913,1,0
Sprite,Foreground,Centre,"SB\dot.png",320,240 S,0,255107,,0.2 M,1,255107,255913,537,315,467,355 F,0,255107,255913,1,0
Sprite,Foreground,Centre,"SB\dot.png",320,240 S,0,255263,,0.5 C,0,255263,,255,76,76 M,1,255263,256069,537,315,600,285 F,0,255263,256069,1,0
Sprite,Foreground,Centre,"SB\dot.png",320,240 S,0,255263,,0.5 C,0,255263,,255,76,76 M,1,255263,256069,537,315,546,246 F,0,255263,256069,1,0
Sprite,Foreground,Centre,"SB\dot.png",320,240 S,0,255263,,0.5 C,0,255263,,255,76,76 M,1,255263,256069,537,315,483,270 F,0,255263,256069,1,0
Sprite,Foreground,Centre,"SB\dot.png",320,240 S,0,255263,,0.5 C,0,255263,,255,76,76 M,1,255263,256069,537,315,470,336 F,0,255263,256069,1,0
Sprite,Foreground,Centre,"SB\dot.png",320,240 S,0,255263,,0.5 C,0,255263,,255,76,76 M,1,255263,256069,537,315,519,383 F,0,255263,256069,1,0
Sprite,Foreground,Centre,"SB\dot.png",320,240 S,0,255263,,0.5 C,0,255263,,255,76,76 M,1,255263,256069,537,315,584,367 F,0,255263,256069,1,0
Sprite,Foreground,Centre,"SB\dot.png",320,240 S,0,255263,,0.2 M,1,255263,256069,537,315,590,269 F,0,255263,256069,1,0
Sprite,Foreground,Centre,"SB\dot.png",320,240 S,0,255263,,0.2 M,1,255263,256069,537,315,542,252 F,0,255263,256069,1,0
Sprite,Foreground,Centre,"SB\dot.png",320,240 S,0,255263,,0.2 M,1,255263,256069,537,315,491,328 F,0,255263,256069,1,0
Sprite,Foreground,Centre,"SB\dot.png",320,240 S,0,255263,,0.2 M,1,255263,256069,537,315,467,385 F,0,255263,256069,1,0
Sprite,Foreground,Centre,"SB\dot.png",320,240 S,0,255263,,0.2 M,1,255263,256069,537,315,484,338 F,0,255263,256069,1,0
Sprite,Foreground,Centre,"SB\dot.png",320,240 S,0,255263,,0.2 M,1,255263,256069,537,315,532,257 F,0,255263,256069,1,0
Sprite,Foreground,Centre,"SB\dot.png",320,240 S,0,255420,,0.5 C,0,255420,,255,35,35 M,1,255420,256226,337,383,302,443 F,0,255420,256226,1,0
Sprite,Foreground,Centre,"SB\dot.png",320,240 S,0,255420,,0.5 C,0,255420,,255,35,35 M,1,255420,256226,337,383,369,445 F,0,255420,256226,1,0
Sprite,Foreground,Centre,"SB\dot.png",320,240 S,0,255420,,0.5 C,0,255420,,255,35,35 M,1,255420,256226,337,383,407,390 F,0,255420,256226,1,0
Sprite,Foreground,Centre,"SB\dot.png",320,240 S,0,255420,,0.5 C,0,255420,,255,35,35 M,1,255420,256226,337,383,381,328 F,0,255420,256226,1,0
Sprite,Foreground,Centre,"SB\dot.png",320,240 S,0,255420,,0.5 C,0,255420,,255,35,35 M,1,255420,256226,337,383,314,317 F,0,255420,256226,1,0
Sprite,Foreground,Centre,"SB\dot.png",320,240 S,0,255420,,0.5 C,0,255420,,255,35,35 M,1,255420,256226,337,383,269,366 F,0,255420,256226,1,0
Sprite,Foreground,Centre,"SB\dot.png",320,240 S,0,255420,,0.2 M,1,255420,256226,337,383,318,450 F,0,255420,256226,1,0
Sprite,Foreground,Centre,"SB\dot.png",320,240 S,0,255420,,0.2 M,1,255420,256226,337,383,372,418 F,0,255420,256226,1,0
Sprite,Foreground,Centre,"SB\dot.png",320,240 S,0,255420,,0.2 M,1,255420,256226,337,383,404,334 F,0,255420,256226,1,0
Sprite,Foreground,Centre,"SB\dot.png",320,240 S,0,255420,,0.2 M,1,255420,256226,337,383,398,322 F,0,255420,256226,1,0
Sprite,Foreground,Centre,"SB\dot.png",320,240 S,0,255420,,0.2 M,1,255420,256226,337,383,356,401 F,0,255420,256226,1,0
Sprite,Foreground,Centre,"SB\dot.png",320,240 S,0,255420,,0.2 M,1,255420,256226,337,383,302,453 F,0,255420,256226,1,0
Sprite,Foreground,Centre,"SB\dot.png",320,240 S,0,255732,,0.5 C,0,255732,,255,40,40 M,1,255732,256538,453,207,394,170 F,0,255732,256538,1,0
Sprite,Foreground,Centre,"SB\dot.png",320,240 S,0,255732,,0.5 C,0,255732,,255,40,40 M,1,255732,256538,453,207,390,237 F,0,255732,256538,1,0
Sprite,Foreground,Centre,"SB\dot.png",320,240 S,0,255732,,0.5 C,0,255732,,255,40,40 M,1,255732,256538,453,207,444,276 F,0,255732,256538,1,0
Sprite,Foreground,Centre,"SB\dot.png",320,240 S,0,255732,,0.5 C,0,255732,,255,40,40 M,1,255732,256538,453,207,506,252 F,0,255732,256538,1,0
Sprite,Foreground,Centre,"SB\dot.png",320,240 S,0,255732,,0.5 C,0,255732,,255,40,40 M,1,255732,256538,453,207,520,187 F,0,255732,256538,1,0
Sprite,Foreground,Centre,"SB\dot.png",320,240 S,0,255732,,0.5 C,0,255732,,255,40,40 M,1,255732,256538,453,207,472,140 F,0,255732,256538,1,0
Sprite,Foreground,Centre,"SB\dot.png",320,240 S,0,255732,,0.2 M,1,255732,256538,453,207,386,186 F,0,255732,256538,1,0
Sprite,Foreground,Centre,"SB\dot.png",320,240 S,0,255732,,0.2 M,1,255732,256538,453,207,391,266 F,0,255732,256538,1,0
Sprite,Foreground,Centre,"SB\dot.png",320,240 S,0,255732,,0.2 M,1,255732,256538,453,207,432,258 F,0,255732,256538,1,0
Sprite,Foreground,Centre,"SB\dot.png",320,240 S,0,255732,,0.2 M,1,255732,256538,453,207,486,174 F,0,255732,256538,1,0
Sprite,Foreground,Centre,"SB\dot.png",320,240 S,0,255732,,0.2 M,1,255732,256538,453,207,520,139 F,0,255732,256538,1,0
Sprite,Foreground,Centre,"SB\dot.png",320,240 S,0,255732,,0.2 M,1,255732,256538,453,207,515,204 F,0,255732,256538,1,0
Sprite,Foreground,Centre,"SB\dot.png",320,240 S,0,256045,,0.5 C,0,256045,,255,57,57 M,1,256045,256851,217,303,150,324 F,0,256045,256851,1,0
Sprite,Foreground,Centre,"SB\dot.png",320,240 S,0,256045,,0.5 C,0,256045,,255,57,57 M,1,256045,256851,217,303,199,371 F,0,256045,256851,1,0
Sprite,Foreground,Centre,"SB\dot.png",320,240 S,0,256045,,0.5 C,0,256045,,255,57,57 M,1,256045,256851,217,303,264,355 F,0,256045,256851,1,0
Sprite,Foreground,Centre,"SB\dot.png",320,240 S,0,256045,,0.5 C,0,256045,,255,57,57 M,1,256045,256851,217,303,286,292 F,0,256045,256851,1,0
Sprite,Foreground,Centre,"SB\dot.png",320,240 S,0,256045,,0.5 C,0,256045,,255,57,57 M,1,256045,256851,217,303,245,239 F,0,256045,256851,1,0
Sprite,Foreground,Centre,"SB\dot.png",320,240 S,0,256045,,0.5 C,0,256045,,255,57,57 M,1,256045,256851,217,303,178,245 F,0,256045,256851,1,0
Sprite,Foreground,Centre,"SB\dot.png",320,240 S,0,256045,,0.2 M,1,256045,256851,217,303,158,341 F,0,256045,256851,1,0
Sprite,Foreground,Centre,"SB\dot.png",320,240 S,0,256045,,0.2 M,1,256045,256851,217,303,202,370 F,0,256045,256851,1,0
Sprite,Foreground,Centre,"SB\dot.png",320,240 S,0,256045,,0.2 M,1,256045,256851,217,303,255,300 F,0,256045,256851,1,0
Sprite,Foreground,Centre,"SB\dot.png",320,240 S,0,256045,,0.2 M,1,256045,256851,217,303,285,235 F,0,256045,256851,1,0
Sprite,Foreground,Centre,"SB\dot.png",320,240 S,0,256045,,0.2 M,1,256045,256851,217,303,276,271 F,0,256045,256851,1,0
Sprite,Foreground,Centre,"SB\dot.png",320,240 S,0,256045,,0.2 M,1,256045,256851,217,303,232,355 F,0,256045,256851,1,0
Sprite,Foreground,Centre,"SB\dot.png",320,240 S,0,256357,,0.5 C,0,256357,,255,5,5 M,1,256357,257163,345,99,415,97 F,0,256357,257163,1,0
Sprite,Foreground,Centre,"SB\dot.png",320,240 S,0,256357,,0.5 C,0,256357,,255,5,5 M,1,256357,257163,345,99,381,39 F,0,256357,257163,1,0
Sprite,Foreground,Centre,"SB\dot.png",320,240 S,0,256357,,0.5 C,0,256357,,255,5,5 M,1,256357,257163,345,99,314,36 F,0,256357,257163,1,0
Sprite,Foreground,Centre,"SB\dot.png",320,240 S,0,256357,,0.5 C,0,256357,,255,5,5 M,1,256357,257163,345,99,275,91 F,0,256357,257163,1,0
Sprite,Foreground,Centre,"SB\dot.png",320,240 S,0,256357,,0.5 C,0,256357,,255,5,5 M,1,256357,257163,345,99,301,153 F,0,256357,257163,1,0
Sprite,Foreground,Centre,"SB\dot.png",320,240 S,0,256357,,0.5 C,0,256357,,255,5,5 M,1,256357,257163,345,99,367,165 F,0,256357,257163,1,0
Sprite,Foreground,Centre,"SB\dot.png",320,240 S,0,256357,,0.2 M,1,256357,257163,345,99,412,79 F,0,256357,257163,1,0
Sprite,Foreground,Centre,"SB\dot.png",320,240 S,0,256357,,0.2 M,1,256357,257163,345,99,378,29 F,0,256357,257163,1,0
Sprite,Foreground,Centre,"SB\dot.png",320,240 S,0,256357,,0.2 M,1,256357,257163,345,99,325,83 F,0,256357,257163,1,0
Sprite,Foreground,Centre,"SB\dot.png",320,240 S,0,256357,,0.2 M,1,256357,257163,345,99,283,161 F,0,256357,257163,1,0
Sprite,Foreground,Centre,"SB\dot.png",320,240 S,0,256357,,0.2 M,1,256357,257163,345,99,278,147 F,0,256357,257163,1,0
Sprite,Foreground,Centre,"SB\dot.png",320,240 S,0,256357,,0.2 M,1,256357,257163,345,99,312,62 F,0,256357,257163,1,0
Sprite,Foreground,Centre,"SB\dot.png",320,240 S,0,256670,,0.5 C,0,256670,,255,20,20 M,1,256670,257476,65,227,-3,209 F,0,256670,257476,1,0
Sprite,Foreground,Centre,"SB\dot.png",320,240 S,0,256670,,0.5 C,0,256670,,255,20,20 M,1,256670,257476,65,227,13,274 F,0,256670,257476,1,0
Sprite,Foreground,Centre,"SB\dot.png",320,240 S,0,256670,,0.5 C,0,256670,,255,20,20 M,1,256670,257476,65,227,77,296 F,0,256670,257476,1,0
Sprite,Foreground,Centre,"SB\dot.png",320,240 S,0,256670,,0.5 C,0,256670,,255,20,20 M,1,256670,257476,65,227,129,254 F,0,256670,257476,1,0
Sprite,Foreground,Centre,"SB\dot.png",320,240 S,0,256670,,0.5 C,0,256670,,255,20,20 M,1,256670,257476,65,227,123,188 F,0,256670,257476,1,0
Sprite,Foreground,Centre,"SB\dot.png",320,240 S,0,256670,,0.5 C,0,256670,,255,20,20 M,1,256670,257476,65,227,63,157 F,0,256670,257476,1,0
Sprite,Foreground,Centre,"SB\dot.png",320,240 S,0,256670,,0.2 M,1,256670,257476,65,227,-5,227 F,0,256670,257476,1,0
Sprite,Foreground,Centre,"SB\dot.png",320,240 S,0,256670,,0.2 M,1,256670,257476,65,227,16,295 F,0,256670,257476,1,0
Sprite,Foreground,Centre,"SB\dot.png",320,240 S,0,256670,,0.2 M,1,256670,257476,65,227,65,262 F,0,256670,257476,1,0
Sprite,Foreground,Centre,"SB\dot.png",320,240 S,0,256670,,0.2 M,1,256670,257476,65,227,115,177 F,0,256670,257476,1,0
Sprite,Foreground,Centre,"SB\dot.png",320,240 S,0,256670,,0.2 M,1,256670,257476,65,227,135,166 F,0,256670,257476,1,0
Sprite,Foreground,Centre,"SB\dot.png",320,240 S,0,256670,,0.2 M,1,256670,257476,65,227,114,245 F,0,256670,257476,1,0
Sprite,Foreground,Centre,"SB\dot.png",320,240 S,0,256982,,0.5 C,0,256982,,255,42,42 M,1,256982,257788,289,187,328,245 F,0,256982,257788,1,0
Sprite,Foreground,Centre,"SB\dot.png",320,240 S,0,256982,,0.5 C,0,256982,,255,42,42 M,1,256982,257788,289,187,359,186 F,0,256982,257788,1,0
Sprite,Foreground,Centre,"SB\dot.png",320,240 S,0,256982,,0.5 C,0,256982,,255,42,42 M,1,256982,257788,289,187,326,128 F,0,256982,257788,1,0
Sprite,Foreground,Centre,"SB\dot.png",320,240 S,0,256982,,0.5 C,0,256982,,255,42,42 M,1,256982,257788,289,187,259,124 F,0,256982,257788,1,0
Sprite,Foreground,Centre,"SB\dot.png",320,240 S,0,256982,,0.5 C,0,256982,,255,42,42 M,1,256982,257788,289,187,220,178 F,0,256982,257788,1,0
Sprite,Foreground,Centre,"SB\dot.png",320,240 S,0,256982,,0.5 C,0,256982,,255,42,42 M,1,256982,257788,289,187,244,241 F,0,256982,257788,1,0
Sprite,Foreground,Centre,"SB\dot.png",320,240 S,0,256982,,0.2 M,1,256982,257788,289,187,341,233 F,0,256982,257788,1,0
Sprite,Foreground,Centre,"SB\dot.png",320,240 S,0,256982,,0.2 M,1,256982,257788,289,187,359,148 F,0,256982,257788,1,0
Sprite,Foreground,Centre,"SB\dot.png",320,240 S,0,256982,,0.2 M,1,256982,257788,289,187,335,121 F,0,256982,257788,1,0
Sprite,Foreground,Centre,"SB\dot.png",320,240 S,0,256982,,0.2 M,1,256982,257788,289,187,285,191 F,0,256982,257788,1,0
Sprite,Foreground,Centre,"SB\dot.png",320,240 S,0,256982,,0.2 M,1,256982,257788,289,187,237,256 F,0,256982,257788,1,0
Sprite,Foreground,Centre,"SB\dot.png",320,240 S,0,256982,,0.2 M,1,256982,257788,289,187,219,218 F,0,256982,257788,1,0
Sprite,Foreground,Centre,"SB\dot.png",320,240 S,0,257138,,0.5 C,0,257138,,255,80,80 M,1,257138,257944,289,187,352,156 F,0,257138,257944,1,0
Sprite,Foreground,Centre,"SB\dot.png",320,240 S,0,257138,,0.5 C,0,257138,,255,80,80 M,1,257138,257944,289,187,296,117 F,0,257138,257944,1,0
Sprite,Foreground,Centre,"SB\dot.png",320,240 S,0,257138,,0.5 C,0,257138,,255,80,80 M,1,257138,257944,289,187,234,143 F,0,257138,257944,1,0
Sprite,Foreground,Centre,"SB\dot.png",320,240 S,0,257138,,0.5 C,0,257138,,255,80,80 M,1,257138,257944,289,187,223,209 F,0,257138,257944,1,0
Sprite,Foreground,Centre,"SB\dot.png",320,240 S,0,257138,,0.5 C,0,257138,,255,80,80 M,1,257138,257944,289,187,272,255 F,0,257138,257944,1,0
Sprite,Foreground,Centre,"SB\dot.png",320,240 S,0,257138,,0.5 C,0,257138,,255,80,80 M,1,257138,257944,289,187,337,238 F,0,257138,257944,1,0
Sprite,Foreground,Centre,"SB\dot.png",320,240 S,0,257138,,0.2 M,1,257138,257944,289,187,341,141 F,0,257138,257944,1,0
Sprite,Foreground,Centre,"SB\dot.png",320,240 S,0,257138,,0.2 M,1,257138,257944,289,187,293,124 F,0,257138,257944,1,0
Sprite,Foreground,Centre,"SB\dot.png",320,240 S,0,257138,,0.2 M,1,257138,257944,289,187,243,201 F,0,257138,257944,1,0
Sprite,Foreground,Centre,"SB\dot.png",320,240 S,0,257138,,0.2 M,1,257138,257944,289,187,219,257 F,0,257138,257944,1,0
Sprite,Foreground,Centre,"SB\dot.png",320,240 S,0,257138,,0.2 M,1,257138,257944,289,187,237,209 F,0,257138,257944,1,0
Sprite,Foreground,Centre,"SB\dot.png",320,240 S,0,257138,,0.2 M,1,257138,257944,289,187,285,129 F,0,257138,257944,1,0
Sprite,Foreground,Centre,"SB\dot.png",320,240 S,0,257295,,0.5 C,0,257295,,255,29,29 M,1,257295,258101,153,123,83,123 F,0,257295,258101,1,0
Sprite,Foreground,Centre,"SB\dot.png",320,240 S,0,257295,,0.5 C,0,257295,,255,29,29 M,1,257295,258101,153,123,115,182 F,0,257295,258101,1,0
Sprite,Foreground,Centre,"SB\dot.png",320,240 S,0,257295,,0.5 C,0,257295,,255,29,29 M,1,257295,258101,153,123,182,187 F,0,257295,258101,1,0
Sprite,Foreground,Centre,"SB\dot.png",320,240 S,0,257295,,0.5 C,0,257295,,255,29,29 M,1,257295,258101,153,123,222,133 F,0,257295,258101,1,0
Sprite,Foreground,Centre,"SB\dot.png",320,240 S,0,257295,,0.5 C,0,257295,,255,29,29 M,1,257295,258101,153,123,199,70 F,0,257295,258101,1,0
Sprite,Foreground,Centre,"SB\dot.png",320,240 S,0,257295,,0.5 C,0,257295,,255,29,29 M,1,257295,258101,153,123,133,56 F,0,257295,258101,1,0
Sprite,Foreground,Centre,"SB\dot.png",320,240 S,0,257295,,0.2 M,1,257295,258101,153,123,85,141 F,0,257295,258101,1,0
Sprite,Foreground,Centre,"SB\dot.png",320,240 S,0,257295,,0.2 M,1,257295,258101,153,123,118,193 F,0,257295,258101,1,0
Sprite,Foreground,Centre,"SB\dot.png",320,240 S,0,257295,,0.2 M,1,257295,258101,153,123,171,141 F,0,257295,258101,1,0
Sprite,Foreground,Centre,"SB\dot.png",320,240 S,0,257295,,0.2 M,1,257295,258101,153,123,214,62 F,0,257295,258101,1,0
Sprite,Foreground,Centre,"SB\dot.png",320,240 S,0,257295,,0.2 M,1,257295,258101,153,123,221,74 F,0,257295,258101,1,0
Sprite,Foreground,Centre,"SB\dot.png",320,240 S,0,257295,,0.2 M,1,257295,258101,153,123,188,158 F,0,257295,258101,1,0
Sprite,Foreground,Centre,"SB\dot.png",320,240 S,0,257451,,0.5 C,0,257451,,255,73,73 M,1,257451,258257,153,123,221,140 F,0,257451,258257,1,0
Sprite,Foreground,Centre,"SB\dot.png",320,240 S,0,257451,,0.5 C,0,257451,,255,73,73 M,1,257451,258257,153,123,204,75 F,0,257451,258257,1,0
Sprite,Foreground,Centre,"SB\dot.png",320,240 S,0,257451,,0.5 C,0,257451,,255,73,73 M,1,257451,258257,153,123,141,54 F,0,257451,258257,1,0
Sprite,Foreground,Centre,"SB\dot.png",320,240 S,0,257451,,0.5 C,0,257451,,255,73,73 M,1,257451,258257,153,123,88,96 F,0,257451,258257,1,0
Sprite,Foreground,Centre,"SB\dot.png",320,240 S,0,257451,,0.5 C,0,257451,,255,73,73 M,1,257451,258257,153,123,95,163 F,0,257451,258257,1,0
Sprite,Foreground,Centre,"SB\dot.png",320,240 S,0,257451,,0.5 C,0,257451,,255,73,73 M,1,257451,258257,153,123,155,193 F,0,257451,258257,1,0
Sprite,Foreground,Centre,"SB\dot.png",320,240 S,0,257451,,0.2 M,1,257451,258257,153,123,223,122 F,0,257451,258257,1,0
Sprite,Foreground,Centre,"SB\dot.png",320,240 S,0,257451,,0.2 M,1,257451,258257,153,123,202,55 F,0,257451,258257,1,0
Sprite,Foreground,Centre,"SB\dot.png",320,240 S,0,257451,,0.2 M,1,257451,258257,153,123,152,89 F,0,257451,258257,1,0
Sprite,Foreground,Centre,"SB\dot.png",320,240 S,0,257451,,0.2 M,1,257451,258257,153,123,103,173 F,0,257451,258257,1,0
Sprite,Foreground,Centre,"SB\dot.png",320,240 S,0,257451,,0.2 M,1,257451,258257,153,123,83,183 F,0,257451,258257,1,0
Sprite,Foreground,Centre,"SB\dot.png",320,240 S,0,257451,,0.2 M,1,257451,258257,153,123,104,104 F,0,257451,258257,1,0
Sprite,Foreground,Centre,"SB\dot.png",320,240 S,0,257607,,0.5 C,0,257607,,255,60,60 M,1,257607,258413,289,187,252,247 F,0,257607,258413,1,0
Sprite,Foreground,Centre,"SB\dot.png",320,240 S,0,257607,,0.5 C,0,257607,,255,60,60 M,1,257607,258413,289,187,320,250 F,0,257607,258413,1,0
Sprite,Foreground,Centre,"SB\dot.png",320,240 S,0,257607,,0.5 C,0,257607,,255,60,60 M,1,257607,258413,289,187,359,195 F,0,257607,258413,1,0
Sprite,Foreground,Centre,"SB\dot.png",320,240 S,0,257607,,0.5 C,0,257607,,255,60,60 M,1,257607,258413,289,187,334,133 F,0,257607,258413,1,0
Sprite,Foreground,Centre,"SB\dot.png",320,240 S,0,257607,,0.5 C,0,257607,,255,60,60 M,1,257607,258413,289,187,268,120 F,0,257607,258413,1,0
Sprite,Foreground,Centre,"SB\dot.png",320,240 S,0,257607,,0.5 C,0,257607,,255,60,60 M,1,257607,258413,289,187,221,169 F,0,257607,258413,1,0
Sprite,Foreground,Centre,"SB\dot.png",320,240 S,0,257607,,0.2 M,1,257607,258413,289,187,269,254 F,0,257607,258413,1,0
Sprite,Foreground,Centre,"SB\dot.png",320,240 S,0,257607,,0.2 M,1,257607,258413,289,187,322,224 F,0,257607,258413,1,0
Sprite,Foreground,Centre,"SB\dot.png",320,240 S,0,257607,,0.2 M,1,257607,258413,289,187,356,139 F,0,257607,258413,1,0
Sprite,Foreground,Centre,"SB\dot.png",320,240 S,0,257607,,0.2 M,1,257607,258413,289,187,350,126 F,0,257607,258413,1,0
Sprite,Foreground,Centre,"SB\dot.png",320,240 S,0,257607,,0.2 M,1,257607,258413,289,187,309,203 F,0,257607,258413,1,0
Sprite,Foreground,Centre,"SB\dot.png",320,240 S,0,257607,,0.2 M,1,257607,258413,289,187,256,257 F,0,257607,258413,1,0
Sprite,Foreground,Centre,"SB\dot.png",320,240 S,0,257920,,0.5 C,0,257920,,255,77,77 M,1,257920,258726,369,207,422,252 F,0,257920,258726,1,0
Sprite,Foreground,Centre,"SB\dot.png",320,240 S,0,257920,,0.5 C,0,257920,,255,77,77 M,1,257920,258726,369,207,436,187 F,0,257920,258726,1,0
Sprite,Foreground,Centre,"SB\dot.png",320,240 S,0,257920,,0.5 C,0,257920,,255,77,77 M,1,257920,258726,369,207,388,140 F,0,257920,258726,1,0
Sprite,Foreground,Centre,"SB\dot.png",320,240 S,0,257920,,0.5 C,0,257920,,255,77,77 M,1,257920,258726,369,207,323,155 F,0,257920,258726,1,0
Sprite,Foreground,Centre,"SB\dot.png",320,240 S,0,257920,,0.5 C,0,257920,,255,77,77 M,1,257920,258726,369,207,300,218 F,0,257920,258726,1,0
Sprite,Foreground,Centre,"SB\dot.png",320,240 S,0,257920,,0.5 C,0,257920,,255,77,77 M,1,257920,258726,369,207,341,271 F,0,257920,258726,1,0
Sprite,Foreground,Centre,"SB\dot.png",320,240 S,0,257920,,0.2 M,1,257920,258726,369,207,432,237 F,0,257920,258726,1,0
Sprite,Foreground,Centre,"SB\dot.png",320,240 S,0,257920,,0.2 M,1,257920,258726,369,207,435,154 F,0,257920,258726,1,0
Sprite,Foreground,Centre,"SB\dot.png",320,240 S,0,257920,,0.2 M,1,257920,258726,369,207,399,149 F,0,257920,258726,1,0
Sprite,Foreground,Centre,"SB\dot.png",320,240 S,0,257920,,0.2 M,1,257920,258726,369,207,345,231 F,0,257920,258726,1,0
Sprite,Foreground,Centre,"SB\dot.png",320,240 S,0,257920,,0.2 M,1,257920,258726,369,207,306,277 F,0,257920,258726,1,0
Sprite,Foreground,Centre,"SB\dot.png",320,240 S,0,257920,,0.2 M,1,257920,258726,369,207,303,220 F,0,257920,258726,1,0
Sprite,Foreground,Centre,"SB\dot.png",320,240 S,0,258076,,0.5 C,0,258076,,255,7,7 M,1,258076,258882,369,207,329,150 F,0,258076,258882,1,0
Sprite,Foreground,Centre,"SB\dot.png",320,240 S,0,258076,,0.5 C,0,258076,,255,7,7 M,1,258076,258882,369,207,299,210 F,0,258076,258882,1,0
Sprite,Foreground,Centre,"SB\dot.png",320,240 S,0,258076,,0.5 C,0,258076,,255,7,7 M,1,258076,258882,369,207,334,267 F,0,258076,258882,1,0
Sprite,Foreground,Centre,"SB\dot.png",320,240 S,0,258076,,0.5 C,0,258076,,255,7,7 M,1,258076,258882,369,207,401,269 F,0,258076,258882,1,0
Sprite,Foreground,Centre,"SB\dot.png",320,240 S,0,258076,,0.5 C,0,258076,,255,7,7 M,1,258076,258882,369,207,439,214 F,0,258076,258882,1,0
Sprite,Foreground,Centre,"SB\dot.png",320,240 S,0,258076,,0.5 C,0,258076,,255,7,7 M,1,258076,258882,369,207,413,152 F,0,258076,258882,1,0
Sprite,Foreground,Centre,"SB\dot.png",320,240 S,0,258076,,0.2 M,1,258076,258882,369,207,315,162 F,0,258076,258882,1,0
Sprite,Foreground,Centre,"SB\dot.png",320,240 S,0,258076,,0.2 M,1,258076,258882,369,207,299,247 F,0,258076,258882,1,0
Sprite,Foreground,Centre,"SB\dot.png",320,240 S,0,258076,,0.2 M,1,258076,258882,369,207,324,273 F,0,258076,258882,1,0
Sprite,Foreground,Centre,"SB\dot.png",320,240 S,0,258076,,0.2 M,1,258076,258882,369,207,375,201 F,0,258076,258882,1,0
Sprite,Foreground,Centre,"SB\dot.png",320,240 S,0,258076,,0.2 M,1,258076,258882,369,207,423,138 F,0,258076,258882,1,0
Sprite,Foreground,Centre,"SB\dot.png",320,240 S,0,258076,,0.2 M,1,258076,258882,369,207,439,177 F,0,258076,258882,1,0
//Storyboard Sound Samples

[TimingPoints]
1045,312.5,4,2,1,50,1,0
1045,-133.333333333333,4,2,1,50,0,0
2920,-100,4,2,1,50,0,0
3545,-133.333333333333,4,2,1,50,0,0
5420,-100,4,2,1,50,0,0
6045,-133.333333333333,4,2,1,50,0,0
7451,-133.333333333333,4,2,1,70,0,0
7920,-100,4,2,1,70,0,0
8545,-133.333333333333,4,2,1,70,0,0
9795,-133.333333333333,4,2,1,70,0,0
10732,-100,4,2,1,70,0,0
20420,-100,4,2,1,50,0,0
20732,-83.3333333333333,4,2,1,50,0,0
21045,-117.647058823529,4,2,1,50,0,0
36045,-100,4,2,1,70,0,0
41045,-117.647058823529,4,2,1,50,0,0
53545,-117.647058823529,4,2,1,70,0,0
54170,-100,4,2,1,70,0,0
56045,-133.333333333333,4,2,1,60,0,0
74638,-133.333333333333,4,2,1,70,0,0
74795,-166.666666666667,4,2,1,70,0,0
75420,-166.666666666667,4,2,1,60,0,0
75732,-166.666666666667,4,2,1,50,0,0
76045,-100,4,2,1,80,0,1
106045,-100,4,2,1,80,0,0
114795,-100,4,2,1,50,0,0
116045,-117.647058823529,4,2,1,50,0,0
124795,-200,4,2,1,50,0,0
126045,-100,4,2,1,70,0,0
131045,-133.333333333333,4,2,1,60,0,0
145107,-100,4,2,1,60,0,0
149638,-100,4,2,1,70,0,0
150420,-76.9230769230769,4,2,1,60,0,0
150732,-100,4,2,1,50,0,0
151045,-100,4,2,1,80,0,0
168545,-100,4,2,1,85,0,1
171045,-100,4,2,1,70,0,0
173545,-117.647058823529,4,2,1,70,0,0
183545,-100,4,2,1,70,0,1
183857,-100,4,2,1,80,0,1
188545,-117.647058823529,4,2,1,60,0,0
199482,-117.647058823529,4,2,1,70,0,0
206045,-100,4,2,1,70,0,0
208545,-166.666666666667,4,2,1,70,0,0
209638,-166.666666666667,4,2,1,5,0,0
209795,-100,4,2,1,80,0,1
239795,-100,4,2,1,70,0,0
259638,-83.3333333333333,4,2,1,70,0,0

[Colours]
Combo1 : 235,160,217
Combo2 : 153,197,206
Combo3 : 148,56,203
Combo4 : 10,100,250
SliderTrackOverride : 17,89,115
SliderBorder : 133,127,210

[HitObjects]
108,110,1045,6,0,P|156:144|154:216,1,121.500004634857,12|0,0:1|0:0,0:0:0:0:
94,258,1513,2,0,P|154:244|214:280,1,121.500004634857,8|0,0:1|3:0,0:0:0:0:
258,339,1982,1,8,0:1:0:0:
418,301,2295,5,2,0:0:0:0:
384,225,2451,2,0,P|312:208|265:245,1,121.500004634857,0|8,0:0|0:1,0:0:0:0:
248,124,2920,6,0,L|265:215,1,81,0|0,0:0|0:0,0:0:0:0:
412,56,3232,2,0,L|400:148,1,81,8|0,0:1|0:0,0:0:0:0:
497,245,3545,6,0,P|444:212|383:224,1,121.500004634857,8|0,0:1|0:0,0:0:0:0:
320,276,4013,2,0,P|261:288|196:256,1,121.500004634857,0|0,0:0|3:0,0:0:0:0:
147,198,4482,1,8,0:1:0:0:
320,276,4795,5,2,0:0:0:0:
265,212,4951,2,0,P|193:185|135:208,1,121.500004634857,0|8,0:0|0:1,0:0:0:0:
8,136,5420,6,0,P|48:132|100:152,1,81,0|0,3:0|0:0,0:0:0:0:
265,212,5732,2,0,P|308:220|356:212,1,81,8|0,0:1|0:0,0:0:0:0:
440,144,6045,6,0,L|424:280,1,121.500004634857,8|0,0:1|0:0,0:0:0:0:
330,340,6513,2,0,L|348:210,1,121.500004634857,8|0,0:1|3:0,0:0:0:0:
329,133,6982,1,8,0:1:0:0:
330,340,7295,5,2,0:0:0:0:
252,300,7451,2,0,P|188:284|120:284,1,121.500004634857,0|8,0:0|0:1,0:0:0:0:
148,80,7920,6,0,L|156:168,1,81,0|0,0:0|0:0,0:0:0:0:
248,336,8232,2,0,L|264:236,1,81,8|0,0:1|0:0,0:0:0:0:
352,132,8545,6,0,P|284:156|228:136,1,121.500004634857,8|0,0:1|0:0,0:0:0:0:
155,164,9013,2,0,L|139:304,1,121.500004634857,8|0,0:1|0:0,0:0:0:0:
168,368,9482,1,8,0:1:0:0:
312,236,9795,6,0,L|316:280,3,30.3750011587143,2|2|2|2,0:0|0:0|0:0|0:0,0:0:0:0:
228,184,10107,2,0,L|224:224,3,30.3750011587143,2|2|2|2,0:0|0:0|0:0|0:0,0:0:0:0:
312,132,10420,2,0,L|320:184,3,30.3750011587143,2|0|0|0,0:0|0:0|0:0|0:0,0:0:0:0:
312,236,10732,5,2,0:1:0:0:
240,20,10888,2,0,L|232:76,1,40.5,2|0,0:0|0:0,0:0:0:0:
152,129,11045,6,0,B|233:103|233:103|321:135,1,162,12|8,0:1|0:0,0:0:0:0:
451,100,11513,1,2,0:0:0:0:
389,267,11670,2,0,P|385:222|386:174,1,81,8|2,0:1|0:0,0:0:0:0:
442,16,11982,2,0,P|448:57|451:107,1,81,8|2,0:0|3:2,0:0:0:0:
309,299,12295,6,0,P|301:214|311:131,1,162,8|8,0:1|0:0,0:0:0:0:
389,267,12763,2,0,P|302:253|210:228,1,162,10|10,0:1|0:1,0:0:0:0:
104,139,13232,2,0,P|118:177|127:225,1,81,8|0,0:0|0:0,0:0:0:0:
199,358,13545,6,0,P|211:276|237:174,1,162,10|8,0:1|0:0,0:0:0:0:
303,68,14013,1,2,3:2:0:0:
303,68,14091,1,8,0:0:0:0:
303,68,14170,2,0,L|316:160,1,81,8|10,0:1|0:1,0:0:0:0:
126,220,14482,2,0,L|133:128,1,81,8|2,0:0|3:2,0:0:0:0:
214,16,14795,5,8,0:1:0:0:
224,184,14951,1,2,0:0:0:0:
112,108,15107,1,8,0:0:0:0:
260,72,15263,2,0,B|356:44|328:108|424:76,1,162,10|10,0:1|0:1,0:0:0:0:
312,224,15732,2,0,P|300:172|304:128,1,81,8|0,0:0|0:0,0:0:0:0:
460,184,16045,6,0,P|464:296|441:345,1,162,10|8,0:1|0:0,0:0:0:0:
310,280,16513,1,2,3:2:0:0:
310,280,16591,1,8,0:0:0:0:
310,280,16670,2,0,P|262:270|208:265,1,81,8|10,0:1|0:1,0:0:0:0:
380,197,16982,2,0,P|421:188|463:183,1,81,8|2,0:0|3:2,0:0:0:0:
320,112,17295,5,8,0:1:0:0:
310,280,17451,1,2,0:0:0:0:
440,224,17607,1,8,0:0:0:0:
296,195,17763,2,0,B|172:171|172:171|132:208,1,162,10|10,0:1|0:1,0:0:0:0:
196,344,18232,2,0,P|204:304|200:252,1,81,8|0,0:0|3:0,0:0:0:0:
150,39,18545,6,0,P|130:141|150:205,1,162,10|8,0:1|0:0,0:0:0:0:
332,116,19013,1,2,3:2:0:0:
332,116,19091,1,0,3:0:0:0:
332,116,19170,2,0,L|244:128,1,81,8|10,0:1|0:1,0:0:0:0:
64,185,19482,2,0,L|160:197,1,81,12|10,0:0|0:1,0:0:0:0:
335,263,19795,5,12,0:0:0:0:
273,365,19951,2,0,P|213:349|177:337,1,81,10|10,0:1|0:1,0:0:0:0:
413,242,20263,2,0,P|374:253|335:263,1,81,10|10,0:1|0:1,0:0:0:0:
88,360,20576,5,0,0:0:0:0:
88,360,20654,1,0,3:0:0:0:
88,360,20732,2,0,P|68:310|80:262,1,97.1999970336915,8|0,0:0|0:0,0:0:0:0:
216,152,21045,6,0,P|300:164|380:176,2,137.700002626419,10|8|8,0:1|0:0|0:1,0:0:0:0:
128,200,21826,1,8,0:1:0:0:
280,276,21982,1,8,0:0:0:0:
164,348,22138,1,0,0:0:0:0:
216,152,22295,6,0,L|199:235,1,68.8500013132096,8|2,0:1|0:0,0:0:0:0:
132,60,22607,1,8,0:0:0:0:
132,60,22763,1,8,0:1:0:0:
12,180,22920,2,0,P|43:174|92:160,1,68.8500013132096,2|8,3:2|0:1,0:0:0:0:
294,122,23232,2,0,P|261:115|222:113,1,68.8500013132096,10|0,0:0|3:2,0:0:0:0:
104,192,23545,6,0,P|84:272|96:336,2,137.700002626419,10|8|8,0:1|0:0|0:1,0:0:0:0:
144,84,24326,1,8,0:1:0:0:
248,144,24482,2,0,P|296:156|364:164,1,103.275001969814,10|0,0:0|3:2,0:0:0:0:
384,144,24795,6,0,P|356:200|336:280,1,137.700002626419,8|8,0:1|0:0,0:0:0:0:
259,199,25263,1,8,0:1:0:0:
188,284,25420,2,0,P|183:246|174:200,1,68.8500013132096,2|8,3:2|0:1,0:0:0:0:
266,52,25732,2,0,P|251:82|241:126,1,68.8500013132096,10|0,0:0|3:2,0:0:0:0:
394,189,26045,6,0,P|308:184|244:208,2,137.700002626419,10|8|8,0:1|0:0|0:1,0:0:0:0:
496,224,26826,1,8,0:1:0:0:
376,296,26982,2,0,P|321:295|266:284,1,103.275001969814,10|0,0:0|3:2,0:0:0:0:
236,268,27295,6,0,B|176:248|132:264|132:264|160:304,1,137.700002626419,10|8,0:1|0:0,0:0:0:0:
260,244,27763,1,10,0:1:0:0:
243,126,27920,2,0,L|251:42,2,68.8500013132096,0|8|10,3:2|0:1|0:0,0:0:0:0:
155,68,28388,1,0,3:2:0:0:
76,144,28545,6,0,P|106:153|152:159,1,68.8500013132096,10|0,0:1|0:0,0:0:0:0:
345,138,28857,2,0,P|295:125|234:129,1,103.275001969814,8|0,0:0|0:0,0:0:0:0:
208,152,29170,2,0,P|175:157|127:157,1,68.8500013132096,8|8,0:1|0:1,0:0:0:0:
228,32,29482,1,12,0:0:0:0:
345,138,29638,2,0,L|333:219,1,68.8500013132096,0|8,0:0|0:1,0:0:0:0:
140,157,29951,6,0,L|132:84,1,68.8500013132096,2|8,0:0|0:0,0:0:0:0:
236,150,30263,2,0,B|262:222|216:222|238:289,1,137.700002626419,10|10,0:1|0:1,0:0:0:0:
325,250,30732,1,8,0:0:0:0:
155,192,30888,1,2,0:0:0:0:
292,84,31045,6,0,L|432:108,2,137.700002626419,10|8|8,0:1|0:0|0:1,0:0:0:0:
171,51,31826,1,8,0:1:0:0:
56,168,31982,2,0,L|136:156,1,68.8500013132096,10|0,0:0|3:2,0:0:0:0:
300,224,32295,6,0,P|224:208|168:248,1,137.700002626419,10|8,0:1|0:0,0:0:0:0:
124,157,32763,1,2,3:1:0:0:
248,96,32920,2,0,L|236:176,1,68.8500013132096,8|8,0:1|0:1,0:0:0:0:
164,332,33232,2,0,L|156:252,1,68.8500013132096,10|8,0:0|0:1,0:0:0:0:
320,148,33545,6,0,L|300:288,1,137.700002626419,12|10,0:1|0:1,0:0:0:0:
224,200,34013,1,0,3:2:0:0:
224,200,34091,1,0,3:2:0:0:
224,200,34170,1,10,0:1:0:0:
320,116,34326,1,8,0:1:0:0:
456,228,34482,2,0,P|420:220|376:204,1,68.8500013132096,10|8,0:0|0:1,0:0:0:0:
193,128,34795,6,0,P|200:190|208:283,2,137.700002626419,10|10|10,0:1|0:0|0:1,0:0:0:0:
160,16,35576,1,8,0:1:0:0:
46,107,35732,2,0,P|78:106|128:92,1,68.8500013132096,12|0,0:0|0:0,0:0:0:0:
340,24,36045,6,0,B|256:-4|256:64|180:28,1,162,12|8,0:1|0:0,0:0:0:0:
304,104,36513,2,0,P|346:111|384:117,1,81,2|8,3:2|0:1,0:0:0:0:
276,208,36826,1,8,0:1:0:0:
170,88,36982,2,0,P|162:148|166:224,1,121.5,10|0,0:0|0:0,0:0:0:0:
166,240,37295,5,8,0:1:0:0:
266,132,37451,2,0,P|263:88|254:46,1,81,2|8,0:0|0:0,0:0:0:0:
78,104,37763,2,0,P|71:182|80:272,1,162,8|10,0:1|0:1,0:0:0:0:
163,208,38232,1,10,0:0:0:0:
264,304,38388,1,0,0:0:0:0:
344,128,38545,6,0,B|328:236|328:236|356:288,1,162,8|12,0:1|0:0,0:0:0:0:
460,228,39013,2,0,L|444:132,1,81,0|8,3:2|0:1,0:0:0:0:
400,32,39326,1,8,0:1:0:0:
276,92,39482,2,0,P|216:116|152:96,1,121.5,12|0,0:0|3:2,0:0:0:0:
128,92,39795,6,0,L|140:172,1,81,8|8,0:1|0:1,0:0:0:0:
210,34,40107,1,12,0:0:0:0:
272,124,40263,2,0,L|252:216,1,81,8|12,0:1|0:0,0:0:0:0:
120,336,40576,1,8,0:0:0:0:
120,336,40654,1,8,0:0:0:0:
120,336,40732,2,0,P|112:288|132:236,1,81,8|0,0:1|0:0,0:0:0:0:
328,300,41045,6,0,B|272:276|256:328|188:296,2,137.700002626419,10|8|8,0:1|0:0|0:1,0:0:0:0:
424,348,41826,1,8,0:1:0:0:
480,256,41982,2,0,L|392:272,1,68.8500013132096,10|0,0:0|0:0,0:0:0:0:
232,232,42295,6,0,P|301:217|368:204,1,137.700002626419,8|8,0:1|0:0,0:0:0:0:
348,76,42763,1,8,0:1:0:0:
264,136,42920,2,0,P|168:117|116:108,1,137.700002626419,2|8,3:2|0:0,0:0:0:0:
12,168,43388,1,8,0:1:0:0:
115,258,43545,6,0,P|101:182|125:126,1,137.700002626419,10|8,0:1|0:0,0:0:0:0:
248,212,44013,1,2,0:0:0:0:
248,212,44091,1,0,0:0:0:0:
248,212,44170,1,0,0:0:0:0:
296,80,44326,1,8,0:1:0:0:
404,144,44482,2,0,L|484:160,1,68.8500013132096,10|0,0:0|0:0,0:0:0:0:
272,80,44795,6,0,L|128:92,1,137.700002626419,8|8,0:1|0:0,0:0:0:0:
28,60,45263,1,8,0:1:0:0:
0,212,45420,2,0,P|52:164|128:172,1,137.700002626419,2|10,3:2|0:0,0:0:0:0:
192,240,45888,1,0,3:2:0:0:
24,328,46045,6,0,B|96:308|84:360|160:336,1,137.700002626419,10|8,0:1|0:0,0:0:0:0:
258,251,46513,2,0,P|223:251|191:239,1,68.8500013132096,2|0,0:0|0:0,0:0:0:0:
276,360,46826,2,0,P|304:342|338:335,1,68.8500013132096,8|10,0:1|0:0,0:0:0:0:
504,284,47138,1,0,0:0:0:0:
504,284,47216,1,0,0:0:0:0:
504,284,47295,6,0,P|428:292|364:256,1,137.700002626419,10|8,0:1|0:0,0:0:0:0:
280,184,47763,1,10,0:1:0:0:
184,320,47920,2,0,L|168:240,2,68.8500013132096,0|8|10,3:2|0:1|0:0,0:0:0:0:
272,268,48388,6,0,L|252:184,1,68.8500013132096,0|2,3:2|3:2,0:0:0:0:
144,128,48701,1,0,0:0:0:0:
48,258,48857,2,0,P|124:280|172:250,1,137.700002626419,8|0,0:0|0:0,0:0:0:0:
252,184,49326,1,8,0:1:0:0:
188,348,49482,1,12,0:0:0:0:
276,304,49638,1,0,0:0:0:0:
376,312,49795,6,0,P|412:320|456:336,1,68.8500013132096,8|2,0:1|0:0,0:0:0:0:
318,214,50107,2,0,P|282:206|238:190,1,68.8500013132096,8|2,0:0|0:0,0:0:0:0:
408,92,50420,2,0,P|420:168|428:232,1,137.700002626419,0|8,3:2|0:0,0:0:0:0:
376,312,50888,1,2,0:0:0:0:
296,236,51045,6,0,P|212:208|148:220,2,137.700002626419,10|8|8,0:1|0:0|0:1,0:0:0:0:
212,328,51826,1,8,0:1:0:0:
96,252,51982,2,0,P|87:211|91:183,1,68.8500013132096,10|0,0:0|3:2,0:0:0:0:
176,116,52295,6,0,L|315:139,1,137.700002626419,10|8,0:1|0:0,0:0:0:0:
384,36,52763,1,2,3:1:0:0:
384,36,52920,2,0,L|304:52,1,68.8500013132096,8|8,0:1|0:1,0:0:0:0:
308,224,53232,2,0,L|388:244,1,68.8500013132096,10|8,0:0|0:1,0:0:0:0:
356,136,53545,5,10,0:1:0:0:
212,200,53701,2,0,P|196:276|216:336,1,137.700002626419,8|8,0:0|0:1,0:0:0:0:
324,308,54170,1,12,0:1:0:0:
48,216,54482,5,8,0:1:0:0:
175,89,54638,1,0,3:2:0:0:
175,89,54716,1,0,3:2:0:0:
175,89,54795,6,0,L|187:181,1,81,8|8,0:0|0:0,0:0:0:0:
304,279,55107,2,0,L|320:195,1,81,8|8,0:1|0:1,0:0:0:0:
100,72,55420,6,0,L|112:164,1,81,8|8,0:0|0:3,0:0:0:0:
368,328,55732,2,0,L|388:236,1,81,4|8,0:3|0:1,0:0:0:0:
480,112,56045,6,0,P|384:172|312:132,1,182.250006952286,12|0,0:1|0:0,0:0:0:0:
240,84,56670,2,0,L|216:208,1,121.500004634857,8|0,0:0|0:0,0:0:0:0:
312,240,57138,1,8,0:0:0:0:
312,240,57216,1,8,0:0:0:0:
312,240,57295,5,8,0:1:0:0:
240,312,57451,2,0,P|168:292|116:288,1,121.500004634857,8|8,0:0|0:1,0:0:0:0:
12,340,57920,1,8,0:0:0:0:
12,340,58076,2,0,P|37:275|40:221,1,121.500004634857,8|8,0:1|0:1,0:0:0:0:
0,120,58545,6,0,P|64:144|128:140,1,121.500004634857
208,92,59013,1,8,0:1:0:0:
256,196,59170,2,0,L|236:316,1,121.500004634857,8|8,0:0|0:1,0:0:0:0:
164,232,59638,1,8,0:3:0:0:
340,200,59795,6,0,B|328:268,1,60.7500023174287,8|8,0:1|0:0,0:0:0:0:
312,348,60107,1,0,0:0:0:0:
236,315,60263,1,8,0:1:0:0:
412,248,60420,2,0,P|416:275|424:316,1,60.7500023174287,8|8,0:0|0:1,0:0:0:0:
256,196,60732,2,0,P|263:165|276:116,1,60.7500023174287,8|8,0:1|0:1,0:0:0:0:
508,136,61045,6,0,P|432:148|376:156,1,121.500004634857,12|0,0:1|0:0,0:0:0:0:
276,104,61513,1,8,0:1:0:0:
140,191,61670,2,0,B|196:175|196:175|261:197,1,121.500004634857,8|8,0:0|0:1,0:0:0:0:
276,296,62138,1,8,0:0:0:0:
276,296,62216,1,8,0:0:0:0:
276,296,62295,5,8,0:1:0:0:
155,308,62451,2,0,P|135:240|143:180,1,121.500004634857,8|8,0:0|0:1,0:0:0:0:
188,91,62920,1,8,0:0:0:0:
188,91,63076,2,0,P|132:114|73:106,1,121.500004634857,8|8,0:1|0:1,0:0:0:0:
174,64,63545,5,12,0:1:0:0:
220,168,63701,2,0,L|284:156,1,60.7500023174287,8|8,0:0|0:1,0:0:0:0:
360,92,64013,1,8,0:1:0:0:
504,160,64170,2,0,B|380:132,1,121.500004634857,8|8,0:0|0:1,0:0:0:0:
280,156,64638,1,8,0:3:0:0:
416,224,64795,5,0,0:0:0:0:
312,352,64951,2,0,P|302:292|321:235,1,121.500004634857,8|8,0:0|0:1,0:0:0:0:
452,304,65420,2,0,B|420:308|420:308|376:300,1,60.7500023174287,8|8,0:0|0:1,0:0:0:0:
228,236,65732,2,0,B|200:231|200:231|168:239,1,60.7500023174287,8|0,0:1|0:0,0:0:0:0:
144,256,65966,1,4,0:3:0:0:
144,256,66045,6,0,P|152:188|160:128,1,121.500004634857,12|0,0:1|0:0,0:0:0:0:
96,52,66513,1,8,0:1:0:0:
46,142,66670,2,0,P|104:158|164:130,1,121.500004634857,8|8,0:0|0:1,0:0:0:0:
240,60,67138,1,8,0:0:0:0:
272,165,67295,5,8,0:1:0:0:
370,211,67451,1,8,0:0:0:0:
472,174,67607,2,0,P|479:135|474:103,1,60.7500023174287,0|8,0:0|0:1,0:0:0:0:
359,89,67920,2,0,P|364:146|370:215,1,121.500004634857,8|0,0:0|0:0,0:0:0:0:
376,308,68388,1,8,0:1:0:0:
268,196,68545,5,12,0:1:0:0:
244,300,68701,2,0,P|172:312|117:285,1,121.500004634857,8|8,0:0|0:1,0:0:0:0:
40,220,69170,2,0,L|52:148,1,60.7500023174287,8|0,0:0|0:0,0:0:0:0:
132,4,69482,2,0,L|144:72,1,60.7500023174287,8|8,0:1|0:1,0:0:0:0:
148,92,69716,1,8,0:0:0:0:
148,92,69795,5,8,0:0:0:0:
228,52,69951,1,8,0:0:0:0:
160,168,70107,5,8,0:3:0:0:
260,128,70263,1,8,0:3:0:0:
244,240,70420,1,8,0:0:0:0:
160,168,70576,1,0,0:0:0:0:
288,124,70732,6,0,B|360:112|360:112|344:144,1,91.125003476143,8|0,0:1|2:0,0:0:0:0:
304,200,71045,6,0,L|168:180,1,121.500004634857,12|8,0:1|0:1,0:0:0:0:
300,220,71670,2,0,L|172:200,1,121.500004634857,8|8,0:1|0:1,0:0:0:0:
96,188,72138,1,2,0:0:0:0:
60,316,72295,6,0,P|128:328|176:292,1,121.500004634857,8|8,0:1|0:1,0:0:0:0:
292,240,72763,2,0,L|268:308,1,60.7500023174287,2|8,0:0|0:1,0:0:0:0:
179,201,73076,2,0,L|200:140,1,60.7500023174287,2|8,0:0|0:1,0:0:0:0:
228,56,73388,1,0,0:0:0:0:
408,136,73545,6,0,P|336:145|276:152,1,121.500004634857,12|8,0:1|0:1,0:0:0:0:
179,201,74013,1,8,0:3:0:0:
271,297,74170,2,0,L|331:313,1,60.7500023174287,0|4,0:0|0:3,0:0:0:0:
444,256,74482,2,0,L|380:240,1,60.7500023174287,4|2,0:3|0:0,0:0:0:0:
287,150,74795,6,0,B|220:192|147:138|147:138|92:160|92:160|40:100|92:44,1,340.19998961792,12|2,0:1|0:0,0:0:0:0:
92,43,76045,6,0,P|156:24|252:56,1,162,12|8,0:1|0:0,0:0:0:0:
287,150,76513,1,2,3:2:0:0:
406,79,76670,2,0,L|386:157,1,81,8|10,0:1|0:1,0:0:0:0:
432,276,76982,1,8,0:0:0:0:
279,297,77138,6,0,P|377:264|441:280,1,162,10|10,0:1|0:1,0:0:0:0:
352,352,77607,1,8,0:0:0:0:
248,208,77763,2,0,L|228:380,1,162,2|10,3:2|0:1,0:0:0:0:
152,248,78232,1,8,0:0:0:0:
136,368,78388,1,2,3:2:0:0:
136,368,78466,1,0,3:2:0:0:
136,368,78545,6,0,L|148:280,1,81,8|0,0:1|0:0,0:0:0:0:
102,157,78857,2,0,P|184:190|259:162,1,162,8|8,0:0|0:1,0:0:0:0:
184,96,79326,1,10,0:1:0:0:
146,287,79482,1,8,0:0:0:0:
146,287,79638,6,0,B|204:280|204:280|244:300|244:300|316:292,1,162,2|2,3:2|0:0,0:0:0:0:
448,284,80107,1,8,0:0:0:0:
364,216,80263,2,0,P|328:312|360:372,1,162,10|10,0:1|0:1,0:0:0:0:
472,304,80732,1,8,0:0:0:0:
352,208,80888,1,2,3:2:0:0:
352,208,80966,1,0,3:2:0:0:
352,208,81045,6,0,L|264:220,1,81,8|0,0:1|0:0,0:0:0:0:
189,339,81357,2,0,P|276:348|361:363,1,162,8|8,0:0|0:1,0:0:0:0:
271,218,81826,1,10,0:1:0:0:
164,352,81982,1,8,0:0:0:0:
76,256,82138,6,0,B|62:210|79:177|79:177|97:146|80:92,1,162,2|2,3:2|0:0,0:0:0:0:
0,136,82607,1,8,0:0:0:0:
152,220,82763,2,0,L|244:208,1,81,10|0,0:1|3:2,0:0:0:0:
232,209,82998,1,0,0:0:0:0:
232,209,83076,1,10,0:1:0:0:
172,116,83232,1,8,0:0:0:0:
140,304,83388,6,0,L|312:280,1,162,2|0,3:2|0:0,0:0:0:0:
464,232,83857,2,0,P|418:230|378:214,1,81,10|0,0:0|3:2,0:0:0:0:
288,136,84170,2,0,P|288:88|307:52,1,81,10|8,0:1|0:1,0:0:0:0:
440,144,84482,1,10,0:0:0:0:
312,248,84638,1,0,3:2:0:0:
312,248,84716,1,0,3:2:0:0:
312,248,84795,6,0,L|232:232,1,81,10|8,0:1|0:1,0:0:0:0:
364,172,85107,1,10,0:0:0:0:
380,312,85263,2,0,P|303:335|228:312,1,162,8|8,0:1|0:1,0:0:0:0:
152,252,85732,2,0,P|142:297|132:340,1,81,10|0,0:0|3:2,0:0:0:0:
8,160,86045,6,0,P|23:253|35:326,2,162,12|8|8,0:1|0:0|0:1,0:0:0:0:
60,48,86826,1,2,0:1:0:0:
148,152,86982,1,8,0:0:0:0:
259,35,87138,6,0,B|336:3|336:75|419:38,1,162,10|10,0:1|0:1,0:0:0:0:
296,112,87607,1,8,0:0:0:0:
380,212,87763,2,0,P|429:203|460:200,1,81,10|10,0:1|0:1,0:0:0:0:
296,112,88076,2,0,P|255:117|215:124,1,81,10|8,0:1|0:0,0:0:0:0:
64,192,88388,1,2,3:2:0:0:
120,116,88545,6,0,P|140:153|160:196,1,81,8|2,0:1|0:0,0:0:0:0:
332,320,88857,2,0,P|252:284|174:304,1,162,12|10,0:0|0:1,0:0:0:0:
80,372,89326,1,8,0:1:0:0:
0,268,89482,2,0,L|96:248,1,81,10|8,0:0|0:1,0:0:0:0:
304,161,89795,6,0,B|250:167|212:135|212:135|188:175|154:184,1,162,2|10,0:0|0:0,0:0:0:0:
302,240,90263,1,8,0:1:0:0:
448,140,90420,2,0,B|372:124|372:124|316:148,1,121.5,10|8,0:1|0:0,0:0:0:0:
304,161,90732,2,0,B|295:199|295:199|303:243,1,81,8|8,0:0|0:3,0:0:0:0:
316,284,90966,1,0,3:2:0:0:
316,284,91045,6,0,P|248:252|200:268,1,121.5,12|0,0:1|0:0,0:0:0:0:
252,332,91357,2,0,B|336:304|320:368|412:340,1,162,12|8,0:0|0:1,0:0:0:0:
512,280,91826,1,10,0:1:0:0:
372,204,91982,1,8,0:0:0:0:
206,263,92138,6,0,P|186:167|218:107,1,162,10|10,0:1|0:1,0:0:0:0:
284,36,92607,1,8,0:0:0:0:
376,128,92763,2,0,L|286:141,1,81,2|8,3:2|0:1,0:0:0:0:
133,95,93076,2,0,L|225:115,1,81,10|8,0:1|0:0,0:0:0:0:
372,204,93388,1,2,3:2:0:0:
208,268,93545,6,0,P|111:283|44:296,2,162,8|8|8,0:1|0:0|0:1,0:0:0:0:
288,364,94326,2,0,P|237:353|204:348,1,81,10|8,0:1|0:0,0:0:0:0:
128,204,94638,6,0,P|224:224|312:240,1,162,2|2,3:2|0:0,0:0:0:0:
424,180,95107,1,8,0:0:0:0:
316,132,95263,2,0,P|268:132|228:148,1,81,10|0,0:1|3:2,0:0:0:0:
49,214,95576,2,0,P|87:201|127:203,1,81,10|8,0:1|0:2,0:0:0:0:
160,88,95888,1,2,3:2:0:0:
16,136,96045,6,0,P|8:236|4:300,2,162,4|8|8,0:1|0:0|0:1,0:0:0:0:
72,48,96826,2,0,P|105:52|156:64,1,81,10|8,0:1|0:0,0:0:0:0:
237,142,97138,6,0,B|219:202|219:202|237:246|237:246|225:306,1,162,2|2,3:2|0:0,0:0:0:0:
144,252,97607,1,8,0:0:0:0:
304,192,97763,2,0,P|316:236|320:272,1,81,10|0,0:1|3:2,0:0:0:0:
226,296,98076,1,10,0:1:0:0:
416,248,98232,2,0,P|455:257|500:268,1,81,8|2,0:0|3:2,0:0:0:0:
368,368,98545,6,0,L|208:320,1,162,8|10,0:1|0:0,0:0:0:0:
64,269,99013,1,0,3:2:0:0:
64,269,99170,2,0,L|156:249,1,81,10|8,0:1|0:1,0:0:0:0:
232,172,99482,1,10,0:0:0:0:
88,116,99638,6,0,P|184:132|240:96,1,162,0|8,3:2|0:1,0:0:0:0:
304,16,100107,1,10,0:0:0:0:
327,167,100263,2,0,L|307:263,1,81,8|2,0:1|3:2,0:0:0:0:
412,100,100576,2,0,L|428:187,1,81,8|10,0:1|0:0,0:0:0:0:
460,352,100888,1,0,3:2:0:0:
460,352,100966,1,0,3:2:0:0:
460,352,101045,6,0,L|440:260,1,81,12|0,0:1|0:0,0:0:0:0:
325,344,101357,2,0,P|225:360|169:328,1,162,8|8,0:0|0:1,0:0:0:0:
88,264,101826,1,2,0:1:0:0:
260,212,101982,1,8,0:0:0:0:
177,175,102138,6,0,B|149:247|209:263|173:335,1,162,10|10,0:1|0:1,0:0:0:0:
260,240,102607,1,8,0:0:0:0:
80,208,102763,2,0,P|84:248|90:294,1,81,10|0,0:1|3:2,0:0:0:0:
272,136,103076,2,0,P|266:177|259:230,1,81,10|8,0:1|0:0,0:0:0:0:
120,120,103388,1,2,3:2:0:0:
232,56,103545,6,0,P|320:100|392:68,1,162,12|12,0:1|0:0,0:0:0:0:
472,12,104013,1,0,0:0:0:0:
364,208,104170,1,10,0:1:0:0:
376,56,104326,1,0,0:0:0:0:
512,148,104482,1,0,0:0:0:0:
288,276,104638,6,0,P|263:200|298:129,1,162,4|8,0:0|0:1,0:0:0:0:
444,212,105107,1,10,0:0:0:0:
348,348,105263,5,8,0:0:0:0:
348,348,105341,1,8,0:0:0:0:
348,348,105420,1,0,0:0:0:0:
241,222,105576,5,8,0:1:0:0:
241,222,105654,1,8,0:0:0:0:
241,222,105732,1,8,0:0:0:0:
104,332,105888,6,8,L|56:320,1,40.5
0,244,106045,1,4,0:0:0:0:
256,192,106123,12,0,108545,0:0:0:0:
393,113,116045,6,0,P|317:93|271:125,1,137.700002626419,12|8,0:1|0:1,0:0:0:0:
165,175,116513,2,0,L|177:91,1,68.8500013132096,2|0,0:0|0:0,0:0:0:0:
340,168,116826,2,0,L|348:244,1,68.8500013132096,0|8,0:0|0:1,0:0:0:0:
256,152,117138,1,8,0:0:0:0:
120,240,117295,6,0,P|180:220|240:264,1,137.700002626419,8|8,0:1|0:1,0:0:0:0:
340,168,117763,1,0,0:0:0:0:
372,285,117920,2,0,L|227:257,1,137.700002626419,8|8,0:1|0:1,0:0:0:0:
45,310,118388,1,2,0:0:0:0:
45,310,118466,1,2,0:0:0:0:
45,310,118545,6,0,P|110:322|179:286,1,137.700002626419,8|8,0:1|0:1,0:0:0:0:
264,220,119013,1,0,0:0:0:0:
168,172,119170,2,0,P|124:178|100:184,2,68.8500013132096,8|0|8,0:1|0:0|0:1,0:0:0:0:
236,24,119638,1,8,0:0:0:0:
312,160,119795,5,8,0:1:0:0:
216,104,119951,2,0,P|180:96|140:88,1,68.8500013132096,8|0,0:0|0:0,0:0:0:0:
236,24,120263,1,0,0:0:0:0:
328,88,120420,2,0,L|476:76,1,137.700002626419,8|8,0:1|0:1,0:0:0:0:
363,182,120888,1,8,0:0:0:0:
500,204,121045,6,0,L|348:180,1,137.700002626419,8|8,0:1|0:1,0:0:0:0:
260,200,121513,2,0,B|252:168|252:168|268:132,1,68.8500013132096,0|8,0:0|0:1,0:0:0:0:
388,288,121826,2,0,L|308:272,1,68.8500013132096,8|8,0:0|0:1,0:0:0:0:
212,308,122138,1,0,3:2:0:0:
126,200,122295,6,0,B|198:172|186:224|270:196,1,137.700002626419,8|8,0:1|0:1,0:0:0:0:
368,164,122763,1,0,0:0:0:0:
280,100,122920,1,8,0:1:0:0:
146,134,123076,2,0,P|132:169|124:213,1,68.8500013132096,8|8,0:0|0:1,0:0:0:0:
176,344,123388,1,8,0:3:0:0:
176,344,123466,1,8,0:3:0:0:
176,344,123545,6,0,P|173:303|164:268,1,68.8500013132096,8|0,0:1|0:0,0:0:0:0:
125,199,123857,1,8,0:1:0:0:
41,255,124013,2,0,P|113:243|169:279,1,137.700002626419,8|8,0:1|0:3,0:0:0:0:
252,356,124482,2,0,L|336:344,1,68.8500013132096,8|0,0:3|0:0,0:0:0:0:
448,320,124795,5,2,0:0:0:0:
452,316,125107,1,2,0:0:0:0:
456,312,125420,1,2,0:0:0:0:
460,308,125732,1,2,0:0:0:0:
472,300,126045,6,0,P|372:280|308:268,1,162,12|8,0:1|0:0,0:0:0:0:
180,208,126513,1,0,3:2:0:0:
180,208,126670,2,0,P|216:204|280:196,1,81,8|8,0:1|0:1,0:0:0:0:
168,316,126982,2,0,P|117:308|64:300,1,81,8|0,0:0|3:2,0:0:0:0:
20,176,127295,6,0,B|109:150|92:216|180:184,1,162,8|8,0:1|0:0,0:0:0:0:
280,120,127763,1,0,3:2:0:0:
152,40,127920,2,0,L|136:132,1,81,0|8,0:0|0:1,0:0:0:0:
293,199,128232,2,0,L|279:119,1,81,8|0,0:0|0:0,0:0:0:0:
176,280,128545,6,0,P|264:336|328:328,1,162,12|8,0:1|0:0,0:0:0:0:
460,276,129013,1,0,3:2:0:0:
460,276,129091,1,0,3:2:0:0:
460,276,129170,2,0,L|376:260,1,81,10|0,0:1|3:0,0:0:0:0:
279,119,129482,1,8,0:0:0:0:
298,228,129638,1,8,0:1:0:0:
472,160,129795,6,0,L|388:148,1,81,12|0,0:1|0:0,0:0:0:0:
158,130,130107,2,0,P|214:124|290:118,1,121.5,8|8,0:0|0:0,0:0:0:0:
312,116,130420,2,0,P|320:66|328:28,1,81,8|8,0:0|0:3,0:0:0:0:
458,80,130732,2,0,P|466:128|474:172,1,81,4|8,0:3|0:1,0:0:0:0:
484,312,131045,6,0,P|375:275|319:315,1,182.250006952286,12|0,0:1|0:0,0:0:0:0:
236,372,131670,2,0,L|112:348,1,121.500004634857,8|0,0:0|0:0,0:0:0:0:
32,288,132138,1,8,0:0:0:0:
32,288,132216,1,8,0:0:0:0:
32,288,132295,5,8,0:1:0:0:
112,252,132451,2,0,B|236:272,1,121.500004634857,8|8,0:0|0:1,0:0:0:0:
280,128,132920,1,8,0:0:0:0:
228,188,133076,2,0,P|296:204|352:168,1,121.500004634857,8|8,0:1|0:1,0:0:0:0:
296,40,133545,6,0,L|284:112,1,60.7500023174287,12|0,0:1|0:0,0:0:0:0:
436,160,133857,2,0,L|424:88,1,60.7500023174287,0|8,0:0|0:1,0:0:0:0:
339,181,134170,2,0,P|330:247|320:312,1,121.500004634857,8|0,0:0|0:0,0:0:0:0:
244,248,134638,1,8,0:0:0:0:
220,356,134795,5,8,0:1:0:0:
244,248,134951,2,0,L|256:176,1,60.7500023174287,8|8,0:0|0:1,0:0:0:0:
276,56,135263,2,0,L|268:104,2,30.3750011587143,0|0|8,3:0|0:0|0:0,0:0:0:0:
159,95,135576,2,0,P|215:111|279:75,1,121.500004634857,8|8,0:1|0:1,0:0:0:0:
120,28,136045,6,0,B|104:152,1,121.500004634857,12|0,0:1|0:0,0:0:0:0:
8,108,136513,1,8,0:1:0:0:
24,208,136670,2,0,P|33:259|49:335,1,121.500004634857,8|8,0:0|0:3,0:0:0:0:
121,246,137138,6,0,P|184:225|240:245,1,121.500004634857,8|8,0:3|0:0,0:0:0:0:
323,305,137607,1,0,0:0:0:0:
232,340,137763,1,8,0:1:0:0:
232,340,137841,1,8,0:1:0:0:
232,340,137920,1,8,0:0:0:0:
323,305,138076,2,0,P|386:314|456:324,1,121.500004634857,8|8,0:1|0:1,0:0:0:0:
416,228,138545,5,4,0:0:0:0:
416,228,138701,2,0,P|384:223|348:218,1,60.7500023174287,8|0,0:0|0:0,0:0:0:0:
224,204,139013,2,0,L|254:207,2,30.3750011587143,0|0|8,3:0|0:0|0:0,0:0:0:0:
135,139,139326,2,0,P|111:207|129:257,1,121.500004634857,0|8,0:0|0:0,0:0:0:0:
212,319,139795,6,0,L|283:328,1,60.7500023174287,8|8,0:1|0:0,0:0:0:0:
125,251,140107,2,0,L|61:263,1,60.7500023174287,8|0,0:1|0:0,0:0:0:0:
43,273,140341,1,8,0:0:0:0:
43,273,140420,1,8,0:3:0:0:
116,337,140576,1,8,0:3:0:0:
212,319,140732,1,4,0:3:0:0:
262,236,140888,1,4,0:3:0:0:
200,160,141045,6,0,P|259:188|320:176,1,121.500004634857,12|0,0:1|0:0,0:0:0:0:
384,100,141513,2,0,L|376:60,1,30.3750011587143,0|0,3:0|0:0,0:0:0:0:
291,59,141670,2,0,L|311:183,1,121.500004634857,8|0,0:0|0:0,0:0:0:0:
388,124,142138,1,8,0:0:0:0:
388,248,142295,6,0,P|381:278|372:328,1,60.7500023174287,8|8,0:1|0:0,0:0:0:0:
310,178,142607,2,0,P|303:208|294:258,1,60.7500023174287,8|0,0:1|0:0,0:0:0:0:
268,352,142920,2,0,P|196:328|144:320,1,121.500004634857,8|0,0:0|0:0,0:0:0:0:
48,348,143388,1,8,0:1:0:0:
16,192,143545,6,0,L|32:268,1,60.7500023174287,12|0,0:1|0:0,0:0:0:0:
204,184,143857,2,0,L|192:244,1,60.7500023174287,0|8,0:0|0:1,0:0:0:0:
117,308,144170,2,0,L|101:164,1,121.500004634857,8|8,0:0|0:0,0:0:0:0:
92,76,144638,1,8,0:0:0:0:
92,76,144716,1,8,0:1:0:0:
92,76,144795,6,0,P|123:83|158:78,1,60.7500023174287,12|0,0:0|0:0,0:0:0:0:
288,40,145107,1,0,3:2:0:0:
288,40,145185,1,0,3:2:0:0:
288,40,145263,2,0,L|280:88,4,40.5,8|8|8|8|8,0:1|0:1|0:1|0:1|0:1,0:0:0:0:
444,16,145732,5,8,0:1:0:0:
436,48,145810,1,8,0:1:0:0:
428,80,145888,1,8,0:1:0:0:
420,112,145966,1,8,0:1:0:0:
412,144,146045,6,0,P|344:168|276:112,1,162,12|8,0:1|0:1,0:0:0:0:
256,228,146513,2,0,L|236:320,1,81,2|0,0:0|0:0,0:0:0:0:
420,184,146826,2,0,L|444:268,1,81,2|0,0:0|0:0,0:0:0:0:
364,360,147138,1,0,0:0:0:0:
344,268,147295,5,2,0:0:0:0:
344,268,147607,1,8,0:1:0:0:
240,304,147763,2,0,B|200:316|200:316|159:307,1,81,2|8,0:0|0:1,0:0:0:0:
148,156,148076,2,0,B|188:144|188:144|228:152,1,81,2|8,0:0|0:1,0:0:0:0:
196,232,148388,1,0,0:0:0:0:
196,232,148545,6,0,P|116:204|40:216,1,162,12|8,0:1|0:1,0:0:0:0:
161,307,149013,1,8,0:3:0:0:
48,328,149170,1,0,0:0:0:0:
196,232,149326,1,4,0:3:0:0:
268,356,149482,1,4,0:3:0:0:
312,156,149638,1,2,0:0:0:0:
431,256,149795,6,0,B|371:276|312:244|312:244|251:216|195:232,1,243,12|0,0:1|0:0,0:0:0:0:
96,340,150420,6,0,P|112:256|56:200,1,157.949992769623,2|0,3:2|0:0,0:0:0:0:
28,184,150732,2,0,L|156:168,1,121.5,10|0,2:2|0:0,0:0:0:0:
216,116,151045,6,0,B|96:132|96:132|125:91,1,162,12|12,0:1|0:0,0:0:0:0:
184,16,151513,1,0,0:0:0:0:
320,44,151670,2,0,P|364:32|412:28,1,81,8|8,0:1|0:1,0:0:0:0:
216,116,151982,1,8,0:0:0:0:
352,196,152138,6,0,B|260:168|276:236|188:208,1,162,8|8,0:1|0:1,0:0:0:0:
64,136,152607,2,0,P|44:180|48:224,1,81,8|0,0:0|0:0,0:0:0:0:
76,328,152920,2,0,L|168:312,1,81,2|8,0:0|0:1,0:0:0:0:
300,256,153232,1,10,0:0:0:0:
183,198,153388,1,0,0:0:0:0:
232,340,153545,6,0,P|332:304|388:320,1,162,10|8,0:1|0:0,0:0:0:0:
496,380,154013,1,0,3:2:0:0:
496,380,154091,1,8,0:0:0:0:
496,380,154170,2,0,L|512:292,1,81,8|8,0:1|0:1,0:0:0:0:
404,200,154482,2,0,L|389:289,1,81,8|8,0:0|0:1,0:0:0:0:
231,339,154795,6,0,P|216:248|204:168,1,162,2|8,0:0|0:0,0:0:0:0:
288,60,155263,1,0,3:2:0:0:
288,60,155341,1,8,0:0:0:0:
288,60,155420,2,0,P|300:96|288:148,1,81,8|8,0:1|0:1,0:0:0:0:
136,132,155732,2,0,P|129:92|141:54,1,81,8|8,0:0|0:1,0:0:0:0:
388,128,156045,6,0,L|220:104,1,162,12|8,0:1|0:0,0:0:0:0:
28,176,156513,1,0,0:0:0:0:
28,176,156591,1,8,0:0:0:0:
28,176,156670,2,0,P|71:170|116:164,1,81,8|0,0:1|0:0,0:0:0:0:
237,232,156982,2,0,P|191:240|138:249,1,81,8|0,0:0|0:0,0:0:0:0:
16,316,157295,6,0,L|23:268,2,40.5,8|8|0,0:1|0:0|0:0,0:0:0:0:
157,245,157607,2,0,B|144:376,1,121.5,8|8,0:0|0:0,0:0:0:0:
143,384,157920,1,8,0:1:0:0:
248,308,158076,2,0,P|296:316|340:324,1,81,2|8,0:1|0:0,0:0:0:0:
512,272,158388,1,0,0:0:0:0:
512,272,158466,1,8,0:0:0:0:
512,272,158545,6,0,P|408:252|328:236,1,162,12|8,0:1|0:0,0:0:0:0:
208,196,159013,1,0,3:2:0:0:
208,196,159091,1,8,0:0:0:0:
208,196,159170,2,0,P|252:200|292:180,1,81,8|8,0:1|0:1,0:0:0:0:
236,104,159482,1,8,0:0:0:0:
256,276,159638,6,0,L|264:336,1,40.5,0|8,3:2|0:0,0:0:0:0:
266,352,159795,1,8,0:1:0:0:
168,200,159951,6,0,L|176:256,1,40.5,8|8,0:0|0:0,0:0:0:0:
181,313,160107,1,8,0:0:0:0:
76,104,160263,6,0,L|84:160,1,40.5,8|8,0:0|0:0,0:0:0:0:
92,232,160420,1,8,0:0:0:0:
168,60,160576,5,8,0:0:0:0:
168,60,160654,1,8,0:0:0:0:
168,60,160732,2,0,L|188:192,1,121.5,8|8,0:0|0:3,0:0:0:0:
188,212,161045,6,0,L|145:204,3,40.5,8|8|8|8,0:1|0:1|0:1|0:1,0:0:0:0:
248,264,161357,2,0,L|300:276,3,40.5,12|8|8|8,0:0|0:1|0:1|0:1,0:0:0:0:
168,292,161670,2,0,P|163:332|175:370,1,81,8|8,0:1|0:1,0:0:0:0:
372,320,161982,2,0,P|380:272|368:224,1,81,12|8,0:0|0:1,0:0:0:0:
260,160,162295,6,0,P|348:196|424:168,1,162,8|12,0:1|0:0,0:0:0:0:
476,100,162763,1,8,0:1:0:0:
376,36,162920,1,8,0:1:0:0:
272,140,163076,1,8,0:1:0:0:
272,140,163154,1,8,0:1:0:0:
272,140,163232,2,0,L|252:52,1,81,12|0,0:0|0:0,0:0:0:0:
409,178,163545,5,10,0:1:0:0:
360,56,163701,1,10,0:1:0:0:
260,160,163857,1,10,0:0:0:0:
116,88,164013,2,0,P|92:196|108:244,1,162,10|10,0:1|0:1,0:0:0:0:
212,340,164482,2,0,L|236:252,1,81,8|10,0:0|0:1,0:0:0:0:
344,128,164795,6,0,P|356:232|364:296,1,162,2|12,0:0|0:0,0:0:0:0:
448,240,165263,1,0,0:0:0:0:
448,240,165420,2,0,L|436:156,1,81,8|8,0:1|0:1,0:0:0:0:
252,136,165732,2,0,L|264:224,1,81,8|0,0:0|3:2,0:0:0:0:
452,340,166045,6,0,B|388:308|364:372|296:332,1,162,12|8,0:1|0:0,0:0:0:0:
96,276,166513,1,0,0:0:0:0:
96,276,166591,1,8,0:0:0:0:
96,276,166670,2,0,P|140:278|184:262,1,81,8|8,0:1|0:1,0:0:0:0:
287,207,166982,1,8,0:0:0:0:
128,176,167138,6,0,B|292:208,1,162,8|8,0:1|0:1,0:0:0:0:
408,176,167607,1,12,0:0:0:0:
340,44,167763,1,0,3:2:0:0:
340,44,167841,1,0,3:2:0:0:
340,44,167920,2,0,P|328:88|332:136,1,81,8|8,0:1|0:1,0:0:0:0:
364,248,168232,1,12,0:0:0:0:
424,144,168388,1,0,0:0:0:0:
287,207,168545,5,12,0:0:0:0:
460,264,168701,1,8,0:1:0:0:
356,372,168857,2,0,L|344:288,1,81,8|8,0:0|0:1,0:0:0:0:
230,131,169170,1,8,0:0:0:0:
100,240,169326,2,0,P|204:252|256:224,1,162,8|8,0:0|0:0,0:0:0:0:
248,53,169795,6,0,P|235:91|231:131,1,81,8|8,0:1|0:3,0:0:0:0:
352,200,170107,2,0,P|347:159|335:121,1,81,8|8,0:1|0:3,0:0:0:0:
118,161,170420,6,0,L|98:245,1,81,8|8,0:3|0:3,0:0:0:0:
266,306,170732,2,0,L|250:214,1,81,8|4,0:3|0:3,0:0:0:0:
124,136,171045,5,12,0:1:0:0:
272,332,171513,5,2,0:0:0:0:
256,32,171982,5,2,0:0:0:0:
348,228,172451,5,2,0:0:0:0:
92,264,172920,5,2,0:0:0:0:
76,288,173545,6,0,P|152:296|224:304,1,137.700002626419,12|0,0:1|0:0,0:0:0:0:
328,258,174013,1,8,0:1:0:0:
224,171,174170,2,0,P|201:257|216:309,1,137.700002626419,8|0,0:0|0:0,0:0:0:0:
308,352,174638,1,0,3:2:0:0:
428,324,174795,5,8,0:1:0:0:
337,217,174951,2,0,L|304:365,1,137.700002626419,8|8,0:0|0:1,0:0:0:0:
212,302,175420,1,8,0:0:0:0:
212,302,175576,2,0,L|142:312,1,68.8500013132096,8|0,0:1|0:0,0:0:0:0:
40,264,175888,1,8,0:1:0:0:
152,152,176045,6,0,P|157:182|168:240,1,68.8500013132096,12|0,0:1|0:0,0:0:0:0:
36,112,176357,2,0,P|29:147|20:186,1,68.8500013132096,0|8,0:0|0:1,0:0:0:0:
132,40,176670,2,0,P|205:68|260:39,1,137.700002626419,8|8,0:0|0:1,0:0:0:0:
124,136,177138,1,8,0:3:0:0:
152,268,177295,5,8,0:1:0:0:
232,208,177451,2,0,P|152:180|88:184,1,137.700002626419,8|8,0:0|0:1,0:0:0:0:
28,244,177920,2,0,L|40:324,1,68.8500013132096,8|8,0:0|0:1,0:0:0:0:
248,224,178232,2,0,L|240:300,1,68.8500013132096,8|0,3:0|3:0,0:0:0:0:
136,384,178545,6,0,B|160:315|113:315|140:240,1,137.700002626419,12|0,0:1|0:0,0:0:0:0:
76,140,179013,1,8,0:1:0:0:
76,140,179091,1,8,0:1:0:0:
76,140,179170,2,0,P|151:161|207:133,1,137.700002626419,12|0,0:0|0:0,0:0:0:0:
280,28,179638,6,0,L|308:164,1,137.700002626419,8|8,0:0|0:0,0:0:0:0:
444,112,180107,1,0,0:0:0:0:
428,208,180263,2,0,P|421:242|412:288,1,68.8500013132096,8|8,0:1|0:0,0:0:0:0:
318,230,180576,2,0,P|313:197|306:154,1,68.8500013132096,8|0,0:1|0:0,0:0:0:0:
208,204,180888,1,8,0:1:0:0:
268,332,181045,6,0,P|352:320|408:312,1,137.700002626419,12|0,0:1|0:0,0:0:0:0:
318,230,181513,1,8,0:1:0:0:
208,252,181670,2,0,L|136:236,1,68.8500013132096,8|8,0:0|0:1,0:0:0:0:
244,336,181982,1,0,0:0:0:0:
132,384,182138,1,8,0:1:0:0:
132,384,182216,1,8,0:1:0:0:
132,384,182295,6,0,B|124:352|124:352|124:292,1,68.8500013132096,4|8,0:0|0:1,0:0:0:0:
152,140,182607,2,0,B|160:172|160:172|156:224,1,68.8500013132096,8|8,0:0|0:1,0:0:0:0:
149,244,182841,1,8,0:1:0:0:
149,244,182920,1,8,0:0:0:0:
92,93,183076,1,0,3:2:0:0:
92,93,183154,1,0,3:2:0:0:
92,93,183232,5,8,0:0:0:0:
132,67,183310,1,8,0:0:0:0:
180,66,183388,1,8,0:0:0:0:
221,90,183466,1,8,0:0:0:0:
243,133,183545,6,0,L|230:218,1,81,8|0,0:1|0:0,0:0:0:0:
44,312,183857,2,0,B|132:284|108:356|212:324,1,162,12|8,0:0|0:1,0:0:0:0:
164,248,184326,1,10,0:1:0:0:
328,284,184482,1,8,0:0:0:0:
404,204,184638,6,0,P|368:308|388:364,1,162,10|10,0:1|0:1,0:0:0:0:
382,353,185029,1,8,0:1:0:0:
382,353,185107,1,8,0:0:0:0:
452,272,185263,2,0,P|352:236|292:240,1,162,2|10,0:0|0:1,0:0:0:0:
202,325,185732,1,8,0:0:0:0:
128,160,185888,1,0,0:0:0:0:
96,292,186045,6,0,L|116:204,1,81,12|10,0:1|0:1,0:0:0:0:
276,128,186357,2,0,L|296:220,1,81,8|10,0:0|0:1,0:0:0:0:
304,245,186591,1,8,0:1:0:0:
304,245,186670,1,8,0:0:0:0:
196,365,186826,2,0,L|204:305,1,40.5,10|8,0:1|0:1,0:0:0:0:
212,240,186982,5,8,0:0:0:0:
392,280,187138,2,0,L|384:336,1,40.5,10|8,0:1|0:1,0:0:0:0:
288,364,187295,6,0,L|300:276,1,81,8|0,0:0|3:2,0:0:0:0:
484,264,187607,2,0,L|472:352,1,81,8|8,0:3|0:3,0:0:0:0:
292,240,187920,6,0,L|304:156,1,81,8|0,0:3|3:2,0:0:0:0:
504,148,188232,2,0,L|492:228,1,81,4|0,0:3|3:2,0:0:0:0:
380,352,188545,6,0,P|304:376|248:348,1,137.700002626419,12|8,0:1|0:1,0:0:0:0:
226,258,189013,2,0,P|258:245|291:239,1,68.8500013132096,2|0,0:0|0:0,0:0:0:0:
144,320,189326,2,0,P|113:312|76:292,1,68.8500013132096,2|8,0:0|0:1,0:0:0:0:
28,200,189638,1,2,0:0:0:0:
174,141,189795,6,0,P|226:205|222:269,1,137.700002626419,10|8,0:1|0:1,0:0:0:0:
144,320,190263,1,0,0:0:0:0:
48,224,190420,2,0,L|68:136,1,68.8500013132096,10|0,0:1|0:0,0:0:0:0:
158,73,190732,2,0,L|174:142,1,68.8500013132096,8|0,0:1|0:0,0:0:0:0:
225,257,191045,6,0,P|301:225|361:233,1,137.700002626419,10|8,0:1|0:1,0:0:0:0:
472,336,191513,2,0,P|436:332|400:316,1,68.8500013132096,2|0,0:0|0:0,0:0:0:0:
354,230,191826,1,0,0:0:0:0:
220,284,191982,2,0,P|207:315|203:349,1,68.8500013132096,2|8,0:0|0:3,0:0:0:0:
324,300,192295,6,0,L|303:158,2,137.700002626419,0|10|8,0:0|0:1|0:1,0:0:0:0:
412,352,193076,1,8,0:1:0:0:
456,252,193232,2,0,L|440:172,1,68.8500013132096,10|0,0:1|0:0,0:0:0:0:
416,48,193545,6,0,P|336:68|280:44,1,137.700002626419,12|8,0:1|0:1,0:0:0:0:
152,0,194013,2,0,B|172:72,1,68.8500013132096,2|0,0:0|0:0,0:0:0:0:
48,128,194326,2,0,B|68:52,1,68.8500013132096,2|8,0:0|0:1,0:0:0:0:
180,96,194638,1,2,0:0:0:0:
152,208,194795,6,0,P|134:279|116:360,2,137.700002626419,10|8|8,0:1|0:1|0:1,0:0:0:0:
256,176,195576,2,0,P|261:201|276:257,1,68.8500013132096,0|10,0:0|0:1,0:0:0:0:
300,340,195888,1,0,0:0:0:0:
300,340,196045,6,0,P|376:328|428:360,1,137.700002626419,10|8,0:1|0:1,0:0:0:0:
512,264,196513,2,0,L|424:280,1,68.8500013132096,8|0,0:3|0:0,0:0:0:0:
296,176,196826,1,0,0:0:0:0:
296,176,196982,2,0,L|376:192,1,68.8500013132096,10|0,0:1|0:0,0:0:0:0:
484,76,197295,6,0,P|411:87|336:100,1,137.700002626419,8|8,0:1|0:1,0:0:0:0:
200,144,197763,1,8,0:0:0:0:
200,144,197841,1,8,0:0:0:0:
200,144,197920,2,0,P|190:104|198:64,1,68.8500013132096,8|8,0:1|0:1,0:0:0:0:
296,176,198232,2,0,L|279:250,1,68.8500013132096,10|0,0:1|0:0,0:0:0:0:
152,352,198545,6,0,B|124:292|124:292|144:220,1,137.700002626419,12|8,0:1|0:1,0:0:0:0:
332,308,199013,2,0,P|256:320|204:276,1,137.700002626419,8|0,0:3|0:0,0:0:0:0:
143,223,199482,1,10,0:1:0:0:
136,200,199795,6,0,L|-4:216,1,137.700002626419,8|8,0:0|0:1,0:0:0:0:
56,128,200263,1,0,3:2:0:0:
56,128,200420,2,0,L|136:120,1,68.8500013132096,10|0,0:1|0:0,0:0:0:0:
280,60,200732,2,0,L|200:48,1,68.8500013132096,8|8,0:1|0:1,0:0:0:0:
136,200,201045,6,0,B|208:172|196:228|276:196,1,137.700002626419,12|8,0:1|0:1,0:0:0:0:
384,128,201513,2,0,B|352:264,1,137.700002626419,8|0,0:1|0:0,0:0:0:0:
328,356,201982,1,10,0:1:0:0:
328,356,202295,6,0,P|272:360|224:328,1,103.275001969814,12|0,0:0|3:0,0:0:0:0:
208,316,202607,2,0,L|136:328,1,68.8500013132096,8|8,0:0|0:1,0:0:0:0:
352,262,202920,2,0,L|419:276,1,68.8500013132096,8|8,0:3|0:3,0:0:0:0:
232,196,203232,1,4,0:3:0:0:
232,196,203388,1,4,0:3:0:0:
367,172,203545,6,0,P|289:186|213:198,1,137.700002626419,12|0,0:1|0:0,0:0:0:0:
144,76,204013,1,10,0:1:0:0:
44,140,204170,2,0,P|116:120|172:164,1,137.700002626419,12|8,0:0|0:1,0:0:0:0:
212,272,204638,1,0,0:0:0:0:
212,272,204716,1,0,0:0:0:0:
212,272,204795,6,0,L|196:344,1,68.8500013132096,10|8,0:1|0:1,0:0:0:0:
20,240,205107,2,0,L|36:164,1,68.8500013132096,0|8,0:0|0:1,0:0:0:0:
44,140,205341,1,8,0:1:0:0:
44,140,205420,1,12,0:0:0:0:
100,292,205576,2,0,L|108:258,2,34.4250006566048,0|0|10,0:0|3:0|0:0,0:0:0:0:
498,222,206045,6,0,P|437:221|369:212,1,121.5,12|8,0:1|0:0,0:0:0:0:
312,120,206357,2,0,L|324:180,1,40.5,8|8,0:0|0:0,0:0:0:0:
431,137,206513,6,0,P|367:133|303:117,1,121.5,10|8,0:1|0:0,0:0:0:0:
248,20,206826,2,0,L|260:72,1,40.5,8|8,0:0|0:0,0:0:0:0:
408,64,206982,6,0,P|364:60|312:44,1,81,10|8,0:1|0:3,0:0:0:0:
172,0,207295,1,4,0:3:0:0:
76,156,207451,6,0,B|236:132,1,162,6|8,0:0|0:1,0:0:0:0:
423,99,207920,1,12,0:1:0:0:
432,28,208545,6,0,B|360:32|328:80|332:148|376:200|456:189|497:153|490:93,1,340.19998961792,2|0,0:0|0:0,0:0:0:0:
262,83,209795,6,0,L|424:100,1,162,12|8,0:1|0:0,0:0:0:0:
268,184,210263,2,0,L|172:172,1,81,2|8,3:2|0:1,0:0:0:0:
262,83,210576,1,10,0:1:0:0:
376,172,210732,1,8,0:0:0:0:
280,304,210888,6,0,P|187:326|123:298,1,162,10|10,0:1|0:1,0:0:0:0:
20,212,211357,1,8,0:0:0:0:
119,149,211513,2,0,L|205:162,1,81,2|8,3:2|0:1,0:0:0:0:
364,296,211826,2,0,L|272:276,1,81,10|8,0:1|0:0,0:0:0:0:
56,328,212138,1,2,3:2:0:0:
56,328,212216,1,0,3:2:0:0:
56,328,212295,6,0,P|152:360|204:324,1,162,8|8,0:1|0:0,0:0:0:0:
280,232,212763,1,2,3:2:0:0:
352,328,212920,2,0,P|399:322|444:316,1,81,8|10,0:1|0:1,0:0:0:0:
512,208,213232,1,8,0:0:0:0:
512,208,213388,6,0,B|400:224|400:224|352:188,1,162,2|2,3:2|0:0,0:0:0:0:
276,124,213857,1,8,0:0:0:0:
428,64,214013,2,0,P|436:112|420:160,1,81,10|0,0:1|3:2,0:0:0:0:
252,196,214326,2,0,P|243:156|251:117,1,81,10|12,0:1|0:2,0:0:0:0:
372,200,214638,1,2,3:2:0:0:
372,200,214716,1,0,3:2:0:0:
372,200,214795,6,0,L|360:288,1,81,8|0,0:1|0:0,0:0:0:0:
248,360,215107,2,0,B|188:344|188:344|144:360|144:360|84:344,1,162,8|8,0:0|0:1,0:0:0:0:
4,304,215576,1,10,0:1:0:0:
176,234,215732,1,8,0:0:0:0:
97,189,215888,6,0,B|60:274|128:274|89:353,1,162,2|2,3:2|0:0,0:0:0:0:
16,288,216357,1,8,0:0:0:0:
176,234,216513,2,0,L|264:246,1,81,10|0,0:1|3:2,0:0:0:0:
88,144,216826,2,0,L|0:152,1,81,10|8,0:1|0:0,0:0:0:0:
88,236,217138,1,2,3:2:0:0:
192,104,217295,6,0,P|104:112|44:68,2,162,12|12|10,0:1|0:0|0:1,0:0:0:0:
292,40,218076,1,8,0:1:0:0:
288,232,218232,1,10,0:0:0:0:
288,232,218388,6,0,B|296:176|296:176|276:132|276:132|288:64,1,162,0|8,3:2|0:1,0:0:0:0:
376,0,218857,1,12,0:0:0:0:
444,140,219013,2,0,P|407:130|352:116,1,81,8|2,0:1|3:2,0:0:0:0:
132,172,219326,2,0,P|168:181|224:196,1,81,8|12,0:1|0:2,0:0:0:0:
412,324,219638,1,0,3:2:0:0:
412,324,219716,1,0,3:2:0:0:
412,324,219795,6,0,L|320:296,1,81,12|0,0:1|0:0,0:0:0:0:
88,360,220107,2,0,B|145:350|145:350|187:376|187:376|251:367,1,162,8|8,0:0|0:1,0:0:0:0:
334,300,220576,1,2,0:1:0:0:
184,248,220732,1,8,0:0:0:0:
381,206,220888,6,0,P|287:223|217:238,1,162,10|10,0:1|0:1,0:0:0:0:
104,172,221357,1,8,0:0:0:0:
68,340,221513,1,10,0:1:0:0:
68,340,221591,1,0,3:2:0:0:
68,340,221670,2,0,L|88:248,1,81,0|10,3:2|0:1,0:0:0:0:
124,88,221982,1,8,0:0:0:0:
0,192,222138,1,2,3:2:0:0:
0,192,222216,1,0,3:2:0:0:
0,192,222295,6,0,P|40:187|96:180,1,81,12|2,0:1|0:0,0:0:0:0:
240,80,222607,2,0,B|209:175|209:175|236:237,1,162,10|12,0:0|0:1,0:0:0:0:
308,180,223076,1,8,0:1:0:0:
164,277,223232,2,0,L|68:257,1,81,10|8,0:0|0:1,0:0:0:0:
233,231,223545,5,2,0:0:0:0:
0,280,223701,1,12,0:1:0:0:
108,156,223857,1,12,0:0:0:0:
152,380,224013,1,8,0:1:0:0:
152,380,224091,1,8,0:1:0:0:
152,380,224170,5,10,0:1:0:0:
264,256,224326,1,8,3:0:0:0:
72,168,224482,1,8,0:0:0:0:
236,0,224638,1,8,0:3:0:0:
236,0,224716,1,8,0:1:0:0:
236,0,224795,6,0,P|212:64|224:128,1,121.5,12|0,0:1|0:0,0:0:0:0:
332,188,225107,2,0,B|264:148|244:228|168:180,1,162,12|8,0:0|0:1,0:0:0:0:
218,115,225576,1,10,0:1:0:0:
296,280,225732,1,8,0:0:0:0:
448,232,225888,6,0,P|360:224|296:256,1,162,10|10,0:1|0:1,0:0:0:0:
175,363,226357,1,8,0:0:0:0:
40,280,226513,2,0,P|32:248|52:192,1,81,2|8,3:2|0:1,0:0:0:0:
188,284,226826,2,0,L|174:372,1,81,10|8,0:1|0:0,0:0:0:0:
108,244,227138,1,2,3:2:0:0:
273,218,227295,6,0,B|332:209|332:209|388:260|441:238,2,162,12|8|8,0:1|0:0|0:1,0:0:0:0:
183,151,228076,2,0,L|275:135,1,81,10|8,0:1|0:0,0:0:0:0:
456,96,228388,6,0,P|360:108|308:64,1,162,2|2,3:2|0:0,0:0:0:0:
396,16,228857,1,8,0:0:0:0:
440,184,229013,2,0,L|424:264,1,81,10|0,0:1|3:2,0:0:0:0:
263,138,229326,2,0,L|275:226,1,81,10|8,0:1|0:0,0:0:0:0:
360,192,229638,1,2,3:2:0:0:
176,152,229795,6,0,P|152:260|172:312,2,162,2|8|8,0:0|0:0|0:1,0:0:0:0:
273,218,230576,1,10,0:1:0:0:
308,32,230732,1,8,0:0:0:0:
424,120,230888,6,0,B|364:108|364:108|316:124|316:124|256:112,1,162,2|2,3:2|0:0,0:0:0:0:
124,48,231357,1,12,0:0:0:0:
124,48,231513,2,0,P|104:84|104:132,1,81,10|0,0:1|3:2,0:0:0:0:
193,230,231826,2,0,L|293:214,1,81,10|8,0:1|0:0,0:0:0:0:
180,108,232138,1,2,3:2:0:0:
40,200,232295,6,0,P|24:300|49:355,1,162,12|10,0:1|0:0,0:0:0:0:
168,248,232763,1,0,3:2:0:0:
228,352,232920,2,0,P|276:364|320:360,1,81,8|0,0:1|0:0,0:0:0:0:
232,208,233232,2,0,P|191:207|152:218,1,81,12|0,0:0|0:0,0:0:0:0:
328,272,233545,6,0,P|344:224|352:188,1,81,10|8,0:1|0:1,0:0:0:0:
138,138,233857,2,0,P|145:177|152:217,1,81,12|8,0:0|0:1,0:0:0:0:
252,120,234170,1,2,3:2:0:0:
52,72,234326,1,8,0:3:0:0:
44,107,234404,1,8,0:3:0:0:
47,143,234482,1,14,0:3:0:0:
41,179,234560,1,4,0:3:0:0:
41,215,234638,1,0,0:1:0:0:
31,250,234716,1,0,0:1:0:0:
25,286,234795,6,0,L|115:273,1,81,12|0,0:1|0:0,0:0:0:0:
352,328,235107,2,0,P|246:358|188:308,1,162,12|8,0:2|0:1,0:0:0:0:
256,180,235576,2,0,L|275:273,1,81,2|8,0:1|0:0,0:0:0:0:
412,384,235888,6,0,B|388:268|388:268|444:252,1,162,10|10,0:1|0:1,0:0:0:0:
429,256,236279,1,8,0:1:0:0:
429,256,236357,1,12,0:0:0:0:
308,360,236513,2,0,B|252:364|223:316|223:316|173:342|144:320,1,162,0|10,0:0|0:1,0:0:0:0:
296,280,236982,1,12,0:0:0:0:
176,248,237138,1,2,3:2:0:0:
40,296,237295,6,0,P|31:335|41:373,1,81,8|2,0:1|0:0,0:0:0:0:
224,320,237607,2,0,B|256:256|192:240|228:156,1,162,12|10,0:0|0:1,0:0:0:0:
316,204,238076,1,8,0:1:0:0:
384,64,238232,2,0,L|476:52,1,81,8|8,0:0|0:1,0:0:0:0:
471,237,238545,6,0,P|377:203|298:207,1,162,10|12,0:0|0:0,0:0:0:0:
156,284,239013,1,0,3:0:0:0:
156,284,239091,1,4,3:0:0:0:
156,284,239170,1,8,3:0:0:0:
300,332,239326,1,0,0:0:0:0:
212,208,239482,1,8,2:3:0:0:
124,368,239638,1,0,0:0:0:0:
0,281,239795,6,0,B|72:317|88:249|160:285,1,162,12|0,0:1|0:0,0:0:0:0:
356,267,240263,1,8,0:1:0:0:
356,267,240341,1,8,0:1:0:0:
356,267,240420,2,0,P|248:264|212:220,1,162,8|8,0:0|0:1,0:0:0:0:
342,187,240888,6,0,L|358:279,1,81,8|8,0:0|0:1,0:0:0:0:
169,363,241201,2,0,L|153:267,1,81,8|0,0:0|0:0,0:0:0:0:
128,140,241513,1,8,0:1:0:0:
62,236,241670,2,0,B|141:257|141:257|233:221,1,162,8|0,0:0|0:0,0:0:0:0:
300,192,242138,1,8,0:1:0:0:
238,80,242295,6,0,P|198:172|218:232,1,162,12|0,0:1|0:0,0:0:0:0:
378,211,242763,1,8,0:1:0:0:
378,211,242841,1,8,0:1:0:0:
378,211,242920,2,0,L|287:188,1,81,8|0,0:0|0:0,0:0:0:0:
104,248,243232,1,8,0:1:0:0:
200,352,243388,1,8,0:3:0:0:
214,227,243545,5,8,0:1:0:0:
56,352,243701,2,0,P|152:340|228:328,1,162,8|8,0:3|0:1,0:0:0:0:
304,280,244091,1,8,0:1:0:0:
304,280,244170,2,0,P|228:284|188:248,1,121.5,8|8,0:0|0:1,0:0:0:0:
176,228,244482,1,8,0:1:0:0:
264,184,244638,1,8,0:1:0:0:
416,216,244795,6,0,B|340:176|332:248|260:212,1,162,12|0,0:1|0:0,0:0:0:0:
140,136,245263,1,8,0:1:0:0:
140,136,245341,1,8,0:1:0:0:
140,136,245420,2,0,B|238:114|238:114|298:138,1,162,12|8,0:0|0:1,0:0:0:0:
397,294,245888,6,0,L|421:194,1,81,8|8,0:0|0:1,0:0:0:0:
430,100,246201,2,0,P|370:152|294:136,1,162,8|8,0:0|0:1,0:0:0:0:
268,112,246591,1,8,0:1:0:0:
268,112,246670,2,0,P|256:64|272:20,1,81,8|8,0:0|0:1,0:0:0:0:
348,76,246982,1,8,0:0:0:0:
60,128,247295,5,12,0:1:0:0:
0,220,247451,2,0,B|88:188|76:264|160:228,1,162,8|8,0:0|0:1,0:0:0:0:
296,196,247920,2,0,L|208:176,1,81,8|8,0:0|0:1,0:0:0:0:
217,178,248154,1,8,0:1:0:0:
217,178,248232,1,8,0:0:0:0:
164,316,248388,1,8,0:1:0:0:
164,316,248466,1,8,0:1:0:0:
164,316,248545,6,0,L|180:376,3,40.5,8|0|8|8,0:0|0:0|0:1|0:1,0:0:0:0:
256,308,248857,2,0,L|264:256,3,40.5,8|8|8|0,0:1|0:1|0:0|0:0,0:0:0:0:
320,355,249170,5,8,0:0:0:0:
360,368,249248,1,0,0:0:0:0:
400,368,249326,1,8,0:1:0:0:
440,356,249404,1,8,0:1:0:0:
464,324,249482,6,0,P|463:293|456:260,1,40.5,8|8,0:0|0:0,0:0:0:0:
368,252,249638,2,0,P|368:220|376:197,1,40.5,8|8,0:0|0:0,0:0:0:0:
464,132,249795,6,0,P|384:172|312:144,1,162,12|8,0:1|0:0,0:0:0:0:
356,8,250263,2,0,L|380:92,1,81,2|8,0:0|0:1,0:0:0:0:
200,176,250576,2,0,L|220:84,1,81,10|8,0:1|0:0,0:0:0:0:
319,150,250888,6,0,P|304:232|288:316,1,162,10|8,0:1|0:1,0:0:0:0:
288,336,251279,1,8,0:1:0:0:
288,336,251357,1,8,0:0:0:0:
212,260,251513,2,0,B|155:247|155:247|111:267|111:267|47:255,1,162,0|8,0:0|0:1,0:0:0:0:
24,240,251904,1,8,0:1:0:0:
24,240,251982,2,0,P|20:192|36:160,1,81,10|0,0:0|0:0,0:0:0:0:
212,164,252295,6,0,P|227:208|223:247,1,81,12|8,0:1|0:1,0:0:0:0:
128,368,252607,1,8,0:0:0:0:
128,368,252763,2,0,B|104:296|160:280|124:204,1,162,2|8,3:2|0:1,0:0:0:0:
44,132,253232,2,0,P|40:80|60:40,1,81,10|2,0:0|3:2,0:0:0:0:
144,108,253545,6,0,P|232:128|292:88,1,162,10|8,0:1|0:0,0:0:0:0:
352,0,254013,1,8,0:1:0:0:
492,96,254170,2,0,P|452:102|376:116,1,81,2|10,0:0|0:1,0:0:0:0:
412,109,254404,1,8,0:1:0:0:
412,109,254482,1,8,0:0:0:0:
240,212,254638,1,10,0:1:0:0:
240,212,254716,1,8,0:1:0:0:
240,212,254795,6,0,P|285:220|324:228,1,81,8|10,0:0|0:1,0:0:0:0:
472,260,255107,1,8,0:0:0:0:
472,260,255263,1,2,0:1:0:0:
272,328,255420,6,0,P|320:320|364:312,1,81,8|10,0:0|0:1,0:0:0:0:
388,152,255732,2,0,P|340:144|296:136,1,81,8|10,0:0|0:1,0:0:0:0:
152,248,256045,6,0,P|204:240|252:232,1,81,8|10,0:0|0:1,0:0:0:0:
280,44,256357,2,0,P|228:52|180:60,1,81,8|10,0:0|0:1,0:0:0:0:
0,172,256670,6,0,P|64:160|108:152,1,81,8|10,0:0|0:1,0:0:0:0:
224,132,256982,1,8,0:0:0:0:
224,132,257138,1,2,0:1:0:0:
88,68,257295,5,8,0:0:0:0:
88,68,257451,1,2,0:0:0:0:
224,132,257607,2,0,P|215:167|204:216,1,81,8|0,0:0|3:0,0:0:0:0:
304,152,257920,5,8,0:0:0:0:
304,152,258076,1,2,0:0:0:0:
128,216,258232,2,0,P|137:255|146:294,1,81,8|12,0:0|0:0,0:0:0:0:
312,360,258545,6,0,L|324:304,3,40.5,8|8|8|8,0:1|0:1|0:1|0:1,0:0:0:0:
240,280,258857,2,0,L|232:224,3,40.5,8|8|8|8,0:1|0:1|0:1|0:1,0:0:0:0:
324,232,259170,5,8,0:1:0:0:
343,237,259248,1,8,0:1:0:0:
362,241,259326,1,8,0:1:0:0:
381,246,259404,1,8,0:1:0:0:
400,251,259482,2,0,L|452:264,1,40.5,12|0,0:0|0:0,0:0:0:0:
464,184,259638,6,0,L|380:164,1,48.5999985168458,12|0,0:0|0:0,0:0:0:0:
