osu file format v14

[General]
AudioFilename: bouquet.mp3
AudioLeadIn: 0
PreviewTime: 76045
Countdown: 0
SampleSet: Soft
StackLeniency: 0.7
Mode: 0
LetterboxInBreaks: 0
WidescreenStoryboard: 1

[Editor]
Bookmarks: 21045,36045,41045,53545,56045,91045,106045,131045,151045,209795,239795
DistanceSpacing: 0.7
BeatDivisor: 4
GridSize: 4
TimelineZoom: 2.1

[Metadata]
Title:bouquet
TitleUnicode:bouquet
Artist:ChouCho
ArtistUnicode:ChouCho
Creator:Kibbleru
Version:Ex
Source:
Tags:ちょうちょ BetaStar Sotarks Kalibe -Nitrous Kisses
BeatmapID:986375
BeatmapSetID:460580

[Difficulty]
HPDrainRate:7
CircleSize:4
OverallDifficulty:8.5
ApproachRate:9.5
SliderMultiplier:1.7
SliderTickRate:1

[Events]
//Background and Video events
0,0,"BG1.jpg",0,0
//Break Periods
2,108745,114270
//Storyboard Layer 0 (Background)
//Storyboard Layer 1 (Fail)
//Storyboard Layer 2 (Pass)
//Storyboard Layer 3 (Foreground)
Sprite,Foreground,Centre,"SB\dot.png",320,240 S,0,163545,,0.5 C,0,163545,,148,148,255 M,1,163545,164351,401,230,470,220 F,0,163545,164351,1,0
Sprite,Foreground,Centre,"SB\dot.png",320,240 S,0,163545,,0.5 C,0,163545,,148,148,255 M,1,163545,164351,401,230,430,166 F,0,163545,164351,1,0
Sprite,Foreground,Centre,"SB\dot.png",320,240 S,0,163545,,0.5 C,0,163545,,148,148,255 M,1,163545,164351,401,230,363,171 F,0,163545,164351,1,0
Sprite,Foreground,Centre,"SB\dot.png",320,240 S,0,163545,,0.5 C,0,163545,,148,148,255 M,1,163545,164351,401,230,331,230 F,0,163545,164351,1,0
Sprite,Foreground,Centre,"SB\dot.png",320,240 S,0,163545,,0.5 C,0,163545,,148,148,255 M,1,163545,164351,401,230,363,289 F,0,163545,164351,1,0
Sprite,Foreground,Centre,"SB\dot.png",320,240 S,0,163545,,0.5 C,0,163545,,148,148,255 M,1,163545,164351,401,230,430,294 F,0,163545,164351,1,0
Sprite,Foreground,Centre,"SB\dot.png",320,240 S,0,163545,,0.2 M,1,163545,164351,401,230,465,202 F,0,163545,164351,1,0
Sprite,Foreground,Centre,"SB\dot.png",320,240 S,0,163545,,0.2 M,1,163545,164351,401,230,427,161 F,0,163545,164351,1,0
Sprite,Foreground,Centre,"SB\dot.png",320,240 S,0,163545,,0.2 M,1,163545,164351,401,230,373,222 F,0,163545,164351,1,0
Sprite,Foreground,Centre,"SB\dot.png",320,240 S,0,163545,,0.2 M,1,163545,164351,401,230,336,295 F,0,163545,164351,1,0
Sprite,Foreground,Centre,"SB\dot.png",320,240 S,0,163545,,0.2 M,1,163545,164351,401,230,337,272 F,0,163545,164351,1,0
Sprite,Foreground,Centre,"SB\dot.png",320,240 S,0,163545,,0.2 M,1,163545,164351,401,230,375,187 F,0,163545,164351,1,0
Sprite,Foreground,Centre,"SB\dot.png",320,240 S,0,163701,,0.5 C,0,163701,,143,143,255 M,1,163701,164507,225,119,227,189 F,0,163701,164507,1,0
Sprite,Foreground,Centre,"SB\dot.png",320,240 S,0,163701,,0.5 C,0,163701,,143,143,255 M,1,163701,164507,225,119,285,155 F,0,163701,164507,1,0
Sprite,Foreground,Centre,"SB\dot.png",320,240 S,0,163701,,0.5 C,0,163701,,143,143,255 M,1,163701,164507,225,119,288,88 F,0,163701,164507,1,0
Sprite,Foreground,Centre,"SB\dot.png",320,240 S,0,163701,,0.5 C,0,163701,,143,143,255 M,1,163701,164507,225,119,232,49 F,0,163701,164507,1,0
Sprite,Foreground,Centre,"SB\dot.png",320,240 S,0,163701,,0.5 C,0,163701,,143,143,255 M,1,163701,164507,225,119,170,75 F,0,163701,164507,1,0
Sprite,Foreground,Centre,"SB\dot.png",320,240 S,0,163701,,0.5 C,0,163701,,143,143,255 M,1,163701,164507,225,119,159,141 F,0,163701,164507,1,0
Sprite,Foreground,Centre,"SB\dot.png",320,240 S,0,163701,,0.2 M,1,163701,164507,225,119,245,186 F,0,163701,164507,1,0
Sprite,Foreground,Centre,"SB\dot.png",320,240 S,0,163701,,0.2 M,1,163701,164507,225,119,287,117 F,0,163701,164507,1,0
Sprite,Foreground,Centre,"SB\dot.png",320,240 S,0,163701,,0.2 M,1,163701,164507,225,119,292,51 F,0,163701,164507,1,0
Sprite,Foreground,Centre,"SB\dot.png",320,240 S,0,163701,,0.2 M,1,163701,164507,225,119,258,86 F,0,163701,164507,1,0
Sprite,Foreground,Centre,"SB\dot.png",320,240 S,0,163701,,0.2 M,1,163701,164507,225,119,205,170 F,0,163701,164507,1,0
Sprite,Foreground,Centre,"SB\dot.png",320,240 S,0,163701,,0.2 M,1,163701,164507,225,119,163,178 F,0,163701,164507,1,0
Sprite,Foreground,Centre,"SB\dot.png",320,240 S,0,163857,,0.5 C,0,163857,,89,89,255 M,1,163857,164663,137,270,184,322 F,0,163857,164663,1,0
Sprite,Foreground,Centre,"SB\dot.png",320,240 S,0,163857,,0.5 C,0,163857,,89,89,255 M,1,163857,164663,137,270,206,259 F,0,163857,164663,1,0
Sprite,Foreground,Centre,"SB\dot.png",320,240 S,0,163857,,0.5 C,0,163857,,89,89,255 M,1,163857,164663,137,270,165,206 F,0,163857,164663,1,0
Sprite,Foreground,Centre,"SB\dot.png",320,240 S,0,163857,,0.5 C,0,163857,,89,89,255 M,1,163857,164663,137,270,98,212 F,0,163857,164663,1,0
Sprite,Foreground,Centre,"SB\dot.png",320,240 S,0,163857,,0.5 C,0,163857,,89,89,255 M,1,163857,164663,137,270,67,272 F,0,163857,164663,1,0
Sprite,Foreground,Centre,"SB\dot.png",320,240 S,0,163857,,0.5 C,0,163857,,89,89,255 M,1,163857,164663,137,270,100,330 F,0,163857,164663,1,0
Sprite,Foreground,Centre,"SB\dot.png",320,240 S,0,163857,,0.2 M,1,163857,164663,137,270,196,308 F,0,163857,164663,1,0
Sprite,Foreground,Centre,"SB\dot.png",320,240 S,0,163857,,0.2 M,1,163857,164663,137,270,205,223 F,0,163857,164663,1,0
Sprite,Foreground,Centre,"SB\dot.png",320,240 S,0,163857,,0.2 M,1,163857,164663,137,270,175,208 F,0,163857,164663,1,0
Sprite,Foreground,Centre,"SB\dot.png",320,240 S,0,163857,,0.2 M,1,163857,164663,137,270,122,285 F,0,163857,164663,1,0
Sprite,Foreground,Centre,"SB\dot.png",320,240 S,0,163857,,0.2 M,1,163857,164663,137,270,78,340 F,0,163857,164663,1,0
Sprite,Foreground,Centre,"SB\dot.png",320,240 S,0,163857,,0.2 M,1,163857,164663,137,270,69,292 F,0,163857,164663,1,0
Sprite,Foreground,Centre,"SB\dot.png",320,240 S,0,164013,,0.5 C,0,164013,,79,79,255 M,1,164013,164819,221,211,231,280 F,0,164013,164819,1,0
Sprite,Foreground,Centre,"SB\dot.png",320,240 S,0,164013,,0.5 C,0,164013,,79,79,255 M,1,164013,164819,221,211,285,240 F,0,164013,164819,1,0
Sprite,Foreground,Centre,"SB\dot.png",320,240 S,0,164013,,0.5 C,0,164013,,79,79,255 M,1,164013,164819,221,211,280,173 F,0,164013,164819,1,0
Sprite,Foreground,Centre,"SB\dot.png",320,240 S,0,164013,,0.5 C,0,164013,,79,79,255 M,1,164013,164819,221,211,220,141 F,0,164013,164819,1,0
Sprite,Foreground,Centre,"SB\dot.png",320,240 S,0,164013,,0.5 C,0,164013,,79,79,255 M,1,164013,164819,221,211,162,174 F,0,164013,164819,1,0
Sprite,Foreground,Centre,"SB\dot.png",320,240 S,0,164013,,0.5 C,0,164013,,79,79,255 M,1,164013,164819,221,211,158,241 F,0,164013,164819,1,0
Sprite,Foreground,Centre,"SB\dot.png",320,240 S,0,164013,,0.2 M,1,164013,164819,221,211,249,275 F,0,164013,164819,1,0
Sprite,Foreground,Centre,"SB\dot.png",320,240 S,0,164013,,0.2 M,1,164013,164819,221,211,286,201 F,0,164013,164819,1,0
Sprite,Foreground,Centre,"SB\dot.png",320,240 S,0,164013,,0.2 M,1,164013,164819,221,211,285,141 F,0,164013,164819,1,0
Sprite,Foreground,Centre,"SB\dot.png",320,240 S,0,164013,,0.2 M,1,164013,164819,221,211,247,185 F,0,164013,164819,1,0
Sprite,Foreground,Centre,"SB\dot.png",320,240 S,0,164013,,0.2 M,1,164013,164819,221,211,193,267 F,0,164013,164819,1,0
Sprite,Foreground,Centre,"SB\dot.png",320,240 S,0,164013,,0.2 M,1,164013,164819,221,211,156,266 F,0,164013,164819,1,0
Sprite,Foreground,Centre,"SB\dot.png",320,240 S,0,164170,,0.5 C,0,164170,,117,117,255 M,1,164170,164976,205,431,259,475 F,0,164170,164976,1,0
Sprite,Foreground,Centre,"SB\dot.png",320,240 S,0,164170,,0.5 C,0,164170,,117,117,255 M,1,164170,164976,205,431,272,409 F,0,164170,164976,1,0
Sprite,Foreground,Centre,"SB\dot.png",320,240 S,0,164170,,0.5 C,0,164170,,117,117,255 M,1,164170,164976,205,431,223,363 F,0,164170,164976,1,0
Sprite,Foreground,Centre,"SB\dot.png",320,240 S,0,164170,,0.5 C,0,164170,,117,117,255 M,1,164170,164976,205,431,158,379 F,0,164170,164976,1,0
Sprite,Foreground,Centre,"SB\dot.png",320,240 S,0,164170,,0.5 C,0,164170,,117,117,255 M,1,164170,164976,205,431,136,443 F,0,164170,164976,1,0
Sprite,Foreground,Centre,"SB\dot.png",320,240 S,0,164170,,0.5 C,0,164170,,117,117,255 M,1,164170,164976,205,431,178,496 F,0,164170,164976,1,0
Sprite,Foreground,Centre,"SB\dot.png",320,240 S,0,164170,,0.2 M,1,164170,164976,205,431,269,460 F,0,164170,164976,1,0
Sprite,Foreground,Centre,"SB\dot.png",320,240 S,0,164170,,0.2 M,1,164170,164976,205,431,270,377 F,0,164170,164976,1,0
Sprite,Foreground,Centre,"SB\dot.png",320,240 S,0,164170,,0.2 M,1,164170,164976,205,431,234,374 F,0,164170,164976,1,0
Sprite,Foreground,Centre,"SB\dot.png",320,240 S,0,164170,,0.2 M,1,164170,164976,205,431,180,456 F,0,164170,164976,1,0
Sprite,Foreground,Centre,"SB\dot.png",320,240 S,0,164170,,0.2 M,1,164170,164976,205,431,141,501 F,0,164170,164976,1,0
Sprite,Foreground,Centre,"SB\dot.png",320,240 S,0,164170,,0.2 M,1,164170,164976,205,431,140,442 F,0,164170,164976,1,0
Sprite,Foreground,Centre,"SB\dot.png",320,240 S,0,164326,,0.5 C,0,164326,,119,119,255 M,1,164326,165132,208,159,138,151 F,0,164326,165132,1,0
Sprite,Foreground,Centre,"SB\dot.png",320,240 S,0,164326,,0.5 C,0,164326,,119,119,255 M,1,164326,165132,208,159,164,213 F,0,164326,165132,1,0
Sprite,Foreground,Centre,"SB\dot.png",320,240 S,0,164326,,0.5 C,0,164326,,119,119,255 M,1,164326,165132,208,159,230,225 F,0,164326,165132,1,0
Sprite,Foreground,Centre,"SB\dot.png",320,240 S,0,164326,,0.5 C,0,164326,,119,119,255 M,1,164326,165132,208,159,276,176 F,0,164326,165132,1,0
Sprite,Foreground,Centre,"SB\dot.png",320,240 S,0,164326,,0.5 C,0,164326,,119,119,255 M,1,164326,165132,208,159,259,111 F,0,164326,165132,1,0
Sprite,Foreground,Centre,"SB\dot.png",320,240 S,0,164326,,0.5 C,0,164326,,119,119,255 M,1,164326,165132,208,159,196,90 F,0,164326,165132,1,0
Sprite,Foreground,Centre,"SB\dot.png",320,240 S,0,164326,,0.2 M,1,164326,165132,208,159,139,170 F,0,164326,165132,1,0
Sprite,Foreground,Centre,"SB\dot.png",320,240 S,0,164326,,0.2 M,1,164326,165132,208,159,167,229 F,0,164326,165132,1,0
Sprite,Foreground,Centre,"SB\dot.png",320,240 S,0,164326,,0.2 M,1,164326,165132,208,159,219,184 F,0,164326,165132,1,0
Sprite,Foreground,Centre,"SB\dot.png",320,240 S,0,164326,,0.2 M,1,164326,165132,208,159,264,103 F,0,164326,165132,1,0
Sprite,Foreground,Centre,"SB\dot.png",320,240 S,0,164326,,0.2 M,1,164326,165132,208,159,277,104 F,0,164326,165132,1,0
Sprite,Foreground,Centre,"SB\dot.png",320,240 S,0,164326,,0.2 M,1,164326,165132,208,159,249,187 F,0,164326,165132,1,0
Sprite,Foreground,Centre,"SB\dot.png",320,240 S,0,164482,,0.5 C,0,164482,,103,103,255 M,1,164482,165288,401,230,393,300 F,0,164482,165288,1,0
Sprite,Foreground,Centre,"SB\dot.png",320,240 S,0,164482,,0.5 C,0,164482,,103,103,255 M,1,164482,165288,401,230,455,274 F,0,164482,165288,1,0
Sprite,Foreground,Centre,"SB\dot.png",320,240 S,0,164482,,0.5 C,0,164482,,103,103,255 M,1,164482,165288,401,230,468,208 F,0,164482,165288,1,0
Sprite,Foreground,Centre,"SB\dot.png",320,240 S,0,164482,,0.5 C,0,164482,,103,103,255 M,1,164482,165288,401,230,419,162 F,0,164482,165288,1,0
Sprite,Foreground,Centre,"SB\dot.png",320,240 S,0,164482,,0.5 C,0,164482,,103,103,255 M,1,164482,165288,401,230,354,178 F,0,164482,165288,1,0
Sprite,Foreground,Centre,"SB\dot.png",320,240 S,0,164482,,0.5 C,0,164482,,103,103,255 M,1,164482,165288,401,230,332,242 F,0,164482,165288,1,0
Sprite,Foreground,Centre,"SB\dot.png",320,240 S,0,164482,,0.2 M,1,164482,165288,401,230,411,299 F,0,164482,165288,1,0
Sprite,Foreground,Centre,"SB\dot.png",320,240 S,0,164482,,0.2 M,1,164482,165288,401,230,457,238 F,0,164482,165288,1,0
Sprite,Foreground,Centre,"SB\dot.png",320,240 S,0,164482,,0.2 M,1,164482,165288,401,230,470,165 F,0,164482,165288,1,0
Sprite,Foreground,Centre,"SB\dot.png",320,240 S,0,164482,,0.2 M,1,164482,165288,401,230,443,188 F,0,164482,165288,1,0
Sprite,Foreground,Centre,"SB\dot.png",320,240 S,0,164482,,0.2 M,1,164482,165288,401,230,391,273 F,0,164482,165288,1,0
Sprite,Foreground,Centre,"SB\dot.png",320,240 S,0,164482,,0.2 M,1,164482,165288,401,230,345,294 F,0,164482,165288,1,0
Sprite,Foreground,Centre,"SB\dot.png",320,240 S,0,164638,,0.5 C,0,164638,,98,98,255 M,1,164638,165444,273,295,333,331 F,0,164638,165444,1,0
Sprite,Foreground,Centre,"SB\dot.png",320,240 S,0,164638,,0.5 C,0,164638,,98,98,255 M,1,164638,165444,273,295,336,264 F,0,164638,165444,1,0
Sprite,Foreground,Centre,"SB\dot.png",320,240 S,0,164638,,0.5 C,0,164638,,98,98,255 M,1,164638,165444,273,295,280,225 F,0,164638,165444,1,0
Sprite,Foreground,Centre,"SB\dot.png",320,240 S,0,164638,,0.5 C,0,164638,,98,98,255 M,1,164638,165444,273,295,218,251 F,0,164638,165444,1,0
Sprite,Foreground,Centre,"SB\dot.png",320,240 S,0,164638,,0.5 C,0,164638,,98,98,255 M,1,164638,165444,273,295,207,317 F,0,164638,165444,1,0
Sprite,Foreground,Centre,"SB\dot.png",320,240 S,0,164638,,0.5 C,0,164638,,98,98,255 M,1,164638,165444,273,295,256,363 F,0,164638,165444,1,0
Sprite,Foreground,Centre,"SB\dot.png",320,240 S,0,164638,,0.2 M,1,164638,165444,273,295,340,314 F,0,164638,165444,1,0
Sprite,Foreground,Centre,"SB\dot.png",320,240 S,0,164638,,0.2 M,1,164638,165444,273,295,334,235 F,0,164638,165444,1,0
Sprite,Foreground,Centre,"SB\dot.png",320,240 S,0,164638,,0.2 M,1,164638,165444,273,295,292,245 F,0,164638,165444,1,0
Sprite,Foreground,Centre,"SB\dot.png",320,240 S,0,164638,,0.2 M,1,164638,165444,273,295,239,329 F,0,164638,165444,1,0
Sprite,Foreground,Centre,"SB\dot.png",320,240 S,0,164638,,0.2 M,1,164638,165444,273,295,206,363 F,0,164638,165444,1,0
Sprite,Foreground,Centre,"SB\dot.png",320,240 S,0,164638,,0.2 M,1,164638,165444,273,295,212,296 F,0,164638,165444,1,0
Sprite,Foreground,Centre,"SB\dot.png",320,240 S,0,164795,,0.5 C,0,164795,,129,129,255 M,1,164795,165601,424,323,464,381 F,0,164795,165601,1,0
Sprite,Foreground,Centre,"SB\dot.png",320,240 S,0,164795,,0.5 C,0,164795,,129,129,255 M,1,164795,165601,424,323,494,321 F,0,164795,165601,1,0
Sprite,Foreground,Centre,"SB\dot.png",320,240 S,0,164795,,0.5 C,0,164795,,129,129,255 M,1,164795,165601,424,323,460,263 F,0,164795,165601,1,0
Sprite,Foreground,Centre,"SB\dot.png",320,240 S,0,164795,,0.5 C,0,164795,,129,129,255 M,1,164795,165601,424,323,393,260 F,0,164795,165601,1,0
Sprite,Foreground,Centre,"SB\dot.png",320,240 S,0,164795,,0.5 C,0,164795,,129,129,255 M,1,164795,165601,424,323,354,315 F,0,164795,165601,1,0
Sprite,Foreground,Centre,"SB\dot.png",320,240 S,0,164795,,0.5 C,0,164795,,129,129,255 M,1,164795,165601,424,323,380,377 F,0,164795,165601,1,0
Sprite,Foreground,Centre,"SB\dot.png",320,240 S,0,164795,,0.2 M,1,164795,165601,424,323,477,368 F,0,164795,165601,1,0
Sprite,Foreground,Centre,"SB\dot.png",320,240 S,0,164795,,0.2 M,1,164795,165601,424,323,494,283 F,0,164795,165601,1,0
Sprite,Foreground,Centre,"SB\dot.png",320,240 S,0,164795,,0.2 M,1,164795,165601,424,323,469,257 F,0,164795,165601,1,0
Sprite,Foreground,Centre,"SB\dot.png",320,240 S,0,164795,,0.2 M,1,164795,165601,424,323,419,328 F,0,164795,165601,1,0
Sprite,Foreground,Centre,"SB\dot.png",320,240 S,0,164795,,0.2 M,1,164795,165601,424,323,371,392 F,0,164795,165601,1,0
Sprite,Foreground,Centre,"SB\dot.png",320,240 S,0,164795,,0.2 M,1,164795,165601,424,323,354,353 F,0,164795,165601,1,0
Sprite,Foreground,Centre,"SB\dot.png",320,240 S,0,165107,,0.5 C,0,165107,,140,140,255 M,1,165107,165913,384,146,349,206 F,0,165107,165913,1,0
Sprite,Foreground,Centre,"SB\dot.png",320,240 S,0,165107,,0.5 C,0,165107,,140,140,255 M,1,165107,165913,384,146,416,208 F,0,165107,165913,1,0
Sprite,Foreground,Centre,"SB\dot.png",320,240 S,0,165107,,0.5 C,0,165107,,140,140,255 M,1,165107,165913,384,146,454,153 F,0,165107,165913,1,0
Sprite,Foreground,Centre,"SB\dot.png",320,240 S,0,165107,,0.5 C,0,165107,,140,140,255 M,1,165107,165913,384,146,428,91 F,0,165107,165913,1,0
Sprite,Foreground,Centre,"SB\dot.png",320,240 S,0,165107,,0.5 C,0,165107,,140,140,255 M,1,165107,165913,384,146,361,80 F,0,165107,165913,1,0
Sprite,Foreground,Centre,"SB\dot.png",320,240 S,0,165107,,0.5 C,0,165107,,140,140,255 M,1,165107,165913,384,146,316,129 F,0,165107,165913,1,0
Sprite,Foreground,Centre,"SB\dot.png",320,240 S,0,165107,,0.2 M,1,165107,165913,384,146,365,213 F,0,165107,165913,1,0
Sprite,Foreground,Centre,"SB\dot.png",320,240 S,0,165107,,0.2 M,1,165107,165913,384,146,419,181 F,0,165107,165913,1,0
Sprite,Foreground,Centre,"SB\dot.png",320,240 S,0,165107,,0.2 M,1,165107,165913,384,146,451,97 F,0,165107,165913,1,0
Sprite,Foreground,Centre,"SB\dot.png",320,240 S,0,165107,,0.2 M,1,165107,165913,384,146,445,85 F,0,165107,165913,1,0
Sprite,Foreground,Centre,"SB\dot.png",320,240 S,0,165107,,0.2 M,1,165107,165913,384,146,403,164 F,0,165107,165913,1,0
Sprite,Foreground,Centre,"SB\dot.png",320,240 S,0,165107,,0.2 M,1,165107,165913,384,146,349,216 F,0,165107,165913,1,0
Sprite,Foreground,Centre,"SB\dot.png",320,240 S,0,165420,,0.5 C,0,165420,,122,122,255 M,1,165420,166226,293,383,339,436 F,0,165420,166226,1,0
Sprite,Foreground,Centre,"SB\dot.png",320,240 S,0,165420,,0.5 C,0,165420,,122,122,255 M,1,165420,166226,293,383,362,373 F,0,165420,166226,1,0
Sprite,Foreground,Centre,"SB\dot.png",320,240 S,0,165420,,0.5 C,0,165420,,122,122,255 M,1,165420,166226,293,383,322,319 F,0,165420,166226,1,0
Sprite,Foreground,Centre,"SB\dot.png",320,240 S,0,165420,,0.5 C,0,165420,,122,122,255 M,1,165420,166226,293,383,255,324 F,0,165420,166226,1,0
Sprite,Foreground,Centre,"SB\dot.png",320,240 S,0,165420,,0.5 C,0,165420,,122,122,255 M,1,165420,166226,293,383,223,383 F,0,165420,166226,1,0
Sprite,Foreground,Centre,"SB\dot.png",320,240 S,0,165420,,0.5 C,0,165420,,122,122,255 M,1,165420,166226,293,383,255,442 F,0,165420,166226,1,0
Sprite,Foreground,Centre,"SB\dot.png",320,240 S,0,165420,,0.2 M,1,165420,166226,293,383,351,422 F,0,165420,166226,1,0
Sprite,Foreground,Centre,"SB\dot.png",320,240 S,0,165420,,0.2 M,1,165420,166226,293,383,362,337 F,0,165420,166226,1,0
Sprite,Foreground,Centre,"SB\dot.png",320,240 S,0,165420,,0.2 M,1,165420,166226,293,383,332,320 F,0,165420,166226,1,0
Sprite,Foreground,Centre,"SB\dot.png",320,240 S,0,165420,,0.2 M,1,165420,166226,293,383,280,396 F,0,165420,166226,1,0
Sprite,Foreground,Centre,"SB\dot.png",320,240 S,0,165420,,0.2 M,1,165420,166226,293,383,235,453 F,0,165420,166226,1,0
Sprite,Foreground,Centre,"SB\dot.png",320,240 S,0,165420,,0.2 M,1,165420,166226,293,383,224,406 F,0,165420,166226,1,0
Sprite,Foreground,Centre,"SB\dot.png",320,240 S,0,165576,,0.5 C,0,165576,,128,128,255 M,1,165576,166382,220,210,284,239 F,0,165576,166382,1,0
Sprite,Foreground,Centre,"SB\dot.png",320,240 S,0,165576,,0.5 C,0,165576,,128,128,255 M,1,165576,166382,220,210,279,172 F,0,165576,166382,1,0
Sprite,Foreground,Centre,"SB\dot.png",320,240 S,0,165576,,0.5 C,0,165576,,128,128,255 M,1,165576,166382,220,210,219,140 F,0,165576,166382,1,0
Sprite,Foreground,Centre,"SB\dot.png",320,240 S,0,165576,,0.5 C,0,165576,,128,128,255 M,1,165576,166382,220,210,161,173 F,0,165576,166382,1,0
Sprite,Foreground,Centre,"SB\dot.png",320,240 S,0,165576,,0.5 C,0,165576,,128,128,255 M,1,165576,166382,220,210,157,240 F,0,165576,166382,1,0
Sprite,Foreground,Centre,"SB\dot.png",320,240 S,0,165576,,0.5 C,0,165576,,128,128,255 M,1,165576,166382,220,210,211,279 F,0,165576,166382,1,0
Sprite,Foreground,Centre,"SB\dot.png",320,240 S,0,165576,,0.2 M,1,165576,166382,220,210,289,221 F,0,165576,166382,1,0
Sprite,Foreground,Centre,"SB\dot.png",320,240 S,0,165576,,0.2 M,1,165576,166382,220,210,277,146 F,0,165576,166382,1,0
Sprite,Foreground,Centre,"SB\dot.png",320,240 S,0,165576,,0.2 M,1,165576,166382,220,210,231,166 F,0,165576,166382,1,0
Sprite,Foreground,Centre,"SB\dot.png",320,240 S,0,165576,,0.2 M,1,165576,166382,220,210,179,251 F,0,165576,166382,1,0
Sprite,Foreground,Centre,"SB\dot.png",320,240 S,0,165576,,0.2 M,1,165576,166382,220,210,151,275 F,0,165576,166382,1,0
Sprite,Foreground,Centre,"SB\dot.png",320,240 S,0,165576,,0.2 M,1,165576,166382,220,210,163,203 F,0,165576,166382,1,0
Sprite,Foreground,Centre,"SB\dot.png",320,240 S,0,165732,,0.5 C,0,165732,,82,82,255 M,1,165732,166538,489,255,422,275 F,0,165732,166538,1,0
Sprite,Foreground,Centre,"SB\dot.png",320,240 S,0,165732,,0.5 C,0,165732,,82,82,255 M,1,165732,166538,489,255,469,322 F,0,165732,166538,1,0
Sprite,Foreground,Centre,"SB\dot.png",320,240 S,0,165732,,0.5 C,0,165732,,82,82,255 M,1,165732,166538,489,255,535,308 F,0,165732,166538,1,0
Sprite,Foreground,Centre,"SB\dot.png",320,240 S,0,165732,,0.5 C,0,165732,,82,82,255 M,1,165732,166538,489,255,558,245 F,0,165732,166538,1,0
Sprite,Foreground,Centre,"SB\dot.png",320,240 S,0,165732,,0.5 C,0,165732,,82,82,255 M,1,165732,166538,489,255,518,191 F,0,165732,166538,1,0
Sprite,Foreground,Centre,"SB\dot.png",320,240 S,0,165732,,0.5 C,0,165732,,82,82,255 M,1,165732,166538,489,255,451,196 F,0,165732,166538,1,0
Sprite,Foreground,Centre,"SB\dot.png",320,240 S,0,165732,,0.2 M,1,165732,166538,489,255,429,292 F,0,165732,166538,1,0
Sprite,Foreground,Centre,"SB\dot.png",320,240 S,0,165732,,0.2 M,1,165732,166538,489,255,473,322 F,0,165732,166538,1,0
Sprite,Foreground,Centre,"SB\dot.png",320,240 S,0,165732,,0.2 M,1,165732,166538,489,255,526,253 F,0,165732,166538,1,0
Sprite,Foreground,Centre,"SB\dot.png",320,240 S,0,165732,,0.2 M,1,165732,166538,489,255,557,187 F,0,165732,166538,1,0
Sprite,Foreground,Centre,"SB\dot.png",320,240 S,0,165732,,0.2 M,1,165732,166538,489,255,549,222 F,0,165732,166538,1,0
Sprite,Foreground,Centre,"SB\dot.png",320,240 S,0,165732,,0.2 M,1,165732,166538,489,255,505,306 F,0,165732,166538,1,0
Sprite,Foreground,Centre,"SB\dot.png",320,240 S,0,165888,,0.5 C,0,165888,,161,161,255 M,1,165888,166694,313,271,332,204 F,0,165888,166694,1,0
Sprite,Foreground,Centre,"SB\dot.png",320,240 S,0,165888,,0.5 C,0,165888,,161,161,255 M,1,165888,166694,313,271,267,219 F,0,165888,166694,1,0
Sprite,Foreground,Centre,"SB\dot.png",320,240 S,0,165888,,0.5 C,0,165888,,161,161,255 M,1,165888,166694,313,271,244,282 F,0,165888,166694,1,0
Sprite,Foreground,Centre,"SB\dot.png",320,240 S,0,165888,,0.5 C,0,165888,,161,161,255 M,1,165888,166694,313,271,285,335 F,0,165888,166694,1,0
Sprite,Foreground,Centre,"SB\dot.png",320,240 S,0,165888,,0.5 C,0,165888,,161,161,255 M,1,165888,166694,313,271,352,329 F,0,165888,166694,1,0
Sprite,Foreground,Centre,"SB\dot.png",320,240 S,0,165888,,0.5 C,0,165888,,161,161,255 M,1,165888,166694,313,271,383,270 F,0,165888,166694,1,0
Sprite,Foreground,Centre,"SB\dot.png",320,240 S,0,165888,,0.2 M,1,165888,166694,313,271,314,201 F,0,165888,166694,1,0
Sprite,Foreground,Centre,"SB\dot.png",320,240 S,0,165888,,0.2 M,1,165888,166694,313,271,264,252 F,0,165888,166694,1,0
Sprite,Foreground,Centre,"SB\dot.png",320,240 S,0,165888,,0.2 M,1,165888,166694,313,271,243,331 F,0,165888,166694,1,0
Sprite,Foreground,Centre,"SB\dot.png",320,240 S,0,165888,,0.2 M,1,165888,166694,313,271,263,321 F,0,165888,166694,1,0
Sprite,Foreground,Centre,"SB\dot.png",320,240 S,0,165888,,0.2 M,1,165888,166694,313,271,312,237 F,0,165888,166694,1,0
Sprite,Foreground,Centre,"SB\dot.png",320,240 S,0,165888,,0.2 M,1,165888,166694,313,271,362,203 F,0,165888,166694,1,0
Sprite,Foreground,Centre,"SB\dot.png",320,240 S,0,166045,,0.5 C,0,166045,,154,154,255 M,1,166045,166851,397,327,328,318 F,0,166045,166851,1,0
Sprite,Foreground,Centre,"SB\dot.png",320,240 S,0,166045,,0.5 C,0,166045,,154,154,255 M,1,166045,166851,397,327,352,381 F,0,166045,166851,1,0
Sprite,Foreground,Centre,"SB\dot.png",320,240 S,0,166045,,0.5 C,0,166045,,154,154,255 M,1,166045,166851,397,327,418,394 F,0,166045,166851,1,0
Sprite,Foreground,Centre,"SB\dot.png",320,240 S,0,166045,,0.5 C,0,166045,,154,154,255 M,1,166045,166851,397,327,464,346 F,0,166045,166851,1,0
Sprite,Foreground,Centre,"SB\dot.png",320,240 S,0,166045,,0.5 C,0,166045,,154,154,255 M,1,166045,166851,397,327,449,280 F,0,166045,166851,1,0
Sprite,Foreground,Centre,"SB\dot.png",320,240 S,0,166045,,0.5 C,0,166045,,154,154,255 M,1,166045,166851,397,327,386,258 F,0,166045,166851,1,0
Sprite,Foreground,Centre,"SB\dot.png",320,240 S,0,166045,,0.2 M,1,166045,166851,397,327,328,336 F,0,166045,166851,1,0
Sprite,Foreground,Centre,"SB\dot.png",320,240 S,0,166045,,0.2 M,1,166045,166851,397,327,355,396 F,0,166045,166851,1,0
Sprite,Foreground,Centre,"SB\dot.png",320,240 S,0,166045,,0.2 M,1,166045,166851,397,327,406,354 F,0,166045,166851,1,0
Sprite,Foreground,Centre,"SB\dot.png",320,240 S,0,166045,,0.2 M,1,166045,166851,397,327,453,271 F,0,166045,166851,1,0
Sprite,Foreground,Centre,"SB\dot.png",320,240 S,0,166045,,0.2 M,1,166045,166851,397,327,466,272 F,0,166045,166851,1,0
Sprite,Foreground,Centre,"SB\dot.png",320,240 S,0,166045,,0.2 M,1,166045,166851,397,327,439,354 F,0,166045,166851,1,0
Sprite,Foreground,Centre,"SB\dot.png",320,240 S,0,166201,,0.5 C,0,166201,,103,103,255 M,1,166201,167007,185,295,150,355 F,0,166201,167007,1,0
Sprite,Foreground,Centre,"SB\dot.png",320,240 S,0,166201,,0.5 C,0,166201,,103,103,255 M,1,166201,167007,185,295,217,357 F,0,166201,167007,1,0
Sprite,Foreground,Centre,"SB\dot.png",320,240 S,0,166201,,0.5 C,0,166201,,103,103,255 M,1,166201,167007,185,295,255,302 F,0,166201,167007,1,0
Sprite,Foreground,Centre,"SB\dot.png",320,240 S,0,166201,,0.5 C,0,166201,,103,103,255 M,1,166201,167007,185,295,229,240 F,0,166201,167007,1,0
Sprite,Foreground,Centre,"SB\dot.png",320,240 S,0,166201,,0.5 C,0,166201,,103,103,255 M,1,166201,167007,185,295,162,229 F,0,166201,167007,1,0
Sprite,Foreground,Centre,"SB\dot.png",320,240 S,0,166201,,0.5 C,0,166201,,103,103,255 M,1,166201,167007,185,295,117,278 F,0,166201,167007,1,0
Sprite,Foreground,Centre,"SB\dot.png",320,240 S,0,166201,,0.2 M,1,166201,167007,185,295,166,362 F,0,166201,167007,1,0
Sprite,Foreground,Centre,"SB\dot.png",320,240 S,0,166201,,0.2 M,1,166201,167007,185,295,220,330 F,0,166201,167007,1,0
Sprite,Foreground,Centre,"SB\dot.png",320,240 S,0,166201,,0.2 M,1,166201,167007,185,295,252,246 F,0,166201,167007,1,0
Sprite,Foreground,Centre,"SB\dot.png",320,240 S,0,166201,,0.2 M,1,166201,167007,185,295,246,234 F,0,166201,167007,1,0
Sprite,Foreground,Centre,"SB\dot.png",320,240 S,0,166201,,0.2 M,1,166201,167007,185,295,204,313 F,0,166201,167007,1,0
Sprite,Foreground,Centre,"SB\dot.png",320,240 S,0,166201,,0.2 M,1,166201,167007,185,295,150,365 F,0,166201,167007,1,0
Sprite,Foreground,Centre,"SB\dot.png",320,240 S,0,166357,,0.5 C,0,166357,,90,90,255 M,1,166357,167163,383,146,318,119 F,0,166357,167163,1,0
Sprite,Foreground,Centre,"SB\dot.png",320,240 S,0,166357,,0.5 C,0,166357,,90,90,255 M,1,166357,167163,383,146,325,186 F,0,166357,167163,1,0
Sprite,Foreground,Centre,"SB\dot.png",320,240 S,0,166357,,0.5 C,0,166357,,90,90,255 M,1,166357,167163,383,146,385,216 F,0,166357,167163,1,0
Sprite,Foreground,Centre,"SB\dot.png",320,240 S,0,166357,,0.5 C,0,166357,,90,90,255 M,1,166357,167163,383,146,443,182 F,0,166357,167163,1,0
Sprite,Foreground,Centre,"SB\dot.png",320,240 S,0,166357,,0.5 C,0,166357,,90,90,255 M,1,166357,167163,383,146,446,115 F,0,166357,167163,1,0
Sprite,Foreground,Centre,"SB\dot.png",320,240 S,0,166357,,0.5 C,0,166357,,90,90,255 M,1,166357,167163,383,146,390,76 F,0,166357,167163,1,0
Sprite,Foreground,Centre,"SB\dot.png",320,240 S,0,166357,,0.2 M,1,166357,167163,383,146,314,137 F,0,166357,167163,1,0
Sprite,Foreground,Centre,"SB\dot.png",320,240 S,0,166357,,0.2 M,1,166357,167163,383,146,327,211 F,0,166357,167163,1,0
Sprite,Foreground,Centre,"SB\dot.png",320,240 S,0,166357,,0.2 M,1,166357,167163,383,146,374,189 F,0,166357,167163,1,0
Sprite,Foreground,Centre,"SB\dot.png",320,240 S,0,166357,,0.2 M,1,166357,167163,383,146,426,103 F,0,166357,167163,1,0
Sprite,Foreground,Centre,"SB\dot.png",320,240 S,0,166357,,0.2 M,1,166357,167163,383,146,452,81 F,0,166357,167163,1,0
Sprite,Foreground,Centre,"SB\dot.png",320,240 S,0,166357,,0.2 M,1,166357,167163,383,146,439,155 F,0,166357,167163,1,0
Sprite,Foreground,Centre,"SB\dot.png",320,240 S,0,166591,,0.5 C,0,166591,,104,104,255 M,1,166591,167397,269,90,298,154 F,0,166591,167397,1,0
Sprite,Foreground,Centre,"SB\dot.png",320,240 S,0,166591,,0.5 C,0,166591,,104,104,255 M,1,166591,167397,269,90,338,100 F,0,166591,167397,1,0
Sprite,Foreground,Centre,"SB\dot.png",320,240 S,0,166591,,0.5 C,0,166591,,104,104,255 M,1,166591,167397,269,90,315,37 F,0,166591,167397,1,0
Sprite,Foreground,Centre,"SB\dot.png",320,240 S,0,166591,,0.5 C,0,166591,,104,104,255 M,1,166591,167397,269,90,249,23 F,0,166591,167397,1,0
Sprite,Foreground,Centre,"SB\dot.png",320,240 S,0,166591,,0.5 C,0,166591,,104,104,255 M,1,166591,167397,269,90,202,71 F,0,166591,167397,1,0
Sprite,Foreground,Centre,"SB\dot.png",320,240 S,0,166591,,0.5 C,0,166591,,104,104,255 M,1,166591,167397,269,90,216,136 F,0,166591,167397,1,0
Sprite,Foreground,Centre,"SB\dot.png",320,240 S,0,166591,,0.2 M,1,166591,167397,269,90,314,144 F,0,166591,167397,1,0
Sprite,Foreground,Centre,"SB\dot.png",320,240 S,0,166591,,0.2 M,1,166591,167397,269,90,339,61 F,0,166591,167397,1,0
Sprite,Foreground,Centre,"SB\dot.png",320,240 S,0,166591,,0.2 M,1,166591,167397,269,90,323,21 F,0,166591,167397,1,0
Sprite,Foreground,Centre,"SB\dot.png",320,240 S,0,166591,,0.2 M,1,166591,167397,269,90,275,84 F,0,166591,167397,1,0
Sprite,Foreground,Centre,"SB\dot.png",320,240 S,0,166591,,0.2 M,1,166591,167397,269,90,224,156 F,0,166591,167397,1,0
Sprite,Foreground,Centre,"SB\dot.png",320,240 S,0,166591,,0.2 M,1,166591,167397,269,90,199,130 F,0,166591,167397,1,0
Sprite,Foreground,Centre,"SB\dot.png",320,240 S,0,166826,,0.5 C,0,166826,,110,110,255 M,1,166826,167632,117,223,136,156 F,0,166826,167632,1,0
Sprite,Foreground,Centre,"SB\dot.png",320,240 S,0,166826,,0.5 C,0,166826,,110,110,255 M,1,166826,167632,117,223,71,171 F,0,166826,167632,1,0
Sprite,Foreground,Centre,"SB\dot.png",320,240 S,0,166826,,0.5 C,0,166826,,110,110,255 M,1,166826,167632,117,223,48,234 F,0,166826,167632,1,0
Sprite,Foreground,Centre,"SB\dot.png",320,240 S,0,166826,,0.5 C,0,166826,,110,110,255 M,1,166826,167632,117,223,89,287 F,0,166826,167632,1,0
Sprite,Foreground,Centre,"SB\dot.png",320,240 S,0,166826,,0.5 C,0,166826,,110,110,255 M,1,166826,167632,117,223,156,281 F,0,166826,167632,1,0
Sprite,Foreground,Centre,"SB\dot.png",320,240 S,0,166826,,0.5 C,0,166826,,110,110,255 M,1,166826,167632,117,223,187,222 F,0,166826,167632,1,0
Sprite,Foreground,Centre,"SB\dot.png",320,240 S,0,166826,,0.2 M,1,166826,167632,117,223,118,153 F,0,166826,167632,1,0
Sprite,Foreground,Centre,"SB\dot.png",320,240 S,0,166826,,0.2 M,1,166826,167632,117,223,68,204 F,0,166826,167632,1,0
Sprite,Foreground,Centre,"SB\dot.png",320,240 S,0,166826,,0.2 M,1,166826,167632,117,223,47,283 F,0,166826,167632,1,0
Sprite,Foreground,Centre,"SB\dot.png",320,240 S,0,166826,,0.2 M,1,166826,167632,117,223,67,273 F,0,166826,167632,1,0
Sprite,Foreground,Centre,"SB\dot.png",320,240 S,0,166826,,0.2 M,1,166826,167632,117,223,116,189 F,0,166826,167632,1,0
Sprite,Foreground,Centre,"SB\dot.png",320,240 S,0,166826,,0.2 M,1,166826,167632,117,223,166,155 F,0,166826,167632,1,0
Sprite,Foreground,Centre,"SB\dot.png",320,240 S,0,166982,,0.5 C,0,166982,,124,124,255 M,1,166982,167788,173,67,109,39 F,0,166982,167788,1,0
Sprite,Foreground,Centre,"SB\dot.png",320,240 S,0,166982,,0.5 C,0,166982,,124,124,255 M,1,166982,167788,173,67,115,106 F,0,166982,167788,1,0
Sprite,Foreground,Centre,"SB\dot.png",320,240 S,0,166982,,0.5 C,0,166982,,124,124,255 M,1,166982,167788,173,67,174,137 F,0,166982,167788,1,0
Sprite,Foreground,Centre,"SB\dot.png",320,240 S,0,166982,,0.5 C,0,166982,,124,124,255 M,1,166982,167788,173,67,233,104 F,0,166982,167788,1,0
Sprite,Foreground,Centre,"SB\dot.png",320,240 S,0,166982,,0.5 C,0,166982,,124,124,255 M,1,166982,167788,173,67,236,37 F,0,166982,167788,1,0
Sprite,Foreground,Centre,"SB\dot.png",320,240 S,0,166982,,0.5 C,0,166982,,124,124,255 M,1,166982,167788,173,67,182,-2 F,0,166982,167788,1,0
Sprite,Foreground,Centre,"SB\dot.png",320,240 S,0,166982,,0.2 M,1,166982,167788,173,67,104,57 F,0,166982,167788,1,0
Sprite,Foreground,Centre,"SB\dot.png",320,240 S,0,166982,,0.2 M,1,166982,167788,173,67,117,131 F,0,166982,167788,1,0
Sprite,Foreground,Centre,"SB\dot.png",320,240 S,0,166982,,0.2 M,1,166982,167788,173,67,163,111 F,0,166982,167788,1,0
Sprite,Foreground,Centre,"SB\dot.png",320,240 S,0,166982,,0.2 M,1,166982,167788,173,67,215,25 F,0,166982,167788,1,0
Sprite,Foreground,Centre,"SB\dot.png",320,240 S,0,166982,,0.2 M,1,166982,167788,173,67,242,2 F,0,166982,167788,1,0
Sprite,Foreground,Centre,"SB\dot.png",320,240 S,0,166982,,0.2 M,1,166982,167788,173,67,229,75 F,0,166982,167788,1,0
Sprite,Foreground,Centre,"SB\dot.png",320,240 S,0,167138,,0.5 C,0,167138,,154,154,255 M,1,167138,167944,313,271,245,253 F,0,167138,167944,1,0
Sprite,Foreground,Centre,"SB\dot.png",320,240 S,0,167138,,0.5 C,0,167138,,154,154,255 M,1,167138,167944,313,271,261,318 F,0,167138,167944,1,0
Sprite,Foreground,Centre,"SB\dot.png",320,240 S,0,167138,,0.5 C,0,167138,,154,154,255 M,1,167138,167944,313,271,325,340 F,0,167138,167944,1,0
Sprite,Foreground,Centre,"SB\dot.png",320,240 S,0,167138,,0.5 C,0,167138,,154,154,255 M,1,167138,167944,313,271,377,298 F,0,167138,167944,1,0
Sprite,Foreground,Centre,"SB\dot.png",320,240 S,0,167138,,0.5 C,0,167138,,154,154,255 M,1,167138,167944,313,271,371,232 F,0,167138,167944,1,0
Sprite,Foreground,Centre,"SB\dot.png",320,240 S,0,167138,,0.5 C,0,167138,,154,154,255 M,1,167138,167944,313,271,311,201 F,0,167138,167944,1,0
Sprite,Foreground,Centre,"SB\dot.png",320,240 S,0,167138,,0.2 M,1,167138,167944,313,271,243,271 F,0,167138,167944,1,0
Sprite,Foreground,Centre,"SB\dot.png",320,240 S,0,167138,,0.2 M,1,167138,167944,313,271,264,339 F,0,167138,167944,1,0
Sprite,Foreground,Centre,"SB\dot.png",320,240 S,0,167138,,0.2 M,1,167138,167944,313,271,313,306 F,0,167138,167944,1,0
Sprite,Foreground,Centre,"SB\dot.png",320,240 S,0,167138,,0.2 M,1,167138,167944,313,271,363,221 F,0,167138,167944,1,0
Sprite,Foreground,Centre,"SB\dot.png",320,240 S,0,167138,,0.2 M,1,167138,167944,313,271,383,210 F,0,167138,167944,1,0
Sprite,Foreground,Centre,"SB\dot.png",320,240 S,0,167138,,0.2 M,1,167138,167944,313,271,362,289 F,0,167138,167944,1,0
Sprite,Foreground,Centre,"SB\dot.png",320,240 S,0,167295,,0.5 C,0,167295,,132,132,255 M,1,167295,168101,220,210,259,268 F,0,167295,168101,1,0
Sprite,Foreground,Centre,"SB\dot.png",320,240 S,0,167295,,0.5 C,0,167295,,132,132,255 M,1,167295,168101,220,210,290,209 F,0,167295,168101,1,0
Sprite,Foreground,Centre,"SB\dot.png",320,240 S,0,167295,,0.5 C,0,167295,,132,132,255 M,1,167295,168101,220,210,257,151 F,0,167295,168101,1,0
Sprite,Foreground,Centre,"SB\dot.png",320,240 S,0,167295,,0.5 C,0,167295,,132,132,255 M,1,167295,168101,220,210,190,147 F,0,167295,168101,1,0
Sprite,Foreground,Centre,"SB\dot.png",320,240 S,0,167295,,0.5 C,0,167295,,132,132,255 M,1,167295,168101,220,210,151,201 F,0,167295,168101,1,0
Sprite,Foreground,Centre,"SB\dot.png",320,240 S,0,167295,,0.5 C,0,167295,,132,132,255 M,1,167295,168101,220,210,175,264 F,0,167295,168101,1,0
Sprite,Foreground,Centre,"SB\dot.png",320,240 S,0,167295,,0.2 M,1,167295,168101,220,210,272,256 F,0,167295,168101,1,0
Sprite,Foreground,Centre,"SB\dot.png",320,240 S,0,167295,,0.2 M,1,167295,168101,220,210,290,171 F,0,167295,168101,1,0
Sprite,Foreground,Centre,"SB\dot.png",320,240 S,0,167295,,0.2 M,1,167295,168101,220,210,266,144 F,0,167295,168101,1,0
Sprite,Foreground,Centre,"SB\dot.png",320,240 S,0,167295,,0.2 M,1,167295,168101,220,210,216,214 F,0,167295,168101,1,0
Sprite,Foreground,Centre,"SB\dot.png",320,240 S,0,167295,,0.2 M,1,167295,168101,220,210,168,279 F,0,167295,168101,1,0
Sprite,Foreground,Centre,"SB\dot.png",320,240 S,0,167295,,0.2 M,1,167295,168101,220,210,150,241 F,0,167295,168101,1,0
Sprite,Foreground,Centre,"SB\dot.png",320,240 S,0,167451,,0.5 C,0,167451,,127,127,255 M,1,167451,168257,321,159,373,112 F,0,167451,168257,1,0
Sprite,Foreground,Centre,"SB\dot.png",320,240 S,0,167451,,0.5 C,0,167451,,127,127,255 M,1,167451,168257,321,159,310,90 F,0,167451,168257,1,0
Sprite,Foreground,Centre,"SB\dot.png",320,240 S,0,167451,,0.5 C,0,167451,,127,127,255 M,1,167451,168257,321,159,257,131 F,0,167451,168257,1,0
Sprite,Foreground,Centre,"SB\dot.png",320,240 S,0,167451,,0.5 C,0,167451,,127,127,255 M,1,167451,168257,321,159,263,198 F,0,167451,168257,1,0
Sprite,Foreground,Centre,"SB\dot.png",320,240 S,0,167451,,0.5 C,0,167451,,127,127,255 M,1,167451,168257,321,159,322,229 F,0,167451,168257,1,0
Sprite,Foreground,Centre,"SB\dot.png",320,240 S,0,167451,,0.5 C,0,167451,,127,127,255 M,1,167451,168257,321,159,381,196 F,0,167451,168257,1,0
Sprite,Foreground,Centre,"SB\dot.png",320,240 S,0,167451,,0.2 M,1,167451,168257,321,159,359,100 F,0,167451,168257,1,0
Sprite,Foreground,Centre,"SB\dot.png",320,240 S,0,167451,,0.2 M,1,167451,168257,321,159,307,107 F,0,167451,168257,1,0
Sprite,Foreground,Centre,"SB\dot.png",320,240 S,0,167451,,0.2 M,1,167451,168257,321,159,262,191 F,0,167451,168257,1,0
Sprite,Foreground,Centre,"SB\dot.png",320,240 S,0,167451,,0.2 M,1,167451,168257,321,159,252,228 F,0,167451,168257,1,0
Sprite,Foreground,Centre,"SB\dot.png",320,240 S,0,167451,,0.2 M,1,167451,168257,321,159,283,163 F,0,167451,168257,1,0
Sprite,Foreground,Centre,"SB\dot.png",320,240 S,0,167451,,0.2 M,1,167451,168257,321,159,335,92 F,0,167451,168257,1,0
Sprite,Foreground,Centre,"SB\dot.png",320,240 S,0,167607,,0.5 C,0,167607,,133,133,255 M,1,167607,168413,401,311,452,263 F,0,167607,168413,1,0
Sprite,Foreground,Centre,"SB\dot.png",320,240 S,0,167607,,0.5 C,0,167607,,133,133,255 M,1,167607,168413,401,311,389,242 F,0,167607,168413,1,0
Sprite,Foreground,Centre,"SB\dot.png",320,240 S,0,167607,,0.5 C,0,167607,,133,133,255 M,1,167607,168413,401,311,336,284 F,0,167607,168413,1,0
Sprite,Foreground,Centre,"SB\dot.png",320,240 S,0,167607,,0.5 C,0,167607,,133,133,255 M,1,167607,168413,401,311,343,351 F,0,167607,168413,1,0
Sprite,Foreground,Centre,"SB\dot.png",320,240 S,0,167607,,0.5 C,0,167607,,133,133,255 M,1,167607,168413,401,311,403,381 F,0,167607,168413,1,0
Sprite,Foreground,Centre,"SB\dot.png",320,240 S,0,167607,,0.5 C,0,167607,,133,133,255 M,1,167607,168413,401,311,461,347 F,0,167607,168413,1,0
Sprite,Foreground,Centre,"SB\dot.png",320,240 S,0,167607,,0.2 M,1,167607,168413,401,311,438,252 F,0,167607,168413,1,0
Sprite,Foreground,Centre,"SB\dot.png",320,240 S,0,167607,,0.2 M,1,167607,168413,401,311,385,260 F,0,167607,168413,1,0
Sprite,Foreground,Centre,"SB\dot.png",320,240 S,0,167607,,0.2 M,1,167607,168413,401,311,342,344 F,0,167607,168413,1,0
Sprite,Foreground,Centre,"SB\dot.png",320,240 S,0,167607,,0.2 M,1,167607,168413,401,311,333,379 F,0,167607,168413,1,0
Sprite,Foreground,Centre,"SB\dot.png",320,240 S,0,167607,,0.2 M,1,167607,168413,401,311,364,314 F,0,167607,168413,1,0
Sprite,Foreground,Centre,"SB\dot.png",320,240 S,0,167607,,0.2 M,1,167607,168413,401,311,417,244 F,0,167607,168413,1,0
Sprite,Foreground,Centre,"SB\dot.png",320,240 S,0,167763,,0.5 C,0,167763,,125,125,255 M,1,167763,168569,221,359,233,428 F,0,167763,168569,1,0
Sprite,Foreground,Centre,"SB\dot.png",320,240 S,0,167763,,0.5 C,0,167763,,125,125,255 M,1,167763,168569,221,359,285,386 F,0,167763,168569,1,0
Sprite,Foreground,Centre,"SB\dot.png",320,240 S,0,167763,,0.5 C,0,167763,,125,125,255 M,1,167763,168569,221,359,279,320 F,0,167763,168569,1,0
Sprite,Foreground,Centre,"SB\dot.png",320,240 S,0,167763,,0.5 C,0,167763,,125,125,255 M,1,167763,168569,221,359,219,289 F,0,167763,168569,1,0
Sprite,Foreground,Centre,"SB\dot.png",320,240 S,0,167763,,0.5 C,0,167763,,125,125,255 M,1,167763,168569,221,359,161,323 F,0,167763,168569,1,0
Sprite,Foreground,Centre,"SB\dot.png",320,240 S,0,167763,,0.5 C,0,167763,,125,125,255 M,1,167763,168569,221,359,158,390 F,0,167763,168569,1,0
Sprite,Foreground,Centre,"SB\dot.png",320,240 S,0,167763,,0.2 M,1,167763,168569,221,359,250,423 F,0,167763,168569,1,0
Sprite,Foreground,Centre,"SB\dot.png",320,240 S,0,167763,,0.2 M,1,167763,168569,221,359,287,347 F,0,167763,168569,1,0
Sprite,Foreground,Centre,"SB\dot.png",320,240 S,0,167763,,0.2 M,1,167763,168569,221,359,285,289 F,0,167763,168569,1,0
Sprite,Foreground,Centre,"SB\dot.png",320,240 S,0,167763,,0.2 M,1,167763,168569,221,359,245,335 F,0,167763,168569,1,0
Sprite,Foreground,Centre,"SB\dot.png",320,240 S,0,167763,,0.2 M,1,167763,168569,221,359,192,416 F,0,167763,168569,1,0
Sprite,Foreground,Centre,"SB\dot.png",320,240 S,0,167763,,0.2 M,1,167763,168569,221,359,155,413 F,0,167763,168569,1,0
Sprite,Foreground,Centre,"SB\dot.png",320,240 S,0,167841,,0.5 C,0,167841,,87,87,255 M,1,167841,168647,221,359,231,290 F,0,167841,168647,1,0
Sprite,Foreground,Centre,"SB\dot.png",320,240 S,0,167841,,0.5 C,0,167841,,87,87,255 M,1,167841,168647,221,359,168,313 F,0,167841,168647,1,0
Sprite,Foreground,Centre,"SB\dot.png",320,240 S,0,167841,,0.5 C,0,167841,,87,87,255 M,1,167841,168647,221,359,154,379 F,0,167841,168647,1,0
Sprite,Foreground,Centre,"SB\dot.png",320,240 S,0,167841,,0.5 C,0,167841,,87,87,255 M,1,167841,168647,221,359,201,426 F,0,167841,168647,1,0
Sprite,Foreground,Centre,"SB\dot.png",320,240 S,0,167841,,0.5 C,0,167841,,87,87,255 M,1,167841,168647,221,359,267,412 F,0,167841,168647,1,0
Sprite,Foreground,Centre,"SB\dot.png",320,240 S,0,167841,,0.5 C,0,167841,,87,87,255 M,1,167841,168647,221,359,290,349 F,0,167841,168647,1,0
Sprite,Foreground,Centre,"SB\dot.png",320,240 S,0,167841,,0.2 M,1,167841,168647,221,359,213,290 F,0,167841,168647,1,0
Sprite,Foreground,Centre,"SB\dot.png",320,240 S,0,167841,,0.2 M,1,167841,168647,221,359,166,349 F,0,167841,168647,1,0
Sprite,Foreground,Centre,"SB\dot.png",320,240 S,0,167841,,0.2 M,1,167841,168647,221,359,152,423 F,0,167841,168647,1,0
Sprite,Foreground,Centre,"SB\dot.png",320,240 S,0,167841,,0.2 M,1,167841,168647,221,359,178,402 F,0,167841,168647,1,0
Sprite,Foreground,Centre,"SB\dot.png",320,240 S,0,167841,,0.2 M,1,167841,168647,221,359,229,317 F,0,167841,168647,1,0
Sprite,Foreground,Centre,"SB\dot.png",320,240 S,0,167841,,0.2 M,1,167841,168647,221,359,276,294 F,0,167841,168647,1,0
Sprite,Foreground,Centre,"SB\dot.png",320,240 S,0,167920,,0.5 C,0,167920,,174,174,255 M,1,167920,168726,221,359,222,429 F,0,167920,168726,1,0
Sprite,Foreground,Centre,"SB\dot.png",320,240 S,0,167920,,0.5 C,0,167920,,174,174,255 M,1,167920,168726,221,359,281,396 F,0,167920,168726,1,0
Sprite,Foreground,Centre,"SB\dot.png",320,240 S,0,167920,,0.5 C,0,167920,,174,174,255 M,1,167920,168726,221,359,284,329 F,0,167920,168726,1,0
Sprite,Foreground,Centre,"SB\dot.png",320,240 S,0,167920,,0.5 C,0,167920,,174,174,255 M,1,167920,168726,221,359,230,290 F,0,167920,168726,1,0
Sprite,Foreground,Centre,"SB\dot.png",320,240 S,0,167920,,0.5 C,0,167920,,174,174,255 M,1,167920,168726,221,359,167,314 F,0,167920,168726,1,0
Sprite,Foreground,Centre,"SB\dot.png",320,240 S,0,167920,,0.5 C,0,167920,,174,174,255 M,1,167920,168726,221,359,154,380 F,0,167920,168726,1,0
Sprite,Foreground,Centre,"SB\dot.png",320,240 S,0,167920,,0.2 M,1,167920,168726,221,359,240,426 F,0,167920,168726,1,0
Sprite,Foreground,Centre,"SB\dot.png",320,240 S,0,167920,,0.2 M,1,167920,168726,221,359,282,358 F,0,167920,168726,1,0
Sprite,Foreground,Centre,"SB\dot.png",320,240 S,0,167920,,0.2 M,1,167920,168726,221,359,288,291 F,0,167920,168726,1,0
Sprite,Foreground,Centre,"SB\dot.png",320,240 S,0,167920,,0.2 M,1,167920,168726,221,359,255,325 F,0,167920,168726,1,0
Sprite,Foreground,Centre,"SB\dot.png",320,240 S,0,167920,,0.2 M,1,167920,168726,221,359,202,409 F,0,167920,168726,1,0
Sprite,Foreground,Centre,"SB\dot.png",320,240 S,0,167920,,0.2 M,1,167920,168726,221,359,160,419 F,0,167920,168726,1,0
Sprite,Foreground,Centre,"SB\dot.png",320,240 S,0,168232,,0.5 C,0,168232,,143,143,255 M,1,168232,169038,401,223,455,267 F,0,168232,169038,1,0
Sprite,Foreground,Centre,"SB\dot.png",320,240 S,0,168232,,0.5 C,0,168232,,143,143,255 M,1,168232,169038,401,223,468,201 F,0,168232,169038,1,0
Sprite,Foreground,Centre,"SB\dot.png",320,240 S,0,168232,,0.5 C,0,168232,,143,143,255 M,1,168232,169038,401,223,419,155 F,0,168232,169038,1,0
Sprite,Foreground,Centre,"SB\dot.png",320,240 S,0,168232,,0.5 C,0,168232,,143,143,255 M,1,168232,169038,401,223,354,171 F,0,168232,169038,1,0
Sprite,Foreground,Centre,"SB\dot.png",320,240 S,0,168232,,0.5 C,0,168232,,143,143,255 M,1,168232,169038,401,223,332,235 F,0,168232,169038,1,0
Sprite,Foreground,Centre,"SB\dot.png",320,240 S,0,168232,,0.5 C,0,168232,,143,143,255 M,1,168232,169038,401,223,374,288 F,0,168232,169038,1,0
Sprite,Foreground,Centre,"SB\dot.png",320,240 S,0,168232,,0.2 M,1,168232,169038,401,223,465,252 F,0,168232,169038,1,0
Sprite,Foreground,Centre,"SB\dot.png",320,240 S,0,168232,,0.2 M,1,168232,169038,401,223,466,169 F,0,168232,169038,1,0
Sprite,Foreground,Centre,"SB\dot.png",320,240 S,0,168232,,0.2 M,1,168232,169038,401,223,430,166 F,0,168232,169038,1,0
Sprite,Foreground,Centre,"SB\dot.png",320,240 S,0,168232,,0.2 M,1,168232,169038,401,223,376,248 F,0,168232,169038,1,0
Sprite,Foreground,Centre,"SB\dot.png",320,240 S,0,168232,,0.2 M,1,168232,169038,401,223,337,293 F,0,168232,169038,1,0
Sprite,Foreground,Centre,"SB\dot.png",320,240 S,0,168232,,0.2 M,1,168232,169038,401,223,336,234 F,0,168232,169038,1,0
Sprite,Foreground,Centre,"SB\dot.png",320,240 S,0,168545,,0.5 C,0,168545,,115,115,255 M,1,168545,169351,137,247,70,268 F,0,168545,169351,1,0
Sprite,Foreground,Centre,"SB\dot.png",320,240 S,0,168545,,0.5 C,0,168545,,115,115,255 M,1,168545,169351,137,247,119,315 F,0,168545,169351,1,0
Sprite,Foreground,Centre,"SB\dot.png",320,240 S,0,168545,,0.5 C,0,168545,,115,115,255 M,1,168545,169351,137,247,184,299 F,0,168545,169351,1,0
Sprite,Foreground,Centre,"SB\dot.png",320,240 S,0,168545,,0.5 C,0,168545,,115,115,255 M,1,168545,169351,137,247,206,236 F,0,168545,169351,1,0
Sprite,Foreground,Centre,"SB\dot.png",320,240 S,0,168545,,0.5 C,0,168545,,115,115,255 M,1,168545,169351,137,247,165,183 F,0,168545,169351,1,0
Sprite,Foreground,Centre,"SB\dot.png",320,240 S,0,168545,,0.5 C,0,168545,,115,115,255 M,1,168545,169351,137,247,98,189 F,0,168545,169351,1,0
Sprite,Foreground,Centre,"SB\dot.png",320,240 S,0,168545,,0.2 M,1,168545,169351,137,247,78,285 F,0,168545,169351,1,0
Sprite,Foreground,Centre,"SB\dot.png",320,240 S,0,168545,,0.2 M,1,168545,169351,137,247,122,314 F,0,168545,169351,1,0
Sprite,Foreground,Centre,"SB\dot.png",320,240 S,0,168545,,0.2 M,1,168545,169351,137,247,175,244 F,0,168545,169351,1,0
Sprite,Foreground,Centre,"SB\dot.png",320,240 S,0,168545,,0.2 M,1,168545,169351,137,247,205,179 F,0,168545,169351,1,0
Sprite,Foreground,Centre,"SB\dot.png",320,240 S,0,168545,,0.2 M,1,168545,169351,137,247,196,215 F,0,168545,169351,1,0
Sprite,Foreground,Centre,"SB\dot.png",320,240 S,0,168545,,0.2 M,1,168545,169351,137,247,152,299 F,0,168545,169351,1,0
Sprite,Foreground,Centre,"SB\dot.png",320,240 S,0,168701,,0.5 C,0,168701,,123,123,255 M,1,168701,169507,313,267,358,213 F,0,168701,169507,1,0
Sprite,Foreground,Centre,"SB\dot.png",320,240 S,0,168701,,0.5 C,0,168701,,123,123,255 M,1,168701,169507,313,267,292,200 F,0,168701,169507,1,0
Sprite,Foreground,Centre,"SB\dot.png",320,240 S,0,168701,,0.5 C,0,168701,,123,123,255 M,1,168701,169507,313,267,245,249 F,0,168701,169507,1,0
Sprite,Foreground,Centre,"SB\dot.png",320,240 S,0,168701,,0.5 C,0,168701,,123,123,255 M,1,168701,169507,313,267,261,314 F,0,168701,169507,1,0
Sprite,Foreground,Centre,"SB\dot.png",320,240 S,0,168701,,0.5 C,0,168701,,123,123,255 M,1,168701,169507,313,267,325,336 F,0,168701,169507,1,0
Sprite,Foreground,Centre,"SB\dot.png",320,240 S,0,168701,,0.5 C,0,168701,,123,123,255 M,1,168701,169507,313,267,377,294 F,0,168701,169507,1,0
Sprite,Foreground,Centre,"SB\dot.png",320,240 S,0,168701,,0.2 M,1,168701,169507,313,267,342,203 F,0,168701,169507,1,0
Sprite,Foreground,Centre,"SB\dot.png",320,240 S,0,168701,,0.2 M,1,168701,169507,313,267,289,222 F,0,168701,169507,1,0
Sprite,Foreground,Centre,"SB\dot.png",320,240 S,0,168701,,0.2 M,1,168701,169507,313,267,249,308 F,0,168701,169507,1,0
Sprite,Foreground,Centre,"SB\dot.png",320,240 S,0,168701,,0.2 M,1,168701,169507,313,267,247,333 F,0,168701,169507,1,0
Sprite,Foreground,Centre,"SB\dot.png",320,240 S,0,168701,,0.2 M,1,168701,169507,313,267,284,260 F,0,168701,169507,1,0
Sprite,Foreground,Centre,"SB\dot.png",320,240 S,0,168701,,0.2 M,1,168701,169507,313,267,337,198 F,0,168701,169507,1,0
Sprite,Foreground,Centre,"SB\dot.png",320,240 S,0,168857,,0.5 C,0,168857,,115,115,255 M,1,168857,169663,105,327,93,258 F,0,168857,169663,1,0
Sprite,Foreground,Centre,"SB\dot.png",320,240 S,0,168857,,0.5 C,0,168857,,115,115,255 M,1,168857,169663,105,327,40,300 F,0,168857,169663,1,0
Sprite,Foreground,Centre,"SB\dot.png",320,240 S,0,168857,,0.5 C,0,168857,,115,115,255 M,1,168857,169663,105,327,47,367 F,0,168857,169663,1,0
Sprite,Foreground,Centre,"SB\dot.png",320,240 S,0,168857,,0.5 C,0,168857,,115,115,255 M,1,168857,169663,105,327,107,397 F,0,168857,169663,1,0
Sprite,Foreground,Centre,"SB\dot.png",320,240 S,0,168857,,0.5 C,0,168857,,115,115,255 M,1,168857,169663,105,327,165,363 F,0,168857,169663,1,0
Sprite,Foreground,Centre,"SB\dot.png",320,240 S,0,168857,,0.5 C,0,168857,,115,115,255 M,1,168857,169663,105,327,168,296 F,0,168857,169663,1,0
Sprite,Foreground,Centre,"SB\dot.png",320,240 S,0,168857,,0.2 M,1,168857,169663,105,327,75,264 F,0,168857,169663,1,0
Sprite,Foreground,Centre,"SB\dot.png",320,240 S,0,168857,,0.2 M,1,168857,169663,105,327,39,339 F,0,168857,169663,1,0
Sprite,Foreground,Centre,"SB\dot.png",320,240 S,0,168857,,0.2 M,1,168857,169663,105,327,42,397 F,0,168857,169663,1,0
Sprite,Foreground,Centre,"SB\dot.png",320,240 S,0,168857,,0.2 M,1,168857,169663,105,327,81,351 F,0,168857,169663,1,0
Sprite,Foreground,Centre,"SB\dot.png",320,240 S,0,168857,,0.2 M,1,168857,169663,105,327,135,270 F,0,168857,169663,1,0
Sprite,Foreground,Centre,"SB\dot.png",320,240 S,0,168857,,0.2 M,1,168857,169663,105,327,171,273 F,0,168857,169663,1,0
Sprite,Foreground,Centre,"SB\dot.png",320,240 S,0,169013,,0.5 C,0,169013,,174,174,255 M,1,169013,169819,329,167,327,97 F,0,169013,169819,1,0
Sprite,Foreground,Centre,"SB\dot.png",320,240 S,0,169013,,0.5 C,0,169013,,174,174,255 M,1,169013,169819,329,167,269,131 F,0,169013,169819,1,0
Sprite,Foreground,Centre,"SB\dot.png",320,240 S,0,169013,,0.5 C,0,169013,,174,174,255 M,1,169013,169819,329,167,266,198 F,0,169013,169819,1,0
Sprite,Foreground,Centre,"SB\dot.png",320,240 S,0,169013,,0.5 C,0,169013,,174,174,255 M,1,169013,169819,329,167,321,237 F,0,169013,169819,1,0
Sprite,Foreground,Centre,"SB\dot.png",320,240 S,0,169013,,0.5 C,0,169013,,174,174,255 M,1,169013,169819,329,167,383,211 F,0,169013,169819,1,0
Sprite,Foreground,Centre,"SB\dot.png",320,240 S,0,169013,,0.5 C,0,169013,,174,174,255 M,1,169013,169819,329,167,396,145 F,0,169013,169819,1,0
Sprite,Foreground,Centre,"SB\dot.png",320,240 S,0,169013,,0.2 M,1,169013,169819,329,167,309,100 F,0,169013,169819,1,0
Sprite,Foreground,Centre,"SB\dot.png",320,240 S,0,169013,,0.2 M,1,169013,169819,329,167,267,169 F,0,169013,169819,1,0
Sprite,Foreground,Centre,"SB\dot.png",320,240 S,0,169013,,0.2 M,1,169013,169819,329,167,262,235 F,0,169013,169819,1,0
Sprite,Foreground,Centre,"SB\dot.png",320,240 S,0,169013,,0.2 M,1,169013,169819,329,167,296,200 F,0,169013,169819,1,0
Sprite,Foreground,Centre,"SB\dot.png",320,240 S,0,169013,,0.2 M,1,169013,169819,329,167,349,116 F,0,169013,169819,1,0
Sprite,Foreground,Centre,"SB\dot.png",320,240 S,0,169013,,0.2 M,1,169013,169819,329,167,391,107 F,0,169013,169819,1,0
Sprite,Foreground,Centre,"SB\dot.png",320,240 S,0,169170,,0.5 C,0,169170,,132,132,255 M,1,169170,169976,69,175,136,194 F,0,169170,169976,1,0
Sprite,Foreground,Centre,"SB\dot.png",320,240 S,0,169170,,0.5 C,0,169170,,132,132,255 M,1,169170,169976,69,175,121,128 F,0,169170,169976,1,0
Sprite,Foreground,Centre,"SB\dot.png",320,240 S,0,169170,,0.5 C,0,169170,,132,132,255 M,1,169170,169976,69,175,58,106 F,0,169170,169976,1,0
Sprite,Foreground,Centre,"SB\dot.png",320,240 S,0,169170,,0.5 C,0,169170,,132,132,255 M,1,169170,169976,69,175,5,147 F,0,169170,169976,1,0
Sprite,Foreground,Centre,"SB\dot.png",320,240 S,0,169170,,0.5 C,0,169170,,132,132,255 M,1,169170,169976,69,175,11,214 F,0,169170,169976,1,0
Sprite,Foreground,Centre,"SB\dot.png",320,240 S,0,169170,,0.5 C,0,169170,,132,132,255 M,1,169170,169976,69,175,70,245 F,0,169170,169976,1,0
Sprite,Foreground,Centre,"SB\dot.png",320,240 S,0,169170,,0.2 M,1,169170,169976,69,175,139,176 F,0,169170,169976,1,0
Sprite,Foreground,Centre,"SB\dot.png",320,240 S,0,169170,,0.2 M,1,169170,169976,69,175,119,108 F,0,169170,169976,1,0
Sprite,Foreground,Centre,"SB\dot.png",320,240 S,0,169170,,0.2 M,1,169170,169976,69,175,70,140 F,0,169170,169976,1,0
Sprite,Foreground,Centre,"SB\dot.png",320,240 S,0,169170,,0.2 M,1,169170,169976,69,175,20,224 F,0,169170,169976,1,0
Sprite,Foreground,Centre,"SB\dot.png",320,240 S,0,169170,,0.2 M,1,169170,169976,69,175,-1,236 F,0,169170,169976,1,0
Sprite,Foreground,Centre,"SB\dot.png",320,240 S,0,169170,,0.2 M,1,169170,169976,69,175,19,157 F,0,169170,169976,1,0
Sprite,Foreground,Centre,"SB\dot.png",320,240 S,0,169326,,0.5 C,0,169326,,134,134,255 M,1,169326,170132,257,99,220,159 F,0,169326,170132,1,0
Sprite,Foreground,Centre,"SB\dot.png",320,240 S,0,169326,,0.5 C,0,169326,,134,134,255 M,1,169326,170132,257,99,288,162 F,0,169326,170132,1,0
Sprite,Foreground,Centre,"SB\dot.png",320,240 S,0,169326,,0.5 C,0,169326,,134,134,255 M,1,169326,170132,257,99,327,107 F,0,169326,170132,1,0
Sprite,Foreground,Centre,"SB\dot.png",320,240 S,0,169326,,0.5 C,0,169326,,134,134,255 M,1,169326,170132,257,99,302,45 F,0,169326,170132,1,0
Sprite,Foreground,Centre,"SB\dot.png",320,240 S,0,169326,,0.5 C,0,169326,,134,134,255 M,1,169326,170132,257,99,236,32 F,0,169326,170132,1,0
Sprite,Foreground,Centre,"SB\dot.png",320,240 S,0,169326,,0.5 C,0,169326,,134,134,255 M,1,169326,170132,257,99,189,81 F,0,169326,170132,1,0
Sprite,Foreground,Centre,"SB\dot.png",320,240 S,0,169326,,0.2 M,1,169326,170132,257,99,237,166 F,0,169326,170132,1,0
Sprite,Foreground,Centre,"SB\dot.png",320,240 S,0,169326,,0.2 M,1,169326,170132,257,99,290,136 F,0,169326,170132,1,0
Sprite,Foreground,Centre,"SB\dot.png",320,240 S,0,169326,,0.2 M,1,169326,170132,257,99,324,51 F,0,169326,170132,1,0
Sprite,Foreground,Centre,"SB\dot.png",320,240 S,0,169326,,0.2 M,1,169326,170132,257,99,318,38 F,0,169326,170132,1,0
Sprite,Foreground,Centre,"SB\dot.png",320,240 S,0,169326,,0.2 M,1,169326,170132,257,99,277,115 F,0,169326,170132,1,0
Sprite,Foreground,Centre,"SB\dot.png",320,240 S,0,169326,,0.2 M,1,169326,170132,257,99,224,169 F,0,169326,170132,1,0
Sprite,Foreground,Centre,"SB\dot.png",320,240 S,0,169482,,0.5 C,0,169482,,140,140,255 M,1,169482,170288,169,199,131,258 F,0,169482,170288,1,0
Sprite,Foreground,Centre,"SB\dot.png",320,240 S,0,169482,,0.5 C,0,169482,,140,140,255 M,1,169482,170288,169,199,198,263 F,0,169482,170288,1,0
Sprite,Foreground,Centre,"SB\dot.png",320,240 S,0,169482,,0.5 C,0,169482,,140,140,255 M,1,169482,170288,169,199,238,209 F,0,169482,170288,1,0
Sprite,Foreground,Centre,"SB\dot.png",320,240 S,0,169482,,0.5 C,0,169482,,140,140,255 M,1,169482,170288,169,199,215,146 F,0,169482,170288,1,0
Sprite,Foreground,Centre,"SB\dot.png",320,240 S,0,169482,,0.5 C,0,169482,,140,140,255 M,1,169482,170288,169,199,149,132 F,0,169482,170288,1,0
Sprite,Foreground,Centre,"SB\dot.png",320,240 S,0,169482,,0.5 C,0,169482,,140,140,255 M,1,169482,170288,169,199,102,180 F,0,169482,170288,1,0
Sprite,Foreground,Centre,"SB\dot.png",320,240 S,0,169482,,0.2 M,1,169482,170288,169,199,148,266 F,0,169482,170288,1,0
Sprite,Foreground,Centre,"SB\dot.png",320,240 S,0,169482,,0.2 M,1,169482,170288,169,199,201,237 F,0,169482,170288,1,0
Sprite,Foreground,Centre,"SB\dot.png",320,240 S,0,169482,,0.2 M,1,169482,170288,169,199,236,152 F,0,169482,170288,1,0
Sprite,Foreground,Centre,"SB\dot.png",320,240 S,0,169482,,0.2 M,1,169482,170288,169,199,231,137 F,0,169482,170288,1,0
Sprite,Foreground,Centre,"SB\dot.png",320,240 S,0,169482,,0.2 M,1,169482,170288,169,199,190,214 F,0,169482,170288,1,0
Sprite,Foreground,Centre,"SB\dot.png",320,240 S,0,169482,,0.2 M,1,169482,170288,169,199,137,269 F,0,169482,170288,1,0
Sprite,Foreground,Centre,"SB\dot.png",320,240 S,0,169560,,0.5 C,0,169560,,121,121,255 M,1,169560,170366,169,199,103,221 F,0,169560,170366,1,0
Sprite,Foreground,Centre,"SB\dot.png",320,240 S,0,169560,,0.5 C,0,169560,,121,121,255 M,1,169560,170366,169,199,152,267 F,0,169560,170366,1,0
Sprite,Foreground,Centre,"SB\dot.png",320,240 S,0,169560,,0.5 C,0,169560,,121,121,255 M,1,169560,170366,169,199,217,250 F,0,169560,170366,1,0
Sprite,Foreground,Centre,"SB\dot.png",320,240 S,0,169560,,0.5 C,0,169560,,121,121,255 M,1,169560,170366,169,199,238,186 F,0,169560,170366,1,0
Sprite,Foreground,Centre,"SB\dot.png",320,240 S,0,169560,,0.5 C,0,169560,,121,121,255 M,1,169560,170366,169,199,196,134 F,0,169560,170366,1,0
Sprite,Foreground,Centre,"SB\dot.png",320,240 S,0,169560,,0.5 C,0,169560,,121,121,255 M,1,169560,170366,169,199,129,142 F,0,169560,170366,1,0
Sprite,Foreground,Centre,"SB\dot.png",320,240 S,0,169560,,0.2 M,1,169560,170366,169,199,111,238 F,0,169560,170366,1,0
Sprite,Foreground,Centre,"SB\dot.png",320,240 S,0,169560,,0.2 M,1,169560,170366,169,199,155,265 F,0,169560,170366,1,0
Sprite,Foreground,Centre,"SB\dot.png",320,240 S,0,169560,,0.2 M,1,169560,170366,169,199,208,195 F,0,169560,170366,1,0
Sprite,Foreground,Centre,"SB\dot.png",320,240 S,0,169560,,0.2 M,1,169560,170366,169,199,238,130 F,0,169560,170366,1,0
Sprite,Foreground,Centre,"SB\dot.png",320,240 S,0,169560,,0.2 M,1,169560,170366,169,199,227,168 F,0,169560,170366,1,0
Sprite,Foreground,Centre,"SB\dot.png",320,240 S,0,169560,,0.2 M,1,169560,170366,169,199,183,251 F,0,169560,170366,1,0
Sprite,Foreground,Centre,"SB\dot.png",320,240 S,0,169638,,0.5 C,0,169638,,131,131,255 M,1,169638,170444,169,199,198,135 F,0,169638,170444,1,0
Sprite,Foreground,Centre,"SB\dot.png",320,240 S,0,169638,,0.5 C,0,169638,,131,131,255 M,1,169638,170444,169,199,131,140 F,0,169638,170444,1,0
Sprite,Foreground,Centre,"SB\dot.png",320,240 S,0,169638,,0.5 C,0,169638,,131,131,255 M,1,169638,170444,169,199,99,199 F,0,169638,170444,1,0
Sprite,Foreground,Centre,"SB\dot.png",320,240 S,0,169638,,0.5 C,0,169638,,131,131,255 M,1,169638,170444,169,199,131,258 F,0,169638,170444,1,0
Sprite,Foreground,Centre,"SB\dot.png",320,240 S,0,169638,,0.5 C,0,169638,,131,131,255 M,1,169638,170444,169,199,198,263 F,0,169638,170444,1,0
Sprite,Foreground,Centre,"SB\dot.png",320,240 S,0,169638,,0.5 C,0,169638,,131,131,255 M,1,169638,170444,169,199,238,209 F,0,169638,170444,1,0
Sprite,Foreground,Centre,"SB\dot.png",320,240 S,0,169638,,0.2 M,1,169638,170444,169,199,180,130 F,0,169638,170444,1,0
Sprite,Foreground,Centre,"SB\dot.png",320,240 S,0,169638,,0.2 M,1,169638,170444,169,199,128,170 F,0,169638,170444,1,0
Sprite,Foreground,Centre,"SB\dot.png",320,240 S,0,169638,,0.2 M,1,169638,170444,169,199,100,253 F,0,169638,170444,1,0
Sprite,Foreground,Centre,"SB\dot.png",320,240 S,0,169638,,0.2 M,1,169638,170444,169,199,112,256 F,0,169638,170444,1,0
Sprite,Foreground,Centre,"SB\dot.png",320,240 S,0,169638,,0.2 M,1,169638,170444,169,199,158,174 F,0,169638,170444,1,0
Sprite,Foreground,Centre,"SB\dot.png",320,240 S,0,169638,,0.2 M,1,169638,170444,169,199,210,129 F,0,169638,170444,1,0
Sprite,Foreground,Centre,"SB\dot.png",320,240 S,0,169951,,0.5 C,0,169951,,109,109,255 M,1,169951,170757,157,223,157,293 F,0,169951,170757,1,0
Sprite,Foreground,Centre,"SB\dot.png",320,240 S,0,169951,,0.5 C,0,169951,,109,109,255 M,1,169951,170757,157,223,216,261 F,0,169951,170757,1,0
Sprite,Foreground,Centre,"SB\dot.png",320,240 S,0,169951,,0.5 C,0,169951,,109,109,255 M,1,169951,170757,157,223,221,194 F,0,169951,170757,1,0
Sprite,Foreground,Centre,"SB\dot.png",320,240 S,0,169951,,0.5 C,0,169951,,109,109,255 M,1,169951,170757,157,223,167,154 F,0,169951,170757,1,0
Sprite,Foreground,Centre,"SB\dot.png",320,240 S,0,169951,,0.5 C,0,169951,,109,109,255 M,1,169951,170757,157,223,104,177 F,0,169951,170757,1,0
Sprite,Foreground,Centre,"SB\dot.png",320,240 S,0,169951,,0.5 C,0,169951,,109,109,255 M,1,169951,170757,157,223,90,243 F,0,169951,170757,1,0
Sprite,Foreground,Centre,"SB\dot.png",320,240 S,0,169951,,0.2 M,1,169951,170757,157,223,175,291 F,0,169951,170757,1,0
Sprite,Foreground,Centre,"SB\dot.png",320,240 S,0,169951,,0.2 M,1,169951,170757,157,223,218,223 F,0,169951,170757,1,0
Sprite,Foreground,Centre,"SB\dot.png",320,240 S,0,169951,,0.2 M,1,169951,170757,157,223,225,155 F,0,169951,170757,1,0
Sprite,Foreground,Centre,"SB\dot.png",320,240 S,0,169951,,0.2 M,1,169951,170757,157,223,192,188 F,0,169951,170757,1,0
Sprite,Foreground,Centre,"SB\dot.png",320,240 S,0,169951,,0.2 M,1,169951,170757,157,223,139,272 F,0,169951,170757,1,0
Sprite,Foreground,Centre,"SB\dot.png",320,240 S,0,169951,,0.2 M,1,169951,170757,157,223,96,284 F,0,169951,170757,1,0
Sprite,Foreground,Centre,"SB\dot.png",320,240 S,0,170029,,0.5 C,0,170029,,146,146,255 M,1,170029,170835,157,223,87,223 F,0,170029,170835,1,0
Sprite,Foreground,Centre,"SB\dot.png",320,240 S,0,170029,,0.5 C,0,170029,,146,146,255 M,1,170029,170835,157,223,119,282 F,0,170029,170835,1,0
Sprite,Foreground,Centre,"SB\dot.png",320,240 S,0,170029,,0.5 C,0,170029,,146,146,255 M,1,170029,170835,157,223,186,287 F,0,170029,170835,1,0
Sprite,Foreground,Centre,"SB\dot.png",320,240 S,0,170029,,0.5 C,0,170029,,146,146,255 M,1,170029,170835,157,223,226,233 F,0,170029,170835,1,0
Sprite,Foreground,Centre,"SB\dot.png",320,240 S,0,170029,,0.5 C,0,170029,,146,146,255 M,1,170029,170835,157,223,203,170 F,0,170029,170835,1,0
Sprite,Foreground,Centre,"SB\dot.png",320,240 S,0,170029,,0.5 C,0,170029,,146,146,255 M,1,170029,170835,157,223,137,156 F,0,170029,170835,1,0
Sprite,Foreground,Centre,"SB\dot.png",320,240 S,0,170029,,0.2 M,1,170029,170835,157,223,89,241 F,0,170029,170835,1,0
Sprite,Foreground,Centre,"SB\dot.png",320,240 S,0,170029,,0.2 M,1,170029,170835,157,223,122,293 F,0,170029,170835,1,0
Sprite,Foreground,Centre,"SB\dot.png",320,240 S,0,170029,,0.2 M,1,170029,170835,157,223,175,241 F,0,170029,170835,1,0
Sprite,Foreground,Centre,"SB\dot.png",320,240 S,0,170029,,0.2 M,1,170029,170835,157,223,218,162 F,0,170029,170835,1,0
Sprite,Foreground,Centre,"SB\dot.png",320,240 S,0,170029,,0.2 M,1,170029,170835,157,223,225,174 F,0,170029,170835,1,0
Sprite,Foreground,Centre,"SB\dot.png",320,240 S,0,170029,,0.2 M,1,170029,170835,157,223,192,258 F,0,170029,170835,1,0
Sprite,Foreground,Centre,"SB\dot.png",320,240 S,0,170107,,0.5 C,0,170107,,135,135,255 M,1,170107,170913,157,223,186,159 F,0,170107,170913,1,0
Sprite,Foreground,Centre,"SB\dot.png",320,240 S,0,170107,,0.5 C,0,170107,,135,135,255 M,1,170107,170913,157,223,119,164 F,0,170107,170913,1,0
Sprite,Foreground,Centre,"SB\dot.png",320,240 S,0,170107,,0.5 C,0,170107,,135,135,255 M,1,170107,170913,157,223,87,223 F,0,170107,170913,1,0
Sprite,Foreground,Centre,"SB\dot.png",320,240 S,0,170107,,0.5 C,0,170107,,135,135,255 M,1,170107,170913,157,223,119,282 F,0,170107,170913,1,0
Sprite,Foreground,Centre,"SB\dot.png",320,240 S,0,170107,,0.5 C,0,170107,,135,135,255 M,1,170107,170913,157,223,186,287 F,0,170107,170913,1,0
Sprite,Foreground,Centre,"SB\dot.png",320,240 S,0,170107,,0.5 C,0,170107,,135,135,255 M,1,170107,170913,157,223,226,233 F,0,170107,170913,1,0
Sprite,Foreground,Centre,"SB\dot.png",320,240 S,0,170107,,0.2 M,1,170107,170913,157,223,168,154 F,0,170107,170913,1,0
Sprite,Foreground,Centre,"SB\dot.png",320,240 S,0,170107,,0.2 M,1,170107,170913,157,223,116,194 F,0,170107,170913,1,0
Sprite,Foreground,Centre,"SB\dot.png",320,240 S,0,170107,,0.2 M,1,170107,170913,157,223,88,277 F,0,170107,170913,1,0
Sprite,Foreground,Centre,"SB\dot.png",320,240 S,0,170107,,0.2 M,1,170107,170913,157,223,100,280 F,0,170107,170913,1,0
Sprite,Foreground,Centre,"SB\dot.png",320,240 S,0,170107,,0.2 M,1,170107,170913,157,223,146,198 F,0,170107,170913,1,0
Sprite,Foreground,Centre,"SB\dot.png",320,240 S,0,170107,,0.2 M,1,170107,170913,157,223,198,153 F,0,170107,170913,1,0
Sprite,Foreground,Centre,"SB\dot.png",320,240 S,0,170263,,0.5 C,0,170263,,152,152,255 M,1,170263,171069,273,335,272,265 F,0,170263,171069,1,0
Sprite,Foreground,Centre,"SB\dot.png",320,240 S,0,170263,,0.5 C,0,170263,,152,152,255 M,1,170263,171069,273,335,214,298 F,0,170263,171069,1,0
Sprite,Foreground,Centre,"SB\dot.png",320,240 S,0,170263,,0.5 C,0,170263,,152,152,255 M,1,170263,171069,273,335,210,365 F,0,170263,171069,1,0
Sprite,Foreground,Centre,"SB\dot.png",320,240 S,0,170263,,0.5 C,0,170263,,152,152,255 M,1,170263,171069,273,335,264,404 F,0,170263,171069,1,0
Sprite,Foreground,Centre,"SB\dot.png",320,240 S,0,170263,,0.5 C,0,170263,,152,152,255 M,1,170263,171069,273,335,326,380 F,0,170263,171069,1,0
Sprite,Foreground,Centre,"SB\dot.png",320,240 S,0,170263,,0.5 C,0,170263,,152,152,255 M,1,170263,171069,273,335,340,315 F,0,170263,171069,1,0
Sprite,Foreground,Centre,"SB\dot.png",320,240 S,0,170263,,0.2 M,1,170263,171069,273,335,254,268 F,0,170263,171069,1,0
Sprite,Foreground,Centre,"SB\dot.png",320,240 S,0,170263,,0.2 M,1,170263,171069,273,335,212,336 F,0,170263,171069,1,0
Sprite,Foreground,Centre,"SB\dot.png",320,240 S,0,170263,,0.2 M,1,170263,171069,273,335,206,403 F,0,170263,171069,1,0
Sprite,Foreground,Centre,"SB\dot.png",320,240 S,0,170263,,0.2 M,1,170263,171069,273,335,239,369 F,0,170263,171069,1,0
Sprite,Foreground,Centre,"SB\dot.png",320,240 S,0,170263,,0.2 M,1,170263,171069,273,335,292,285 F,0,170263,171069,1,0
Sprite,Foreground,Centre,"SB\dot.png",320,240 S,0,170263,,0.2 M,1,170263,171069,273,335,334,275 F,0,170263,171069,1,0
Sprite,Foreground,Centre,"SB\dot.png",320,240 S,0,170341,,0.5 C,0,170341,,169,169,255 M,1,170341,171147,273,335,220,381 F,0,170341,171147,1,0
Sprite,Foreground,Centre,"SB\dot.png",320,240 S,0,170341,,0.5 C,0,170341,,169,169,255 M,1,170341,171147,273,335,283,404 F,0,170341,171147,1,0
Sprite,Foreground,Centre,"SB\dot.png",320,240 S,0,170341,,0.5 C,0,170341,,169,169,255 M,1,170341,171147,273,335,337,364 F,0,170341,171147,1,0
Sprite,Foreground,Centre,"SB\dot.png",320,240 S,0,170341,,0.5 C,0,170341,,169,169,255 M,1,170341,171147,273,335,332,297 F,0,170341,171147,1,0
Sprite,Foreground,Centre,"SB\dot.png",320,240 S,0,170341,,0.5 C,0,170341,,169,169,255 M,1,170341,171147,273,335,272,265 F,0,170341,171147,1,0
Sprite,Foreground,Centre,"SB\dot.png",320,240 S,0,170341,,0.5 C,0,170341,,169,169,255 M,1,170341,171147,273,335,214,298 F,0,170341,171147,1,0
Sprite,Foreground,Centre,"SB\dot.png",320,240 S,0,170341,,0.2 M,1,170341,171147,273,335,234,393 F,0,170341,171147,1,0
Sprite,Foreground,Centre,"SB\dot.png",320,240 S,0,170341,,0.2 M,1,170341,171147,273,335,287,388 F,0,170341,171147,1,0
Sprite,Foreground,Centre,"SB\dot.png",320,240 S,0,170341,,0.2 M,1,170341,171147,273,335,331,304 F,0,170341,171147,1,0
Sprite,Foreground,Centre,"SB\dot.png",320,240 S,0,170341,,0.2 M,1,170341,171147,273,335,342,266 F,0,170341,171147,1,0
Sprite,Foreground,Centre,"SB\dot.png",320,240 S,0,170341,,0.2 M,1,170341,171147,273,335,312,331 F,0,170341,171147,1,0
Sprite,Foreground,Centre,"SB\dot.png",320,240 S,0,170341,,0.2 M,1,170341,171147,273,335,259,401 F,0,170341,171147,1,0
Sprite,Foreground,Centre,"SB\dot.png",320,240 S,0,170420,,0.5 C,0,170420,,169,169,255 M,1,170420,171226,273,335,291,267 F,0,170420,171226,1,0
Sprite,Foreground,Centre,"SB\dot.png",320,240 S,0,170420,,0.5 C,0,170420,,169,169,255 M,1,170420,171226,273,335,226,283 F,0,170420,171226,1,0
Sprite,Foreground,Centre,"SB\dot.png",320,240 S,0,170420,,0.5 C,0,170420,,169,169,255 M,1,170420,171226,273,335,204,347 F,0,170420,171226,1,0
Sprite,Foreground,Centre,"SB\dot.png",320,240 S,0,170420,,0.5 C,0,170420,,169,169,255 M,1,170420,171226,273,335,246,400 F,0,170420,171226,1,0
Sprite,Foreground,Centre,"SB\dot.png",320,240 S,0,170420,,0.5 C,0,170420,,169,169,255 M,1,170420,171226,273,335,313,393 F,0,170420,171226,1,0
Sprite,Foreground,Centre,"SB\dot.png",320,240 S,0,170420,,0.5 C,0,170420,,169,169,255 M,1,170420,171226,273,335,343,333 F,0,170420,171226,1,0
Sprite,Foreground,Centre,"SB\dot.png",320,240 S,0,170420,,0.2 M,1,170420,171226,273,335,273,265 F,0,170420,171226,1,0
Sprite,Foreground,Centre,"SB\dot.png",320,240 S,0,170420,,0.2 M,1,170420,171226,273,335,223,317 F,0,170420,171226,1,0
Sprite,Foreground,Centre,"SB\dot.png",320,240 S,0,170420,,0.2 M,1,170420,171226,273,335,203,396 F,0,170420,171226,1,0
Sprite,Foreground,Centre,"SB\dot.png",320,240 S,0,170420,,0.2 M,1,170420,171226,273,335,224,384 F,0,170420,171226,1,0
Sprite,Foreground,Centre,"SB\dot.png",320,240 S,0,170420,,0.2 M,1,170420,171226,273,335,273,300 F,0,170420,171226,1,0
Sprite,Foreground,Centre,"SB\dot.png",320,240 S,0,170420,,0.2 M,1,170420,171226,273,335,323,267 F,0,170420,171226,1,0
Sprite,Foreground,Centre,"SB\dot.png",320,240 S,0,170576,,0.5 C,0,170576,,170,170,255 M,1,170576,171382,383,139,405,205 F,0,170576,171382,1,0
Sprite,Foreground,Centre,"SB\dot.png",320,240 S,0,170576,,0.5 C,0,170576,,170,170,255 M,1,170576,171382,383,139,451,156 F,0,170576,171382,1,0
Sprite,Foreground,Centre,"SB\dot.png",320,240 S,0,170576,,0.5 C,0,170576,,170,170,255 M,1,170576,171382,383,139,434,91 F,0,170576,171382,1,0
Sprite,Foreground,Centre,"SB\dot.png",320,240 S,0,170576,,0.5 C,0,170576,,170,170,255 M,1,170576,171382,383,139,371,70 F,0,170576,171382,1,0
Sprite,Foreground,Centre,"SB\dot.png",320,240 S,0,170576,,0.5 C,0,170576,,170,170,255 M,1,170576,171382,383,139,318,112 F,0,170576,171382,1,0
Sprite,Foreground,Centre,"SB\dot.png",320,240 S,0,170576,,0.5 C,0,170576,,170,170,255 M,1,170576,171382,383,139,325,179 F,0,170576,171382,1,0
Sprite,Foreground,Centre,"SB\dot.png",320,240 S,0,170576,,0.2 M,1,170576,171382,383,139,421,198 F,0,170576,171382,1,0
Sprite,Foreground,Centre,"SB\dot.png",320,240 S,0,170576,,0.2 M,1,170576,171382,383,139,452,117 F,0,170576,171382,1,0
Sprite,Foreground,Centre,"SB\dot.png",320,240 S,0,170576,,0.2 M,1,170576,171382,383,139,442,69 F,0,170576,171382,1,0
Sprite,Foreground,Centre,"SB\dot.png",320,240 S,0,170576,,0.2 M,1,170576,171382,383,139,397,125 F,0,170576,171382,1,0
Sprite,Foreground,Centre,"SB\dot.png",320,240 S,0,170576,,0.2 M,1,170576,171382,383,139,345,202 F,0,170576,171382,1,0
Sprite,Foreground,Centre,"SB\dot.png",320,240 S,0,170576,,0.2 M,1,170576,171382,383,139,314,186 F,0,170576,171382,1,0
Sprite,Foreground,Centre,"SB\dot.png",320,240 S,0,170732,,0.5 C,0,170732,,127,127,255 M,1,170732,171538,401,275,402,345 F,0,170732,171538,1,0
Sprite,Foreground,Centre,"SB\dot.png",320,240 S,0,170732,,0.5 C,0,170732,,127,127,255 M,1,170732,171538,401,275,461,312 F,0,170732,171538,1,0
Sprite,Foreground,Centre,"SB\dot.png",320,240 S,0,170732,,0.5 C,0,170732,,127,127,255 M,1,170732,171538,401,275,464,245 F,0,170732,171538,1,0
Sprite,Foreground,Centre,"SB\dot.png",320,240 S,0,170732,,0.5 C,0,170732,,127,127,255 M,1,170732,171538,401,275,410,206 F,0,170732,171538,1,0
Sprite,Foreground,Centre,"SB\dot.png",320,240 S,0,170732,,0.5 C,0,170732,,127,127,255 M,1,170732,171538,401,275,347,230 F,0,170732,171538,1,0
Sprite,Foreground,Centre,"SB\dot.png",320,240 S,0,170732,,0.5 C,0,170732,,127,127,255 M,1,170732,171538,401,275,334,296 F,0,170732,171538,1,0
Sprite,Foreground,Centre,"SB\dot.png",320,240 S,0,170732,,0.2 M,1,170732,171538,401,275,420,342 F,0,170732,171538,1,0
Sprite,Foreground,Centre,"SB\dot.png",320,240 S,0,170732,,0.2 M,1,170732,171538,401,275,462,274 F,0,170732,171538,1,0
Sprite,Foreground,Centre,"SB\dot.png",320,240 S,0,170732,,0.2 M,1,170732,171538,401,275,468,207 F,0,170732,171538,1,0
Sprite,Foreground,Centre,"SB\dot.png",320,240 S,0,170732,,0.2 M,1,170732,171538,401,275,435,241 F,0,170732,171538,1,0
Sprite,Foreground,Centre,"SB\dot.png",320,240 S,0,170732,,0.2 M,1,170732,171538,401,275,382,325 F,0,170732,171538,1,0
Sprite,Foreground,Centre,"SB\dot.png",320,240 S,0,170732,,0.2 M,1,170732,171538,401,275,340,335 F,0,170732,171538,1,0
Sprite,Foreground,Centre,"SB\dot.png",320,240 S,0,170810,,0.5 C,0,170810,,170,170,255 M,1,170810,171616,440,293,476,233 F,0,170810,171616,1,0
Sprite,Foreground,Centre,"SB\dot.png",320,240 S,0,170810,,0.5 C,0,170810,,170,170,255 M,1,170810,171616,440,293,409,230 F,0,170810,171616,1,0
Sprite,Foreground,Centre,"SB\dot.png",320,240 S,0,170810,,0.5 C,0,170810,,170,170,255 M,1,170810,171616,440,293,370,285 F,0,170810,171616,1,0
Sprite,Foreground,Centre,"SB\dot.png",320,240 S,0,170810,,0.5 C,0,170810,,170,170,255 M,1,170810,171616,440,293,396,347 F,0,170810,171616,1,0
Sprite,Foreground,Centre,"SB\dot.png",320,240 S,0,170810,,0.5 C,0,170810,,170,170,255 M,1,170810,171616,440,293,462,359 F,0,170810,171616,1,0
Sprite,Foreground,Centre,"SB\dot.png",320,240 S,0,170810,,0.5 C,0,170810,,170,170,255 M,1,170810,171616,440,293,508,310 F,0,170810,171616,1,0
Sprite,Foreground,Centre,"SB\dot.png",320,240 S,0,170810,,0.2 M,1,170810,171616,440,293,459,226 F,0,170810,171616,1,0
Sprite,Foreground,Centre,"SB\dot.png",320,240 S,0,170810,,0.2 M,1,170810,171616,440,293,406,257 F,0,170810,171616,1,0
Sprite,Foreground,Centre,"SB\dot.png",320,240 S,0,170810,,0.2 M,1,170810,171616,440,293,373,342 F,0,170810,171616,1,0
Sprite,Foreground,Centre,"SB\dot.png",320,240 S,0,170810,,0.2 M,1,170810,171616,440,293,379,354 F,0,170810,171616,1,0
Sprite,Foreground,Centre,"SB\dot.png",320,240 S,0,170810,,0.2 M,1,170810,171616,440,293,421,276 F,0,170810,171616,1,0
Sprite,Foreground,Centre,"SB\dot.png",320,240 S,0,170810,,0.2 M,1,170810,171616,440,293,474,223 F,0,170810,171616,1,0
Sprite,Foreground,Centre,"SB\dot.png",320,240 S,0,170888,,0.5 C,0,170888,,177,177,255 M,1,170888,171694,485,291,438,239 F,0,170888,171694,1,0
Sprite,Foreground,Centre,"SB\dot.png",320,240 S,0,170888,,0.5 C,0,170888,,177,177,255 M,1,170888,171694,485,291,416,303 F,0,170888,171694,1,0
Sprite,Foreground,Centre,"SB\dot.png",320,240 S,0,170888,,0.5 C,0,170888,,177,177,255 M,1,170888,171694,485,291,458,356 F,0,170888,171694,1,0
Sprite,Foreground,Centre,"SB\dot.png",320,240 S,0,170888,,0.5 C,0,170888,,177,177,255 M,1,170888,171694,485,291,525,349 F,0,170888,171694,1,0
Sprite,Foreground,Centre,"SB\dot.png",320,240 S,0,170888,,0.5 C,0,170888,,177,177,255 M,1,170888,171694,485,291,555,289 F,0,170888,171694,1,0
Sprite,Foreground,Centre,"SB\dot.png",320,240 S,0,170888,,0.5 C,0,170888,,177,177,255 M,1,170888,171694,485,291,521,231 F,0,170888,171694,1,0
Sprite,Foreground,Centre,"SB\dot.png",320,240 S,0,170888,,0.2 M,1,170888,171694,485,291,426,253 F,0,170888,171694,1,0
Sprite,Foreground,Centre,"SB\dot.png",320,240 S,0,170888,,0.2 M,1,170888,171694,485,291,417,338 F,0,170888,171694,1,0
Sprite,Foreground,Centre,"SB\dot.png",320,240 S,0,170888,,0.2 M,1,170888,171694,485,291,447,353 F,0,170888,171694,1,0
Sprite,Foreground,Centre,"SB\dot.png",320,240 S,0,170888,,0.2 M,1,170888,171694,485,291,500,276 F,0,170888,171694,1,0
Sprite,Foreground,Centre,"SB\dot.png",320,240 S,0,170888,,0.2 M,1,170888,171694,485,291,544,221 F,0,170888,171694,1,0
Sprite,Foreground,Centre,"SB\dot.png",320,240 S,0,170888,,0.2 M,1,170888,171694,485,291,553,270 F,0,170888,171694,1,0
Sprite,Foreground,Centre,"SB\dot.png",320,240 S,0,170966,,0.5 C,0,170966,,100,100,255 M,1,170966,171772,522,268,470,315 F,0,170966,171772,1,0
Sprite,Foreground,Centre,"SB\dot.png",320,240 S,0,170966,,0.5 C,0,170966,,100,100,255 M,1,170966,171772,522,268,534,337 F,0,170966,171772,1,0
Sprite,Foreground,Centre,"SB\dot.png",320,240 S,0,170966,,0.5 C,0,170966,,100,100,255 M,1,170966,171772,522,268,586,295 F,0,170966,171772,1,0
Sprite,Foreground,Centre,"SB\dot.png",320,240 S,0,170966,,0.5 C,0,170966,,100,100,255 M,1,170966,171772,522,268,580,229 F,0,170966,171772,1,0
Sprite,Foreground,Centre,"SB\dot.png",320,240 S,0,170966,,0.5 C,0,170966,,100,100,255 M,1,170966,171772,522,268,520,198 F,0,170966,171772,1,0
Sprite,Foreground,Centre,"SB\dot.png",320,240 S,0,170966,,0.5 C,0,170966,,100,100,255 M,1,170966,171772,522,268,462,232 F,0,170966,171772,1,0
Sprite,Foreground,Centre,"SB\dot.png",320,240 S,0,170966,,0.2 M,1,170966,171772,522,268,484,327 F,0,170966,171772,1,0
Sprite,Foreground,Centre,"SB\dot.png",320,240 S,0,170966,,0.2 M,1,170966,171772,522,268,537,320 F,0,170966,171772,1,0
Sprite,Foreground,Centre,"SB\dot.png",320,240 S,0,170966,,0.2 M,1,170966,171772,522,268,581,236 F,0,170966,171772,1,0
Sprite,Foreground,Centre,"SB\dot.png",320,240 S,0,170966,,0.2 M,1,170966,171772,522,268,590,200 F,0,170966,171772,1,0
Sprite,Foreground,Centre,"SB\dot.png",320,240 S,0,170966,,0.2 M,1,170966,171772,522,268,560,265 F,0,170966,171772,1,0
Sprite,Foreground,Centre,"SB\dot.png",320,240 S,0,170966,,0.2 M,1,170966,171772,522,268,507,335 F,0,170966,171772,1,0
Sprite,Foreground,Centre,"SB\dot.png",320,240 S,0,171045,,0.5 C,0,171045,,116,116,255 M,1,171045,171851,545,230,574,166 F,0,171045,171851,1,0
Sprite,Foreground,Centre,"SB\dot.png",320,240 S,0,171045,,0.5 C,0,171045,,116,116,255 M,1,171045,171851,545,230,507,171 F,0,171045,171851,1,0
Sprite,Foreground,Centre,"SB\dot.png",320,240 S,0,171045,,0.5 C,0,171045,,116,116,255 M,1,171045,171851,545,230,475,230 F,0,171045,171851,1,0
Sprite,Foreground,Centre,"SB\dot.png",320,240 S,0,171045,,0.5 C,0,171045,,116,116,255 M,1,171045,171851,545,230,507,289 F,0,171045,171851,1,0
Sprite,Foreground,Centre,"SB\dot.png",320,240 S,0,171045,,0.5 C,0,171045,,116,116,255 M,1,171045,171851,545,230,574,294 F,0,171045,171851,1,0
Sprite,Foreground,Centre,"SB\dot.png",320,240 S,0,171045,,0.5 C,0,171045,,116,116,255 M,1,171045,171851,545,230,614,240 F,0,171045,171851,1,0
Sprite,Foreground,Centre,"SB\dot.png",320,240 S,0,171045,,0.2 M,1,171045,171851,545,230,556,161 F,0,171045,171851,1,0
Sprite,Foreground,Centre,"SB\dot.png",320,240 S,0,171045,,0.2 M,1,171045,171851,545,230,504,201 F,0,171045,171851,1,0
Sprite,Foreground,Centre,"SB\dot.png",320,240 S,0,171045,,0.2 M,1,171045,171851,545,230,476,284 F,0,171045,171851,1,0
Sprite,Foreground,Centre,"SB\dot.png",320,240 S,0,171045,,0.2 M,1,171045,171851,545,230,488,287 F,0,171045,171851,1,0
Sprite,Foreground,Centre,"SB\dot.png",320,240 S,0,171045,,0.2 M,1,171045,171851,545,230,534,205 F,0,171045,171851,1,0
Sprite,Foreground,Centre,"SB\dot.png",320,240 S,0,171045,,0.2 M,1,171045,171851,545,230,586,160 F,0,171045,171851,1,0
Sprite,Foreground,Centre,"SB\dot.png",320,240 S,0,171513,,0.5 C,0,171513,,165,165,255 M,1,171513,172319,265,415,334,425 F,0,171513,172319,1,0
Sprite,Foreground,Centre,"SB\dot.png",320,240 S,0,171513,,0.5 C,0,171513,,165,165,255 M,1,171513,172319,265,415,311,362 F,0,171513,172319,1,0
Sprite,Foreground,Centre,"SB\dot.png",320,240 S,0,171513,,0.5 C,0,171513,,165,165,255 M,1,171513,172319,265,415,245,348 F,0,171513,172319,1,0
Sprite,Foreground,Centre,"SB\dot.png",320,240 S,0,171513,,0.5 C,0,171513,,165,165,255 M,1,171513,172319,265,415,198,396 F,0,171513,172319,1,0
Sprite,Foreground,Centre,"SB\dot.png",320,240 S,0,171513,,0.5 C,0,171513,,165,165,255 M,1,171513,172319,265,415,212,461 F,0,171513,172319,1,0
Sprite,Foreground,Centre,"SB\dot.png",320,240 S,0,171513,,0.5 C,0,171513,,165,165,255 M,1,171513,172319,265,415,275,484 F,0,171513,172319,1,0
Sprite,Foreground,Centre,"SB\dot.png",320,240 S,0,171513,,0.2 M,1,171513,172319,265,415,334,406 F,0,171513,172319,1,0
Sprite,Foreground,Centre,"SB\dot.png",320,240 S,0,171513,,0.2 M,1,171513,172319,265,415,308,346 F,0,171513,172319,1,0
Sprite,Foreground,Centre,"SB\dot.png",320,240 S,0,171513,,0.2 M,1,171513,172319,265,415,256,388 F,0,171513,172319,1,0
Sprite,Foreground,Centre,"SB\dot.png",320,240 S,0,171513,,0.2 M,1,171513,172319,265,415,210,470 F,0,171513,172319,1,0
Sprite,Foreground,Centre,"SB\dot.png",320,240 S,0,171513,,0.2 M,1,171513,172319,265,415,196,471 F,0,171513,172319,1,0
Sprite,Foreground,Centre,"SB\dot.png",320,240 S,0,171513,,0.2 M,1,171513,172319,265,415,222,389 F,0,171513,172319,1,0
Sprite,Foreground,Centre,"SB\dot.png",320,240 S,0,171982,,0.5 C,0,171982,,106,106,255 M,1,171982,172788,345,67,279,89 F,0,171982,172788,1,0
Sprite,Foreground,Centre,"SB\dot.png",320,240 S,0,171982,,0.5 C,0,171982,,106,106,255 M,1,171982,172788,345,67,328,135 F,0,171982,172788,1,0
Sprite,Foreground,Centre,"SB\dot.png",320,240 S,0,171982,,0.5 C,0,171982,,106,106,255 M,1,171982,172788,345,67,393,118 F,0,171982,172788,1,0
Sprite,Foreground,Centre,"SB\dot.png",320,240 S,0,171982,,0.5 C,0,171982,,106,106,255 M,1,171982,172788,345,67,414,54 F,0,171982,172788,1,0
Sprite,Foreground,Centre,"SB\dot.png",320,240 S,0,171982,,0.5 C,0,171982,,106,106,255 M,1,171982,172788,345,67,372,2 F,0,171982,172788,1,0
Sprite,Foreground,Centre,"SB\dot.png",320,240 S,0,171982,,0.5 C,0,171982,,106,106,255 M,1,171982,172788,345,67,305,10 F,0,171982,172788,1,0
Sprite,Foreground,Centre,"SB\dot.png",320,240 S,0,171982,,0.2 M,1,171982,172788,345,67,287,106 F,0,171982,172788,1,0
Sprite,Foreground,Centre,"SB\dot.png",320,240 S,0,171982,,0.2 M,1,171982,172788,345,67,331,133 F,0,171982,172788,1,0
Sprite,Foreground,Centre,"SB\dot.png",320,240 S,0,171982,,0.2 M,1,171982,172788,345,67,384,63 F,0,171982,172788,1,0
Sprite,Foreground,Centre,"SB\dot.png",320,240 S,0,171982,,0.2 M,1,171982,172788,345,67,414,-2 F,0,171982,172788,1,0
Sprite,Foreground,Centre,"SB\dot.png",320,240 S,0,171982,,0.2 M,1,171982,172788,345,67,403,36 F,0,171982,172788,1,0
Sprite,Foreground,Centre,"SB\dot.png",320,240 S,0,171982,,0.2 M,1,171982,172788,345,67,359,119 F,0,171982,172788,1,0
Sprite,Foreground,Centre,"SB\dot.png",320,240 S,0,172451,,0.5 C,0,172451,,78,78,255 M,1,172451,173257,465,375,401,347 F,0,172451,173257,1,0
Sprite,Foreground,Centre,"SB\dot.png",320,240 S,0,172451,,0.5 C,0,172451,,78,78,255 M,1,172451,173257,465,375,407,414 F,0,172451,173257,1,0
Sprite,Foreground,Centre,"SB\dot.png",320,240 S,0,172451,,0.5 C,0,172451,,78,78,255 M,1,172451,173257,465,375,466,445 F,0,172451,173257,1,0
Sprite,Foreground,Centre,"SB\dot.png",320,240 S,0,172451,,0.5 C,0,172451,,78,78,255 M,1,172451,173257,465,375,525,412 F,0,172451,173257,1,0
Sprite,Foreground,Centre,"SB\dot.png",320,240 S,0,172451,,0.5 C,0,172451,,78,78,255 M,1,172451,173257,465,375,528,345 F,0,172451,173257,1,0
Sprite,Foreground,Centre,"SB\dot.png",320,240 S,0,172451,,0.5 C,0,172451,,78,78,255 M,1,172451,173257,465,375,474,306 F,0,172451,173257,1,0
Sprite,Foreground,Centre,"SB\dot.png",320,240 S,0,172451,,0.2 M,1,172451,173257,465,375,396,365 F,0,172451,173257,1,0
Sprite,Foreground,Centre,"SB\dot.png",320,240 S,0,172451,,0.2 M,1,172451,173257,465,375,409,439 F,0,172451,173257,1,0
Sprite,Foreground,Centre,"SB\dot.png",320,240 S,0,172451,,0.2 M,1,172451,173257,465,375,455,419 F,0,172451,173257,1,0
Sprite,Foreground,Centre,"SB\dot.png",320,240 S,0,172451,,0.2 M,1,172451,173257,465,375,507,333 F,0,172451,173257,1,0
Sprite,Foreground,Centre,"SB\dot.png",320,240 S,0,172451,,0.2 M,1,172451,173257,465,375,534,310 F,0,172451,173257,1,0
Sprite,Foreground,Centre,"SB\dot.png",320,240 S,0,172451,,0.2 M,1,172451,173257,465,375,521,383 F,0,172451,173257,1,0
Sprite,Foreground,Centre,"SB\dot.png",320,240 S,0,172920,,0.5 C,0,172920,,138,138,255 M,1,172920,173726,169,199,130,141 F,0,172920,173726,1,0
Sprite,Foreground,Centre,"SB\dot.png",320,240 S,0,172920,,0.5 C,0,172920,,138,138,255 M,1,172920,173726,169,199,99,201 F,0,172920,173726,1,0
Sprite,Foreground,Centre,"SB\dot.png",320,240 S,0,172920,,0.5 C,0,172920,,138,138,255 M,1,172920,173726,169,199,132,259 F,0,172920,173726,1,0
Sprite,Foreground,Centre,"SB\dot.png",320,240 S,0,172920,,0.5 C,0,172920,,138,138,255 M,1,172920,173726,169,199,200,262 F,0,172920,173726,1,0
Sprite,Foreground,Centre,"SB\dot.png",320,240 S,0,172920,,0.5 C,0,172920,,138,138,255 M,1,172920,173726,169,199,239,207 F,0,172920,173726,1,0
Sprite,Foreground,Centre,"SB\dot.png",320,240 S,0,172920,,0.5 C,0,172920,,138,138,255 M,1,172920,173726,169,199,214,145 F,0,172920,173726,1,0
Sprite,Foreground,Centre,"SB\dot.png",320,240 S,0,172920,,0.2 M,1,172920,173726,169,199,116,153 F,0,172920,173726,1,0
Sprite,Foreground,Centre,"SB\dot.png",320,240 S,0,172920,,0.2 M,1,172920,173726,169,199,99,238 F,0,172920,173726,1,0
Sprite,Foreground,Centre,"SB\dot.png",320,240 S,0,172920,,0.2 M,1,172920,173726,169,199,123,265 F,0,172920,173726,1,0
Sprite,Foreground,Centre,"SB\dot.png",320,240 S,0,172920,,0.2 M,1,172920,173726,169,199,174,194 F,0,172920,173726,1,0
Sprite,Foreground,Centre,"SB\dot.png",320,240 S,0,172920,,0.2 M,1,172920,173726,169,199,222,130 F,0,172920,173726,1,0
Sprite,Foreground,Centre,"SB\dot.png",320,240 S,0,172920,,0.2 M,1,172920,173726,169,199,239,168 F,0,172920,173726,1,0
Sprite,Foreground,Centre,"SB\dot.png",320,240 S,0,254795,,0.5 C,0,254795,,255,56,56 M,1,254795,255601,200,243,260,279 F,0,254795,255601,1,0
Sprite,Foreground,Centre,"SB\dot.png",320,240 S,0,254795,,0.5 C,0,254795,,255,56,56 M,1,254795,255601,200,243,263,212 F,0,254795,255601,1,0
Sprite,Foreground,Centre,"SB\dot.png",320,240 S,0,254795,,0.5 C,0,254795,,255,56,56 M,1,254795,255601,200,243,207,173 F,0,254795,255601,1,0
Sprite,Foreground,Centre,"SB\dot.png",320,240 S,0,254795,,0.5 C,0,254795,,255,56,56 M,1,254795,255601,200,243,145,199 F,0,254795,255601,1,0
Sprite,Foreground,Centre,"SB\dot.png",320,240 S,0,254795,,0.5 C,0,254795,,255,56,56 M,1,254795,255601,200,243,134,265 F,0,254795,255601,1,0
Sprite,Foreground,Centre,"SB\dot.png",320,240 S,0,254795,,0.5 C,0,254795,,255,56,56 M,1,254795,255601,200,243,183,311 F,0,254795,255601,1,0
Sprite,Foreground,Centre,"SB\dot.png",320,240 S,0,254795,,0.2 M,1,254795,255601,200,243,267,262 F,0,254795,255601,1,0
Sprite,Foreground,Centre,"SB\dot.png",320,240 S,0,254795,,0.2 M,1,254795,255601,200,243,261,183 F,0,254795,255601,1,0
Sprite,Foreground,Centre,"SB\dot.png",320,240 S,0,254795,,0.2 M,1,254795,255601,200,243,219,193 F,0,254795,255601,1,0
Sprite,Foreground,Centre,"SB\dot.png",320,240 S,0,254795,,0.2 M,1,254795,255601,200,243,166,277 F,0,254795,255601,1,0
Sprite,Foreground,Centre,"SB\dot.png",320,240 S,0,254795,,0.2 M,1,254795,255601,200,243,133,311 F,0,254795,255601,1,0
Sprite,Foreground,Centre,"SB\dot.png",320,240 S,0,254795,,0.2 M,1,254795,255601,200,243,139,244 F,0,254795,255601,1,0
Sprite,Foreground,Centre,"SB\dot.png",320,240 S,0,254951,,0.5 C,0,254951,,255,48,48 M,1,254951,255757,284,103,239,157 F,0,254951,255757,1,0
Sprite,Foreground,Centre,"SB\dot.png",320,240 S,0,254951,,0.5 C,0,254951,,255,48,48 M,1,254951,255757,284,103,305,170 F,0,254951,255757,1,0
Sprite,Foreground,Centre,"SB\dot.png",320,240 S,0,254951,,0.5 C,0,254951,,255,48,48 M,1,254951,255757,284,103,351,122 F,0,254951,255757,1,0
Sprite,Foreground,Centre,"SB\dot.png",320,240 S,0,254951,,0.5 C,0,254951,,255,48,48 M,1,254951,255757,284,103,336,56 F,0,254951,255757,1,0
Sprite,Foreground,Centre,"SB\dot.png",320,240 S,0,254951,,0.5 C,0,254951,,255,48,48 M,1,254951,255757,284,103,273,34 F,0,254951,255757,1,0
Sprite,Foreground,Centre,"SB\dot.png",320,240 S,0,254951,,0.5 C,0,254951,,255,48,48 M,1,254951,255757,284,103,220,75 F,0,254951,255757,1,0
Sprite,Foreground,Centre,"SB\dot.png",320,240 S,0,254951,,0.2 M,1,254951,255757,284,103,254,166 F,0,254951,255757,1,0
Sprite,Foreground,Centre,"SB\dot.png",320,240 S,0,254951,,0.2 M,1,254951,255757,284,103,308,148 F,0,254951,255757,1,0
Sprite,Foreground,Centre,"SB\dot.png",320,240 S,0,254951,,0.2 M,1,254951,255757,284,103,347,63 F,0,254951,255757,1,0
Sprite,Foreground,Centre,"SB\dot.png",320,240 S,0,254951,,0.2 M,1,254951,255757,284,103,350,37 F,0,254951,255757,1,0
Sprite,Foreground,Centre,"SB\dot.png",320,240 S,0,254951,,0.2 M,1,254951,255757,284,103,314,109 F,0,254951,255757,1,0
Sprite,Foreground,Centre,"SB\dot.png",320,240 S,0,254951,,0.2 M,1,254951,255757,284,103,260,172 F,0,254951,255757,1,0
Sprite,Foreground,Centre,"SB\dot.png",320,240 S,0,255107,,0.5 C,0,255107,,255,21,21 M,1,255107,255913,275,350,314,408 F,0,255107,255913,1,0
Sprite,Foreground,Centre,"SB\dot.png",320,240 S,0,255107,,0.5 C,0,255107,,255,21,21 M,1,255107,255913,275,350,345,349 F,0,255107,255913,1,0
Sprite,Foreground,Centre,"SB\dot.png",320,240 S,0,255107,,0.5 C,0,255107,,255,21,21 M,1,255107,255913,275,350,312,291 F,0,255107,255913,1,0
Sprite,Foreground,Centre,"SB\dot.png",320,240 S,0,255107,,0.5 C,0,255107,,255,21,21 M,1,255107,255913,275,350,245,287 F,0,255107,255913,1,0
Sprite,Foreground,Centre,"SB\dot.png",320,240 S,0,255107,,0.5 C,0,255107,,255,21,21 M,1,255107,255913,275,350,206,341 F,0,255107,255913,1,0
Sprite,Foreground,Centre,"SB\dot.png",320,240 S,0,255107,,0.5 C,0,255107,,255,21,21 M,1,255107,255913,275,350,230,404 F,0,255107,255913,1,0
Sprite,Foreground,Centre,"SB\dot.png",320,240 S,0,255107,,0.2 M,1,255107,255913,275,350,327,396 F,0,255107,255913,1,0
Sprite,Foreground,Centre,"SB\dot.png",320,240 S,0,255107,,0.2 M,1,255107,255913,275,350,345,311 F,0,255107,255913,1,0
Sprite,Foreground,Centre,"SB\dot.png",320,240 S,0,255107,,0.2 M,1,255107,255913,275,350,321,284 F,0,255107,255913,1,0
Sprite,Foreground,Centre,"SB\dot.png",320,240 S,0,255107,,0.2 M,1,255107,255913,275,350,271,354 F,0,255107,255913,1,0
Sprite,Foreground,Centre,"SB\dot.png",320,240 S,0,255107,,0.2 M,1,255107,255913,275,350,223,419 F,0,255107,255913,1,0
Sprite,Foreground,Centre,"SB\dot.png",320,240 S,0,255107,,0.2 M,1,255107,255913,275,350,205,381 F,0,255107,255913,1,0
Sprite,Foreground,Centre,"SB\dot.png",320,240 S,0,255263,,0.5 C,0,255263,,255,80,80 M,1,255263,256069,369,144,428,182 F,0,255263,256069,1,0
Sprite,Foreground,Centre,"SB\dot.png",320,240 S,0,255263,,0.5 C,0,255263,,255,80,80 M,1,255263,256069,369,144,433,115 F,0,255263,256069,1,0
Sprite,Foreground,Centre,"SB\dot.png",320,240 S,0,255263,,0.5 C,0,255263,,255,80,80 M,1,255263,256069,369,144,379,75 F,0,255263,256069,1,0
Sprite,Foreground,Centre,"SB\dot.png",320,240 S,0,255263,,0.5 C,0,255263,,255,80,80 M,1,255263,256069,369,144,316,98 F,0,255263,256069,1,0
Sprite,Foreground,Centre,"SB\dot.png",320,240 S,0,255263,,0.5 C,0,255263,,255,80,80 M,1,255263,256069,369,144,302,164 F,0,255263,256069,1,0
Sprite,Foreground,Centre,"SB\dot.png",320,240 S,0,255263,,0.5 C,0,255263,,255,80,80 M,1,255263,256069,369,144,349,211 F,0,255263,256069,1,0
Sprite,Foreground,Centre,"SB\dot.png",320,240 S,0,255263,,0.2 M,1,255263,256069,369,144,436,165 F,0,255263,256069,1,0
Sprite,Foreground,Centre,"SB\dot.png",320,240 S,0,255263,,0.2 M,1,255263,256069,369,144,431,85 F,0,255263,256069,1,0
Sprite,Foreground,Centre,"SB\dot.png",320,240 S,0,255263,,0.2 M,1,255263,256069,369,144,390,92 F,0,255263,256069,1,0
Sprite,Foreground,Centre,"SB\dot.png",320,240 S,0,255263,,0.2 M,1,255263,256069,369,144,337,176 F,0,255263,256069,1,0
Sprite,Foreground,Centre,"SB\dot.png",320,240 S,0,255263,,0.2 M,1,255263,256069,369,144,302,212 F,0,255263,256069,1,0
Sprite,Foreground,Centre,"SB\dot.png",320,240 S,0,255263,,0.2 M,1,255263,256069,369,144,307,147 F,0,255263,256069,1,0
Sprite,Foreground,Centre,"SB\dot.png",320,240 S,0,255420,,0.5 C,0,255420,,255,33,33 M,1,255420,256226,453,383,512,345 F,0,255420,256226,1,0
Sprite,Foreground,Centre,"SB\dot.png",320,240 S,0,255420,,0.5 C,0,255420,,255,33,33 M,1,255420,256226,453,383,452,313 F,0,255420,256226,1,0
Sprite,Foreground,Centre,"SB\dot.png",320,240 S,0,255420,,0.5 C,0,255420,,255,33,33 M,1,255420,256226,453,383,394,346 F,0,255420,256226,1,0
Sprite,Foreground,Centre,"SB\dot.png",320,240 S,0,255420,,0.5 C,0,255420,,255,33,33 M,1,255420,256226,453,383,390,413 F,0,255420,256226,1,0
Sprite,Foreground,Centre,"SB\dot.png",320,240 S,0,255420,,0.5 C,0,255420,,255,33,33 M,1,255420,256226,453,383,444,452 F,0,255420,256226,1,0
Sprite,Foreground,Centre,"SB\dot.png",320,240 S,0,255420,,0.5 C,0,255420,,255,33,33 M,1,255420,256226,453,383,506,428 F,0,255420,256226,1,0
Sprite,Foreground,Centre,"SB\dot.png",320,240 S,0,255420,,0.2 M,1,255420,256226,453,383,500,331 F,0,255420,256226,1,0
Sprite,Foreground,Centre,"SB\dot.png",320,240 S,0,255420,,0.2 M,1,255420,256226,453,383,449,324 F,0,255420,256226,1,0
Sprite,Foreground,Centre,"SB\dot.png",320,240 S,0,255420,,0.2 M,1,255420,256226,453,383,401,405 F,0,255420,256226,1,0
Sprite,Foreground,Centre,"SB\dot.png",320,240 S,0,255420,,0.2 M,1,255420,256226,453,383,383,453 F,0,255420,256226,1,0
Sprite,Foreground,Centre,"SB\dot.png",320,240 S,0,255420,,0.2 M,1,255420,256226,453,383,406,397 F,0,255420,256226,1,0
Sprite,Foreground,Centre,"SB\dot.png",320,240 S,0,255420,,0.2 M,1,255420,256226,453,383,457,321 F,0,255420,256226,1,0
Sprite,Foreground,Centre,"SB\dot.png",320,240 S,0,255576,,0.5 C,0,255576,,255,16,16 M,1,255576,256382,460,114,413,62 F,0,255576,256382,1,0
Sprite,Foreground,Centre,"SB\dot.png",320,240 S,0,255576,,0.5 C,0,255576,,255,16,16 M,1,255576,256382,460,114,391,126 F,0,255576,256382,1,0
Sprite,Foreground,Centre,"SB\dot.png",320,240 S,0,255576,,0.5 C,0,255576,,255,16,16 M,1,255576,256382,460,114,433,179 F,0,255576,256382,1,0
Sprite,Foreground,Centre,"SB\dot.png",320,240 S,0,255576,,0.5 C,0,255576,,255,16,16 M,1,255576,256382,460,114,500,172 F,0,255576,256382,1,0
Sprite,Foreground,Centre,"SB\dot.png",320,240 S,0,255576,,0.5 C,0,255576,,255,16,16 M,1,255576,256382,460,114,530,112 F,0,255576,256382,1,0
Sprite,Foreground,Centre,"SB\dot.png",320,240 S,0,255576,,0.5 C,0,255576,,255,16,16 M,1,255576,256382,460,114,496,54 F,0,255576,256382,1,0
Sprite,Foreground,Centre,"SB\dot.png",320,240 S,0,255576,,0.2 M,1,255576,256382,460,114,401,76 F,0,255576,256382,1,0
Sprite,Foreground,Centre,"SB\dot.png",320,240 S,0,255576,,0.2 M,1,255576,256382,460,114,392,161 F,0,255576,256382,1,0
Sprite,Foreground,Centre,"SB\dot.png",320,240 S,0,255576,,0.2 M,1,255576,256382,460,114,422,176 F,0,255576,256382,1,0
Sprite,Foreground,Centre,"SB\dot.png",320,240 S,0,255576,,0.2 M,1,255576,256382,460,114,475,99 F,0,255576,256382,1,0
Sprite,Foreground,Centre,"SB\dot.png",320,240 S,0,255576,,0.2 M,1,255576,256382,460,114,519,44 F,0,255576,256382,1,0
Sprite,Foreground,Centre,"SB\dot.png",320,240 S,0,255576,,0.2 M,1,255576,256382,460,114,528,93 F,0,255576,256382,1,0
Sprite,Foreground,Centre,"SB\dot.png",320,240 S,0,255654,,0.5 C,0,255654,,255,61,61 M,1,255654,256460,460,114,407,68 F,0,255654,256460,1,0
Sprite,Foreground,Centre,"SB\dot.png",320,240 S,0,255654,,0.5 C,0,255654,,255,61,61 M,1,255654,256460,460,114,393,134 F,0,255654,256460,1,0
Sprite,Foreground,Centre,"SB\dot.png",320,240 S,0,255654,,0.5 C,0,255654,,255,61,61 M,1,255654,256460,460,114,440,181 F,0,255654,256460,1,0
Sprite,Foreground,Centre,"SB\dot.png",320,240 S,0,255654,,0.5 C,0,255654,,255,61,61 M,1,255654,256460,460,114,506,167 F,0,255654,256460,1,0
Sprite,Foreground,Centre,"SB\dot.png",320,240 S,0,255654,,0.5 C,0,255654,,255,61,61 M,1,255654,256460,460,114,529,104 F,0,255654,256460,1,0
Sprite,Foreground,Centre,"SB\dot.png",320,240 S,0,255654,,0.5 C,0,255654,,255,61,61 M,1,255654,256460,460,114,489,50 F,0,255654,256460,1,0
Sprite,Foreground,Centre,"SB\dot.png",320,240 S,0,255654,,0.2 M,1,255654,256460,460,114,397,84 F,0,255654,256460,1,0
Sprite,Foreground,Centre,"SB\dot.png",320,240 S,0,255654,,0.2 M,1,255654,256460,460,114,394,167 F,0,255654,256460,1,0
Sprite,Foreground,Centre,"SB\dot.png",320,240 S,0,255654,,0.2 M,1,255654,256460,460,114,430,172 F,0,255654,256460,1,0
Sprite,Foreground,Centre,"SB\dot.png",320,240 S,0,255654,,0.2 M,1,255654,256460,460,114,483,91 F,0,255654,256460,1,0
Sprite,Foreground,Centre,"SB\dot.png",320,240 S,0,255654,,0.2 M,1,255654,256460,460,114,523,44 F,0,255654,256460,1,0
Sprite,Foreground,Centre,"SB\dot.png",320,240 S,0,255654,,0.2 M,1,255654,256460,460,114,526,101 F,0,255654,256460,1,0
Sprite,Foreground,Centre,"SB\dot.png",320,240 S,0,255732,,0.5 C,0,255732,,255,42,42 M,1,255732,256538,460,114,422,55 F,0,255732,256538,1,0
Sprite,Foreground,Centre,"SB\dot.png",320,240 S,0,255732,,0.5 C,0,255732,,255,42,42 M,1,255732,256538,460,114,390,114 F,0,255732,256538,1,0
Sprite,Foreground,Centre,"SB\dot.png",320,240 S,0,255732,,0.5 C,0,255732,,255,42,42 M,1,255732,256538,460,114,422,173 F,0,255732,256538,1,0
Sprite,Foreground,Centre,"SB\dot.png",320,240 S,0,255732,,0.5 C,0,255732,,255,42,42 M,1,255732,256538,460,114,489,178 F,0,255732,256538,1,0
Sprite,Foreground,Centre,"SB\dot.png",320,240 S,0,255732,,0.5 C,0,255732,,255,42,42 M,1,255732,256538,460,114,529,124 F,0,255732,256538,1,0
Sprite,Foreground,Centre,"SB\dot.png",320,240 S,0,255732,,0.5 C,0,255732,,255,42,42 M,1,255732,256538,460,114,506,61 F,0,255732,256538,1,0
Sprite,Foreground,Centre,"SB\dot.png",320,240 S,0,255732,,0.2 M,1,255732,256538,460,114,408,67 F,0,255732,256538,1,0
Sprite,Foreground,Centre,"SB\dot.png",320,240 S,0,255732,,0.2 M,1,255732,256538,460,114,390,152 F,0,255732,256538,1,0
Sprite,Foreground,Centre,"SB\dot.png",320,240 S,0,255732,,0.2 M,1,255732,256538,460,114,413,181 F,0,255732,256538,1,0
Sprite,Foreground,Centre,"SB\dot.png",320,240 S,0,255732,,0.2 M,1,255732,256538,460,114,464,110 F,0,255732,256538,1,0
Sprite,Foreground,Centre,"SB\dot.png",320,240 S,0,255732,,0.2 M,1,255732,256538,460,114,512,46 F,0,255732,256538,1,0
Sprite,Foreground,Centre,"SB\dot.png",320,240 S,0,255732,,0.2 M,1,255732,256538,460,114,530,82 F,0,255732,256538,1,0
Sprite,Foreground,Centre,"SB\dot.png",320,240 S,0,255888,,0.5 C,0,255888,,255,3,3 M,1,255888,256694,557,345,576,278 F,0,255888,256694,1,0
Sprite,Foreground,Centre,"SB\dot.png",320,240 S,0,255888,,0.5 C,0,255888,,255,3,3 M,1,255888,256694,557,345,511,293 F,0,255888,256694,1,0
Sprite,Foreground,Centre,"SB\dot.png",320,240 S,0,255888,,0.5 C,0,255888,,255,3,3 M,1,255888,256694,557,345,488,356 F,0,255888,256694,1,0
Sprite,Foreground,Centre,"SB\dot.png",320,240 S,0,255888,,0.5 C,0,255888,,255,3,3 M,1,255888,256694,557,345,529,409 F,0,255888,256694,1,0
Sprite,Foreground,Centre,"SB\dot.png",320,240 S,0,255888,,0.5 C,0,255888,,255,3,3 M,1,255888,256694,557,345,596,403 F,0,255888,256694,1,0
Sprite,Foreground,Centre,"SB\dot.png",320,240 S,0,255888,,0.5 C,0,255888,,255,3,3 M,1,255888,256694,557,345,627,344 F,0,255888,256694,1,0
Sprite,Foreground,Centre,"SB\dot.png",320,240 S,0,255888,,0.2 M,1,255888,256694,557,345,558,275 F,0,255888,256694,1,0
Sprite,Foreground,Centre,"SB\dot.png",320,240 S,0,255888,,0.2 M,1,255888,256694,557,345,508,326 F,0,255888,256694,1,0
Sprite,Foreground,Centre,"SB\dot.png",320,240 S,0,255888,,0.2 M,1,255888,256694,557,345,487,405 F,0,255888,256694,1,0
Sprite,Foreground,Centre,"SB\dot.png",320,240 S,0,255888,,0.2 M,1,255888,256694,557,345,507,395 F,0,255888,256694,1,0
Sprite,Foreground,Centre,"SB\dot.png",320,240 S,0,255888,,0.2 M,1,255888,256694,557,345,556,311 F,0,255888,256694,1,0
Sprite,Foreground,Centre,"SB\dot.png",320,240 S,0,255888,,0.2 M,1,255888,256694,557,345,606,277 F,0,255888,256694,1,0
Sprite,Foreground,Centre,"SB\dot.png",320,240 S,0,256045,,0.5 C,0,256045,,255,54,54 M,1,256045,256851,326,213,281,267 F,0,256045,256851,1,0
Sprite,Foreground,Centre,"SB\dot.png",320,240 S,0,256045,,0.5 C,0,256045,,255,54,54 M,1,256045,256851,326,213,347,280 F,0,256045,256851,1,0
Sprite,Foreground,Centre,"SB\dot.png",320,240 S,0,256045,,0.5 C,0,256045,,255,54,54 M,1,256045,256851,326,213,393,232 F,0,256045,256851,1,0
Sprite,Foreground,Centre,"SB\dot.png",320,240 S,0,256045,,0.5 C,0,256045,,255,54,54 M,1,256045,256851,326,213,378,166 F,0,256045,256851,1,0
Sprite,Foreground,Centre,"SB\dot.png",320,240 S,0,256045,,0.5 C,0,256045,,255,54,54 M,1,256045,256851,326,213,315,144 F,0,256045,256851,1,0
Sprite,Foreground,Centre,"SB\dot.png",320,240 S,0,256045,,0.5 C,0,256045,,255,54,54 M,1,256045,256851,326,213,262,185 F,0,256045,256851,1,0
Sprite,Foreground,Centre,"SB\dot.png",320,240 S,0,256045,,0.2 M,1,256045,256851,326,213,296,276 F,0,256045,256851,1,0
Sprite,Foreground,Centre,"SB\dot.png",320,240 S,0,256045,,0.2 M,1,256045,256851,326,213,350,258 F,0,256045,256851,1,0
Sprite,Foreground,Centre,"SB\dot.png",320,240 S,0,256045,,0.2 M,1,256045,256851,326,213,389,173 F,0,256045,256851,1,0
Sprite,Foreground,Centre,"SB\dot.png",320,240 S,0,256045,,0.2 M,1,256045,256851,326,213,392,147 F,0,256045,256851,1,0
Sprite,Foreground,Centre,"SB\dot.png",320,240 S,0,256045,,0.2 M,1,256045,256851,326,213,356,219 F,0,256045,256851,1,0
Sprite,Foreground,Centre,"SB\dot.png",320,240 S,0,256045,,0.2 M,1,256045,256851,326,213,302,282 F,0,256045,256851,1,0
Sprite,Foreground,Centre,"SB\dot.png",320,240 S,0,256201,,0.5 C,0,256201,,255,52,52 M,1,256201,257007,559,319,626,297 F,0,256201,257007,1,0
Sprite,Foreground,Centre,"SB\dot.png",320,240 S,0,256201,,0.5 C,0,256201,,255,52,52 M,1,256201,257007,559,319,577,251 F,0,256201,257007,1,0
Sprite,Foreground,Centre,"SB\dot.png",320,240 S,0,256201,,0.5 C,0,256201,,255,52,52 M,1,256201,257007,559,319,512,267 F,0,256201,257007,1,0
Sprite,Foreground,Centre,"SB\dot.png",320,240 S,0,256201,,0.5 C,0,256201,,255,52,52 M,1,256201,257007,559,319,490,331 F,0,256201,257007,1,0
Sprite,Foreground,Centre,"SB\dot.png",320,240 S,0,256201,,0.5 C,0,256201,,255,52,52 M,1,256201,257007,559,319,532,384 F,0,256201,257007,1,0
Sprite,Foreground,Centre,"SB\dot.png",320,240 S,0,256201,,0.5 C,0,256201,,255,52,52 M,1,256201,257007,559,319,599,377 F,0,256201,257007,1,0
Sprite,Foreground,Centre,"SB\dot.png",320,240 S,0,256201,,0.2 M,1,256201,257007,559,319,618,281 F,0,256201,257007,1,0
Sprite,Foreground,Centre,"SB\dot.png",320,240 S,0,256201,,0.2 M,1,256201,257007,559,319,574,252 F,0,256201,257007,1,0
Sprite,Foreground,Centre,"SB\dot.png",320,240 S,0,256201,,0.2 M,1,256201,257007,559,319,521,323 F,0,256201,257007,1,0
Sprite,Foreground,Centre,"SB\dot.png",320,240 S,0,256201,,0.2 M,1,256201,257007,559,319,491,387 F,0,256201,257007,1,0
Sprite,Foreground,Centre,"SB\dot.png",320,240 S,0,256201,,0.2 M,1,256201,257007,559,319,500,351 F,0,256201,257007,1,0
Sprite,Foreground,Centre,"SB\dot.png",320,240 S,0,256201,,0.2 M,1,256201,257007,559,319,544,267 F,0,256201,257007,1,0
Sprite,Foreground,Centre,"SB\dot.png",320,240 S,0,256279,,0.5 C,0,256279,,255,2,2 M,1,256279,257085,559,319,532,384 F,0,256279,257085,1,0
Sprite,Foreground,Centre,"SB\dot.png",320,240 S,0,256279,,0.5 C,0,256279,,255,2,2 M,1,256279,257085,559,319,599,377 F,0,256279,257085,1,0
Sprite,Foreground,Centre,"SB\dot.png",320,240 S,0,256279,,0.5 C,0,256279,,255,2,2 M,1,256279,257085,559,319,629,317 F,0,256279,257085,1,0
Sprite,Foreground,Centre,"SB\dot.png",320,240 S,0,256279,,0.5 C,0,256279,,255,2,2 M,1,256279,257085,559,319,595,259 F,0,256279,257085,1,0
Sprite,Foreground,Centre,"SB\dot.png",320,240 S,0,256279,,0.5 C,0,256279,,255,2,2 M,1,256279,257085,559,319,528,256 F,0,256279,257085,1,0
Sprite,Foreground,Centre,"SB\dot.png",320,240 S,0,256279,,0.5 C,0,256279,,255,2,2 M,1,256279,257085,559,319,489,311 F,0,256279,257085,1,0
Sprite,Foreground,Centre,"SB\dot.png",320,240 S,0,256279,,0.2 M,1,256279,257085,559,319,549,388 F,0,256279,257085,1,0
Sprite,Foreground,Centre,"SB\dot.png",320,240 S,0,256279,,0.2 M,1,256279,257085,559,319,601,346 F,0,256279,257085,1,0
Sprite,Foreground,Centre,"SB\dot.png",320,240 S,0,256279,,0.2 M,1,256279,257085,559,319,628,264 F,0,256279,257085,1,0
Sprite,Foreground,Centre,"SB\dot.png",320,240 S,0,256279,,0.2 M,1,256279,257085,559,319,615,263 F,0,256279,257085,1,0
Sprite,Foreground,Centre,"SB\dot.png",320,240 S,0,256279,,0.2 M,1,256279,257085,559,319,569,345 F,0,256279,257085,1,0
Sprite,Foreground,Centre,"SB\dot.png",320,240 S,0,256279,,0.2 M,1,256279,257085,559,319,517,388 F,0,256279,257085,1,0
Sprite,Foreground,Centre,"SB\dot.png",320,240 S,0,256357,,0.5 C,0,256357,,255,41,41 M,1,256357,257163,559,319,622,288 F,0,256357,257163,1,0
Sprite,Foreground,Centre,"SB\dot.png",320,240 S,0,256357,,0.5 C,0,256357,,255,41,41 M,1,256357,257163,559,319,566,249 F,0,256357,257163,1,0
Sprite,Foreground,Centre,"SB\dot.png",320,240 S,0,256357,,0.5 C,0,256357,,255,41,41 M,1,256357,257163,559,319,504,275 F,0,256357,257163,1,0
Sprite,Foreground,Centre,"SB\dot.png",320,240 S,0,256357,,0.5 C,0,256357,,255,41,41 M,1,256357,257163,559,319,493,341 F,0,256357,257163,1,0
Sprite,Foreground,Centre,"SB\dot.png",320,240 S,0,256357,,0.5 C,0,256357,,255,41,41 M,1,256357,257163,559,319,542,387 F,0,256357,257163,1,0
Sprite,Foreground,Centre,"SB\dot.png",320,240 S,0,256357,,0.5 C,0,256357,,255,41,41 M,1,256357,257163,559,319,607,370 F,0,256357,257163,1,0
Sprite,Foreground,Centre,"SB\dot.png",320,240 S,0,256357,,0.2 M,1,256357,257163,559,319,611,273 F,0,256357,257163,1,0
Sprite,Foreground,Centre,"SB\dot.png",320,240 S,0,256357,,0.2 M,1,256357,257163,559,319,563,256 F,0,256357,257163,1,0
Sprite,Foreground,Centre,"SB\dot.png",320,240 S,0,256357,,0.2 M,1,256357,257163,559,319,513,333 F,0,256357,257163,1,0
Sprite,Foreground,Centre,"SB\dot.png",320,240 S,0,256357,,0.2 M,1,256357,257163,559,319,489,389 F,0,256357,257163,1,0
Sprite,Foreground,Centre,"SB\dot.png",320,240 S,0,256357,,0.2 M,1,256357,257163,559,319,507,341 F,0,256357,257163,1,0
Sprite,Foreground,Centre,"SB\dot.png",320,240 S,0,256357,,0.2 M,1,256357,257163,559,319,555,261 F,0,256357,257163,1,0
Sprite,Foreground,Centre,"SB\dot.png",320,240 S,0,256513,,0.5 C,0,256513,,255,15,15 M,1,256513,257319,325,362,395,360 F,0,256513,257319,1,0
Sprite,Foreground,Centre,"SB\dot.png",320,240 S,0,256513,,0.5 C,0,256513,,255,15,15 M,1,256513,257319,325,362,361,302 F,0,256513,257319,1,0
Sprite,Foreground,Centre,"SB\dot.png",320,240 S,0,256513,,0.5 C,0,256513,,255,15,15 M,1,256513,257319,325,362,294,299 F,0,256513,257319,1,0
Sprite,Foreground,Centre,"SB\dot.png",320,240 S,0,256513,,0.5 C,0,256513,,255,15,15 M,1,256513,257319,325,362,255,354 F,0,256513,257319,1,0
Sprite,Foreground,Centre,"SB\dot.png",320,240 S,0,256513,,0.5 C,0,256513,,255,15,15 M,1,256513,257319,325,362,281,416 F,0,256513,257319,1,0
Sprite,Foreground,Centre,"SB\dot.png",320,240 S,0,256513,,0.5 C,0,256513,,255,15,15 M,1,256513,257319,325,362,347,428 F,0,256513,257319,1,0
Sprite,Foreground,Centre,"SB\dot.png",320,240 S,0,256513,,0.2 M,1,256513,257319,325,362,392,342 F,0,256513,257319,1,0
Sprite,Foreground,Centre,"SB\dot.png",320,240 S,0,256513,,0.2 M,1,256513,257319,325,362,358,292 F,0,256513,257319,1,0
Sprite,Foreground,Centre,"SB\dot.png",320,240 S,0,256513,,0.2 M,1,256513,257319,325,362,305,346 F,0,256513,257319,1,0
Sprite,Foreground,Centre,"SB\dot.png",320,240 S,0,256513,,0.2 M,1,256513,257319,325,362,263,424 F,0,256513,257319,1,0
Sprite,Foreground,Centre,"SB\dot.png",320,240 S,0,256513,,0.2 M,1,256513,257319,325,362,258,410 F,0,256513,257319,1,0
Sprite,Foreground,Centre,"SB\dot.png",320,240 S,0,256513,,0.2 M,1,256513,257319,325,362,292,325 F,0,256513,257319,1,0
Sprite,Foreground,Centre,"SB\dot.png",320,240 S,0,256670,,0.5 C,0,256670,,255,7,7 M,1,256670,257476,570,201,606,141 F,0,256670,257476,1,0
Sprite,Foreground,Centre,"SB\dot.png",320,240 S,0,256670,,0.5 C,0,256670,,255,7,7 M,1,256670,257476,570,201,539,138 F,0,256670,257476,1,0
Sprite,Foreground,Centre,"SB\dot.png",320,240 S,0,256670,,0.5 C,0,256670,,255,7,7 M,1,256670,257476,570,201,500,193 F,0,256670,257476,1,0
Sprite,Foreground,Centre,"SB\dot.png",320,240 S,0,256670,,0.5 C,0,256670,,255,7,7 M,1,256670,257476,570,201,526,255 F,0,256670,257476,1,0
Sprite,Foreground,Centre,"SB\dot.png",320,240 S,0,256670,,0.5 C,0,256670,,255,7,7 M,1,256670,257476,570,201,592,267 F,0,256670,257476,1,0
Sprite,Foreground,Centre,"SB\dot.png",320,240 S,0,256670,,0.5 C,0,256670,,255,7,7 M,1,256670,257476,570,201,638,218 F,0,256670,257476,1,0
Sprite,Foreground,Centre,"SB\dot.png",320,240 S,0,256670,,0.2 M,1,256670,257476,570,201,589,134 F,0,256670,257476,1,0
Sprite,Foreground,Centre,"SB\dot.png",320,240 S,0,256670,,0.2 M,1,256670,257476,570,201,536,165 F,0,256670,257476,1,0
Sprite,Foreground,Centre,"SB\dot.png",320,240 S,0,256670,,0.2 M,1,256670,257476,570,201,503,250 F,0,256670,257476,1,0
Sprite,Foreground,Centre,"SB\dot.png",320,240 S,0,256670,,0.2 M,1,256670,257476,570,201,509,262 F,0,256670,257476,1,0
Sprite,Foreground,Centre,"SB\dot.png",320,240 S,0,256670,,0.2 M,1,256670,257476,570,201,551,184 F,0,256670,257476,1,0
Sprite,Foreground,Centre,"SB\dot.png",320,240 S,0,256670,,0.2 M,1,256670,257476,570,201,604,131 F,0,256670,257476,1,0
Sprite,Foreground,Centre,"SB\dot.png",320,240 S,0,256826,,0.5 C,0,256826,,255,41,41 M,1,256826,257632,436,407,472,347 F,0,256826,257632,1,0
Sprite,Foreground,Centre,"SB\dot.png",320,240 S,0,256826,,0.5 C,0,256826,,255,41,41 M,1,256826,257632,436,407,405,344 F,0,256826,257632,1,0
Sprite,Foreground,Centre,"SB\dot.png",320,240 S,0,256826,,0.5 C,0,256826,,255,41,41 M,1,256826,257632,436,407,366,399 F,0,256826,257632,1,0
Sprite,Foreground,Centre,"SB\dot.png",320,240 S,0,256826,,0.5 C,0,256826,,255,41,41 M,1,256826,257632,436,407,392,461 F,0,256826,257632,1,0
Sprite,Foreground,Centre,"SB\dot.png",320,240 S,0,256826,,0.5 C,0,256826,,255,41,41 M,1,256826,257632,436,407,458,473 F,0,256826,257632,1,0
Sprite,Foreground,Centre,"SB\dot.png",320,240 S,0,256826,,0.5 C,0,256826,,255,41,41 M,1,256826,257632,436,407,504,424 F,0,256826,257632,1,0
Sprite,Foreground,Centre,"SB\dot.png",320,240 S,0,256826,,0.2 M,1,256826,257632,436,407,455,340 F,0,256826,257632,1,0
Sprite,Foreground,Centre,"SB\dot.png",320,240 S,0,256826,,0.2 M,1,256826,257632,436,407,402,371 F,0,256826,257632,1,0
Sprite,Foreground,Centre,"SB\dot.png",320,240 S,0,256826,,0.2 M,1,256826,257632,436,407,369,456 F,0,256826,257632,1,0
Sprite,Foreground,Centre,"SB\dot.png",320,240 S,0,256826,,0.2 M,1,256826,257632,436,407,375,468 F,0,256826,257632,1,0
Sprite,Foreground,Centre,"SB\dot.png",320,240 S,0,256826,,0.2 M,1,256826,257632,436,407,417,390 F,0,256826,257632,1,0
Sprite,Foreground,Centre,"SB\dot.png",320,240 S,0,256826,,0.2 M,1,256826,257632,436,407,470,337 F,0,256826,257632,1,0
Sprite,Foreground,Centre,"SB\dot.png",320,240 S,0,256904,,0.5 C,0,256904,,255,24,24 M,1,256904,257710,436,407,384,454 F,0,256904,257710,1,0
Sprite,Foreground,Centre,"SB\dot.png",320,240 S,0,256904,,0.5 C,0,256904,,255,24,24 M,1,256904,257710,436,407,448,476 F,0,256904,257710,1,0
Sprite,Foreground,Centre,"SB\dot.png",320,240 S,0,256904,,0.5 C,0,256904,,255,24,24 M,1,256904,257710,436,407,500,434 F,0,256904,257710,1,0
Sprite,Foreground,Centre,"SB\dot.png",320,240 S,0,256904,,0.5 C,0,256904,,255,24,24 M,1,256904,257710,436,407,494,368 F,0,256904,257710,1,0
Sprite,Foreground,Centre,"SB\dot.png",320,240 S,0,256904,,0.5 C,0,256904,,255,24,24 M,1,256904,257710,436,407,434,337 F,0,256904,257710,1,0
Sprite,Foreground,Centre,"SB\dot.png",320,240 S,0,256904,,0.5 C,0,256904,,255,24,24 M,1,256904,257710,436,407,376,371 F,0,256904,257710,1,0
Sprite,Foreground,Centre,"SB\dot.png",320,240 S,0,256904,,0.2 M,1,256904,257710,436,407,398,466 F,0,256904,257710,1,0
Sprite,Foreground,Centre,"SB\dot.png",320,240 S,0,256904,,0.2 M,1,256904,257710,436,407,451,459 F,0,256904,257710,1,0
Sprite,Foreground,Centre,"SB\dot.png",320,240 S,0,256904,,0.2 M,1,256904,257710,436,407,495,375 F,0,256904,257710,1,0
Sprite,Foreground,Centre,"SB\dot.png",320,240 S,0,256904,,0.2 M,1,256904,257710,436,407,504,339 F,0,256904,257710,1,0
Sprite,Foreground,Centre,"SB\dot.png",320,240 S,0,256904,,0.2 M,1,256904,257710,436,407,474,404 F,0,256904,257710,1,0
Sprite,Foreground,Centre,"SB\dot.png",320,240 S,0,256904,,0.2 M,1,256904,257710,436,407,421,474 F,0,256904,257710,1,0
Sprite,Foreground,Centre,"SB\dot.png",320,240 S,0,256982,,0.5 C,0,256982,,255,73,73 M,1,256982,257788,436,407,448,476 F,0,256982,257788,1,0
Sprite,Foreground,Centre,"SB\dot.png",320,240 S,0,256982,,0.5 C,0,256982,,255,73,73 M,1,256982,257788,436,407,500,434 F,0,256982,257788,1,0
Sprite,Foreground,Centre,"SB\dot.png",320,240 S,0,256982,,0.5 C,0,256982,,255,73,73 M,1,256982,257788,436,407,494,368 F,0,256982,257788,1,0
Sprite,Foreground,Centre,"SB\dot.png",320,240 S,0,256982,,0.5 C,0,256982,,255,73,73 M,1,256982,257788,436,407,434,337 F,0,256982,257788,1,0
Sprite,Foreground,Centre,"SB\dot.png",320,240 S,0,256982,,0.5 C,0,256982,,255,73,73 M,1,256982,257788,436,407,376,371 F,0,256982,257788,1,0
Sprite,Foreground,Centre,"SB\dot.png",320,240 S,0,256982,,0.5 C,0,256982,,255,73,73 M,1,256982,257788,436,407,373,438 F,0,256982,257788,1,0
Sprite,Foreground,Centre,"SB\dot.png",320,240 S,0,256982,,0.2 M,1,256982,257788,436,407,465,471 F,0,256982,257788,1,0
Sprite,Foreground,Centre,"SB\dot.png",320,240 S,0,256982,,0.2 M,1,256982,257788,436,407,502,395 F,0,256982,257788,1,0
Sprite,Foreground,Centre,"SB\dot.png",320,240 S,0,256982,,0.2 M,1,256982,257788,436,407,500,337 F,0,256982,257788,1,0
Sprite,Foreground,Centre,"SB\dot.png",320,240 S,0,256982,,0.2 M,1,256982,257788,436,407,460,383 F,0,256982,257788,1,0
Sprite,Foreground,Centre,"SB\dot.png",320,240 S,0,256982,,0.2 M,1,256982,257788,436,407,407,464 F,0,256982,257788,1,0
Sprite,Foreground,Centre,"SB\dot.png",320,240 S,0,256982,,0.2 M,1,256982,257788,436,407,370,461 F,0,256982,257788,1,0
Sprite,Foreground,Centre,"SB\dot.png",320,240 S,0,257138,,0.5 C,0,257138,,255,15,15 M,1,257138,257944,326,213,273,167 F,0,257138,257944,1,0
Sprite,Foreground,Centre,"SB\dot.png",320,240 S,0,257138,,0.5 C,0,257138,,255,15,15 M,1,257138,257944,326,213,259,233 F,0,257138,257944,1,0
Sprite,Foreground,Centre,"SB\dot.png",320,240 S,0,257138,,0.5 C,0,257138,,255,15,15 M,1,257138,257944,326,213,306,280 F,0,257138,257944,1,0
Sprite,Foreground,Centre,"SB\dot.png",320,240 S,0,257138,,0.5 C,0,257138,,255,15,15 M,1,257138,257944,326,213,372,266 F,0,257138,257944,1,0
Sprite,Foreground,Centre,"SB\dot.png",320,240 S,0,257138,,0.5 C,0,257138,,255,15,15 M,1,257138,257944,326,213,395,203 F,0,257138,257944,1,0
Sprite,Foreground,Centre,"SB\dot.png",320,240 S,0,257138,,0.5 C,0,257138,,255,15,15 M,1,257138,257944,326,213,355,149 F,0,257138,257944,1,0
Sprite,Foreground,Centre,"SB\dot.png",320,240 S,0,257138,,0.2 M,1,257138,257944,326,213,263,183 F,0,257138,257944,1,0
Sprite,Foreground,Centre,"SB\dot.png",320,240 S,0,257138,,0.2 M,1,257138,257944,326,213,260,266 F,0,257138,257944,1,0
Sprite,Foreground,Centre,"SB\dot.png",320,240 S,0,257138,,0.2 M,1,257138,257944,326,213,296,271 F,0,257138,257944,1,0
Sprite,Foreground,Centre,"SB\dot.png",320,240 S,0,257138,,0.2 M,1,257138,257944,326,213,349,190 F,0,257138,257944,1,0
Sprite,Foreground,Centre,"SB\dot.png",320,240 S,0,257138,,0.2 M,1,257138,257944,326,213,389,143 F,0,257138,257944,1,0
Sprite,Foreground,Centre,"SB\dot.png",320,240 S,0,257138,,0.2 M,1,257138,257944,326,213,392,200 F,0,257138,257944,1,0
Sprite,Foreground,Centre,"SB\dot.png",320,240 S,0,257295,,0.5 C,0,257295,,255,0,0 M,1,257295,258101,409,296,421,365 F,0,257295,258101,1,0
Sprite,Foreground,Centre,"SB\dot.png",320,240 S,0,257295,,0.5 C,0,257295,,255,0,0 M,1,257295,258101,409,296,473,323 F,0,257295,258101,1,0
Sprite,Foreground,Centre,"SB\dot.png",320,240 S,0,257295,,0.5 C,0,257295,,255,0,0 M,1,257295,258101,409,296,467,257 F,0,257295,258101,1,0
Sprite,Foreground,Centre,"SB\dot.png",320,240 S,0,257295,,0.5 C,0,257295,,255,0,0 M,1,257295,258101,409,296,407,226 F,0,257295,258101,1,0
Sprite,Foreground,Centre,"SB\dot.png",320,240 S,0,257295,,0.5 C,0,257295,,255,0,0 M,1,257295,258101,409,296,349,260 F,0,257295,258101,1,0
Sprite,Foreground,Centre,"SB\dot.png",320,240 S,0,257295,,0.5 C,0,257295,,255,0,0 M,1,257295,258101,409,296,346,327 F,0,257295,258101,1,0
Sprite,Foreground,Centre,"SB\dot.png",320,240 S,0,257295,,0.2 M,1,257295,258101,409,296,438,360 F,0,257295,258101,1,0
Sprite,Foreground,Centre,"SB\dot.png",320,240 S,0,257295,,0.2 M,1,257295,258101,409,296,475,284 F,0,257295,258101,1,0
Sprite,Foreground,Centre,"SB\dot.png",320,240 S,0,257295,,0.2 M,1,257295,258101,409,296,473,226 F,0,257295,258101,1,0
Sprite,Foreground,Centre,"SB\dot.png",320,240 S,0,257295,,0.2 M,1,257295,258101,409,296,433,272 F,0,257295,258101,1,0
Sprite,Foreground,Centre,"SB\dot.png",320,240 S,0,257295,,0.2 M,1,257295,258101,409,296,380,353 F,0,257295,258101,1,0
Sprite,Foreground,Centre,"SB\dot.png",320,240 S,0,257295,,0.2 M,1,257295,258101,409,296,343,350 F,0,257295,258101,1,0
Sprite,Foreground,Centre,"SB\dot.png",320,240 S,0,257373,,0.5 C,0,257373,,255,22,22 M,1,257373,258179,380,266,381,336 F,0,257373,258179,1,0
Sprite,Foreground,Centre,"SB\dot.png",320,240 S,0,257373,,0.5 C,0,257373,,255,22,22 M,1,257373,258179,380,266,440,303 F,0,257373,258179,1,0
Sprite,Foreground,Centre,"SB\dot.png",320,240 S,0,257373,,0.5 C,0,257373,,255,22,22 M,1,257373,258179,380,266,443,236 F,0,257373,258179,1,0
Sprite,Foreground,Centre,"SB\dot.png",320,240 S,0,257373,,0.5 C,0,257373,,255,22,22 M,1,257373,258179,380,266,389,197 F,0,257373,258179,1,0
Sprite,Foreground,Centre,"SB\dot.png",320,240 S,0,257373,,0.5 C,0,257373,,255,22,22 M,1,257373,258179,380,266,326,221 F,0,257373,258179,1,0
Sprite,Foreground,Centre,"SB\dot.png",320,240 S,0,257373,,0.5 C,0,257373,,255,22,22 M,1,257373,258179,380,266,313,287 F,0,257373,258179,1,0
Sprite,Foreground,Centre,"SB\dot.png",320,240 S,0,257373,,0.2 M,1,257373,258179,380,266,399,333 F,0,257373,258179,1,0
Sprite,Foreground,Centre,"SB\dot.png",320,240 S,0,257373,,0.2 M,1,257373,258179,380,266,441,265 F,0,257373,258179,1,0
Sprite,Foreground,Centre,"SB\dot.png",320,240 S,0,257373,,0.2 M,1,257373,258179,380,266,447,198 F,0,257373,258179,1,0
Sprite,Foreground,Centre,"SB\dot.png",320,240 S,0,257373,,0.2 M,1,257373,258179,380,266,414,232 F,0,257373,258179,1,0
Sprite,Foreground,Centre,"SB\dot.png",320,240 S,0,257373,,0.2 M,1,257373,258179,380,266,361,316 F,0,257373,258179,1,0
Sprite,Foreground,Centre,"SB\dot.png",320,240 S,0,257373,,0.2 M,1,257373,258179,380,266,319,326 F,0,257373,258179,1,0
Sprite,Foreground,Centre,"SB\dot.png",320,240 S,0,257451,,0.5 C,0,257451,,255,76,76 M,1,257451,258257,341,250,348,180 F,0,257451,258257,1,0
Sprite,Foreground,Centre,"SB\dot.png",320,240 S,0,257451,,0.5 C,0,257451,,255,76,76 M,1,257451,258257,341,250,286,206 F,0,257451,258257,1,0
Sprite,Foreground,Centre,"SB\dot.png",320,240 S,0,257451,,0.5 C,0,257451,,255,76,76 M,1,257451,258257,341,250,275,272 F,0,257451,258257,1,0
Sprite,Foreground,Centre,"SB\dot.png",320,240 S,0,257451,,0.5 C,0,257451,,255,76,76 M,1,257451,258257,341,250,324,318 F,0,257451,258257,1,0
Sprite,Foreground,Centre,"SB\dot.png",320,240 S,0,257451,,0.5 C,0,257451,,255,76,76 M,1,257451,258257,341,250,389,301 F,0,257451,258257,1,0
Sprite,Foreground,Centre,"SB\dot.png",320,240 S,0,257451,,0.5 C,0,257451,,255,76,76 M,1,257451,258257,341,250,410,237 F,0,257451,258257,1,0
Sprite,Foreground,Centre,"SB\dot.png",320,240 S,0,257451,,0.2 M,1,257451,258257,341,250,330,181 F,0,257451,258257,1,0
Sprite,Foreground,Centre,"SB\dot.png",320,240 S,0,257451,,0.2 M,1,257451,258257,341,250,284,243 F,0,257451,258257,1,0
Sprite,Foreground,Centre,"SB\dot.png",320,240 S,0,257451,,0.2 M,1,257451,258257,341,250,272,315 F,0,257451,258257,1,0
Sprite,Foreground,Centre,"SB\dot.png",320,240 S,0,257451,,0.2 M,1,257451,258257,341,250,300,291 F,0,257451,258257,1,0
Sprite,Foreground,Centre,"SB\dot.png",320,240 S,0,257451,,0.2 M,1,257451,258257,341,250,352,206 F,0,257451,258257,1,0
Sprite,Foreground,Centre,"SB\dot.png",320,240 S,0,257451,,0.2 M,1,257451,258257,341,250,398,186 F,0,257451,258257,1,0
Sprite,Foreground,Centre,"SB\dot.png",320,240 S,0,257529,,0.5 C,0,257529,,255,8,8 M,1,257529,258335,299,252,278,185 F,0,257529,258335,1,0
Sprite,Foreground,Centre,"SB\dot.png",320,240 S,0,257529,,0.5 C,0,257529,,255,8,8 M,1,257529,258335,299,252,231,234 F,0,257529,258335,1,0
Sprite,Foreground,Centre,"SB\dot.png",320,240 S,0,257529,,0.5 C,0,257529,,255,8,8 M,1,257529,258335,299,252,247,299 F,0,257529,258335,1,0
Sprite,Foreground,Centre,"SB\dot.png",320,240 S,0,257529,,0.5 C,0,257529,,255,8,8 M,1,257529,258335,299,252,311,321 F,0,257529,258335,1,0
Sprite,Foreground,Centre,"SB\dot.png",320,240 S,0,257529,,0.5 C,0,257529,,255,8,8 M,1,257529,258335,299,252,363,279 F,0,257529,258335,1,0
Sprite,Foreground,Centre,"SB\dot.png",320,240 S,0,257529,,0.5 C,0,257529,,255,8,8 M,1,257529,258335,299,252,357,213 F,0,257529,258335,1,0
Sprite,Foreground,Centre,"SB\dot.png",320,240 S,0,257529,,0.2 M,1,257529,258335,299,252,261,193 F,0,257529,258335,1,0
Sprite,Foreground,Centre,"SB\dot.png",320,240 S,0,257529,,0.2 M,1,257529,258335,299,252,231,273 F,0,257529,258335,1,0
Sprite,Foreground,Centre,"SB\dot.png",320,240 S,0,257529,,0.2 M,1,257529,258335,299,252,240,322 F,0,257529,258335,1,0
Sprite,Foreground,Centre,"SB\dot.png",320,240 S,0,257529,,0.2 M,1,257529,258335,299,252,284,267 F,0,257529,258335,1,0
Sprite,Foreground,Centre,"SB\dot.png",320,240 S,0,257529,,0.2 M,1,257529,258335,299,252,337,190 F,0,257529,258335,1,0
Sprite,Foreground,Centre,"SB\dot.png",320,240 S,0,257529,,0.2 M,1,257529,258335,299,252,367,205 F,0,257529,258335,1,0
Sprite,Foreground,Centre,"SB\dot.png",320,240 S,0,257607,,0.5 C,0,257607,,255,79,79 M,1,257607,258413,261,270,324,240 F,0,257607,258413,1,0
Sprite,Foreground,Centre,"SB\dot.png",320,240 S,0,257607,,0.5 C,0,257607,,255,79,79 M,1,257607,258413,261,270,270,201 F,0,257607,258413,1,0
Sprite,Foreground,Centre,"SB\dot.png",320,240 S,0,257607,,0.5 C,0,257607,,255,79,79 M,1,257607,258413,261,270,207,225 F,0,257607,258413,1,0
Sprite,Foreground,Centre,"SB\dot.png",320,240 S,0,257607,,0.5 C,0,257607,,255,79,79 M,1,257607,258413,261,270,194,291 F,0,257607,258413,1,0
Sprite,Foreground,Centre,"SB\dot.png",320,240 S,0,257607,,0.5 C,0,257607,,255,79,79 M,1,257607,258413,261,270,243,338 F,0,257607,258413,1,0
Sprite,Foreground,Centre,"SB\dot.png",320,240 S,0,257607,,0.5 C,0,257607,,255,79,79 M,1,257607,258413,261,270,308,322 F,0,257607,258413,1,0
Sprite,Foreground,Centre,"SB\dot.png",320,240 S,0,257607,,0.2 M,1,257607,258413,261,270,314,224 F,0,257607,258413,1,0
Sprite,Foreground,Centre,"SB\dot.png",320,240 S,0,257607,,0.2 M,1,257607,258413,261,270,266,207 F,0,257607,258413,1,0
Sprite,Foreground,Centre,"SB\dot.png",320,240 S,0,257607,,0.2 M,1,257607,258413,261,270,215,283 F,0,257607,258413,1,0
Sprite,Foreground,Centre,"SB\dot.png",320,240 S,0,257607,,0.2 M,1,257607,258413,261,270,191,340 F,0,257607,258413,1,0
Sprite,Foreground,Centre,"SB\dot.png",320,240 S,0,257607,,0.2 M,1,257607,258413,261,270,208,293 F,0,257607,258413,1,0
Sprite,Foreground,Centre,"SB\dot.png",320,240 S,0,257607,,0.2 M,1,257607,258413,261,270,256,212 F,0,257607,258413,1,0
Sprite,Foreground,Centre,"SB\dot.png",320,240 S,0,257685,,0.5 C,0,257685,,255,48,48 M,1,257685,258491,222,286,176,234 F,0,257685,258491,1,0
Sprite,Foreground,Centre,"SB\dot.png",320,240 S,0,257685,,0.5 C,0,257685,,255,48,48 M,1,257685,258491,222,286,153,297 F,0,257685,258491,1,0
Sprite,Foreground,Centre,"SB\dot.png",320,240 S,0,257685,,0.5 C,0,257685,,255,48,48 M,1,257685,258491,222,286,194,350 F,0,257685,258491,1,0
Sprite,Foreground,Centre,"SB\dot.png",320,240 S,0,257685,,0.5 C,0,257685,,255,48,48 M,1,257685,258491,222,286,261,344 F,0,257685,258491,1,0
Sprite,Foreground,Centre,"SB\dot.png",320,240 S,0,257685,,0.5 C,0,257685,,255,48,48 M,1,257685,258491,222,286,292,285 F,0,257685,258491,1,0
Sprite,Foreground,Centre,"SB\dot.png",320,240 S,0,257685,,0.5 C,0,257685,,255,48,48 M,1,257685,258491,222,286,259,227 F,0,257685,258491,1,0
Sprite,Foreground,Centre,"SB\dot.png",320,240 S,0,257685,,0.2 M,1,257685,258491,222,286,164,247 F,0,257685,258491,1,0
Sprite,Foreground,Centre,"SB\dot.png",320,240 S,0,257685,,0.2 M,1,257685,258491,222,286,153,332 F,0,257685,258491,1,0
Sprite,Foreground,Centre,"SB\dot.png",320,240 S,0,257685,,0.2 M,1,257685,258491,222,286,183,349 F,0,257685,258491,1,0
Sprite,Foreground,Centre,"SB\dot.png",320,240 S,0,257685,,0.2 M,1,257685,258491,222,286,236,272 F,0,257685,258491,1,0
Sprite,Foreground,Centre,"SB\dot.png",320,240 S,0,257685,,0.2 M,1,257685,258491,222,286,280,216 F,0,257685,258491,1,0
Sprite,Foreground,Centre,"SB\dot.png",320,240 S,0,257685,,0.2 M,1,257685,258491,222,286,291,264 F,0,257685,258491,1,0
Sprite,Foreground,Centre,"SB\dot.png",320,240 S,0,257763,,0.5 C,0,257763,,255,32,32 M,1,257763,258569,180,284,219,342 F,0,257763,258569,1,0
Sprite,Foreground,Centre,"SB\dot.png",320,240 S,0,257763,,0.5 C,0,257763,,255,32,32 M,1,257763,258569,180,284,250,283 F,0,257763,258569,1,0
Sprite,Foreground,Centre,"SB\dot.png",320,240 S,0,257763,,0.5 C,0,257763,,255,32,32 M,1,257763,258569,180,284,217,225 F,0,257763,258569,1,0
Sprite,Foreground,Centre,"SB\dot.png",320,240 S,0,257763,,0.5 C,0,257763,,255,32,32 M,1,257763,258569,180,284,150,221 F,0,257763,258569,1,0
Sprite,Foreground,Centre,"SB\dot.png",320,240 S,0,257763,,0.5 C,0,257763,,255,32,32 M,1,257763,258569,180,284,111,275 F,0,257763,258569,1,0
Sprite,Foreground,Centre,"SB\dot.png",320,240 S,0,257763,,0.5 C,0,257763,,255,32,32 M,1,257763,258569,180,284,135,338 F,0,257763,258569,1,0
Sprite,Foreground,Centre,"SB\dot.png",320,240 S,0,257763,,0.2 M,1,257763,258569,180,284,232,330 F,0,257763,258569,1,0
Sprite,Foreground,Centre,"SB\dot.png",320,240 S,0,257763,,0.2 M,1,257763,258569,180,284,250,245 F,0,257763,258569,1,0
Sprite,Foreground,Centre,"SB\dot.png",320,240 S,0,257763,,0.2 M,1,257763,258569,180,284,226,218 F,0,257763,258569,1,0
Sprite,Foreground,Centre,"SB\dot.png",320,240 S,0,257763,,0.2 M,1,257763,258569,180,284,176,288 F,0,257763,258569,1,0
Sprite,Foreground,Centre,"SB\dot.png",320,240 S,0,257763,,0.2 M,1,257763,258569,180,284,128,353 F,0,257763,258569,1,0
Sprite,Foreground,Centre,"SB\dot.png",320,240 S,0,257763,,0.2 M,1,257763,258569,180,284,110,315 F,0,257763,258569,1,0
Sprite,Foreground,Centre,"SB\dot.png",320,240 S,0,257841,,0.5 C,0,257841,,255,79,79 M,1,257841,258647,143,264,115,328 F,0,257841,258647,1,0
Sprite,Foreground,Centre,"SB\dot.png",320,240 S,0,257841,,0.5 C,0,257841,,255,79,79 M,1,257841,258647,143,264,182,322 F,0,257841,258647,1,0
Sprite,Foreground,Centre,"SB\dot.png",320,240 S,0,257841,,0.5 C,0,257841,,255,79,79 M,1,257841,258647,143,264,213,263 F,0,257841,258647,1,0
Sprite,Foreground,Centre,"SB\dot.png",320,240 S,0,257841,,0.5 C,0,257841,,255,79,79 M,1,257841,258647,143,264,180,205 F,0,257841,258647,1,0
Sprite,Foreground,Centre,"SB\dot.png",320,240 S,0,257841,,0.5 C,0,257841,,255,79,79 M,1,257841,258647,143,264,113,201 F,0,257841,258647,1,0
Sprite,Foreground,Centre,"SB\dot.png",320,240 S,0,257841,,0.5 C,0,257841,,255,79,79 M,1,257841,258647,143,264,74,255 F,0,257841,258647,1,0
Sprite,Foreground,Centre,"SB\dot.png",320,240 S,0,257841,,0.2 M,1,257841,258647,143,264,132,333 F,0,257841,258647,1,0
Sprite,Foreground,Centre,"SB\dot.png",320,240 S,0,257841,,0.2 M,1,257841,258647,143,264,184,292 F,0,257841,258647,1,0
Sprite,Foreground,Centre,"SB\dot.png",320,240 S,0,257841,,0.2 M,1,257841,258647,143,264,212,209 F,0,257841,258647,1,0
Sprite,Foreground,Centre,"SB\dot.png",320,240 S,0,257841,,0.2 M,1,257841,258647,143,264,200,207 F,0,257841,258647,1,0
Sprite,Foreground,Centre,"SB\dot.png",320,240 S,0,257841,,0.2 M,1,257841,258647,143,264,154,289 F,0,257841,258647,1,0
Sprite,Foreground,Centre,"SB\dot.png",320,240 S,0,257841,,0.2 M,1,257841,258647,143,264,102,334 F,0,257841,258647,1,0
Sprite,Foreground,Centre,"SB\dot.png",320,240 S,0,257920,,0.5 C,0,257920,,255,19,19 M,1,257920,258726,118,230,145,165 F,0,257920,258726,1,0
Sprite,Foreground,Centre,"SB\dot.png",320,240 S,0,257920,,0.5 C,0,257920,,255,19,19 M,1,257920,258726,118,230,78,173 F,0,257920,258726,1,0
Sprite,Foreground,Centre,"SB\dot.png",320,240 S,0,257920,,0.5 C,0,257920,,255,19,19 M,1,257920,258726,118,230,48,233 F,0,257920,258726,1,0
Sprite,Foreground,Centre,"SB\dot.png",320,240 S,0,257920,,0.5 C,0,257920,,255,19,19 M,1,257920,258726,118,230,83,290 F,0,257920,258726,1,0
Sprite,Foreground,Centre,"SB\dot.png",320,240 S,0,257920,,0.5 C,0,257920,,255,19,19 M,1,257920,258726,118,230,150,292 F,0,257920,258726,1,0
Sprite,Foreground,Centre,"SB\dot.png",320,240 S,0,257920,,0.5 C,0,257920,,255,19,19 M,1,257920,258726,118,230,188,237 F,0,257920,258726,1,0
Sprite,Foreground,Centre,"SB\dot.png",320,240 S,0,257920,,0.2 M,1,257920,258726,118,230,127,161 F,0,257920,258726,1,0
Sprite,Foreground,Centre,"SB\dot.png",320,240 S,0,257920,,0.2 M,1,257920,258726,118,230,75,203 F,0,257920,258726,1,0
Sprite,Foreground,Centre,"SB\dot.png",320,240 S,0,257920,,0.2 M,1,257920,258726,118,230,49,286 F,0,257920,258726,1,0
Sprite,Foreground,Centre,"SB\dot.png",320,240 S,0,257920,,0.2 M,1,257920,258726,118,230,63,285 F,0,257920,258726,1,0
Sprite,Foreground,Centre,"SB\dot.png",320,240 S,0,257920,,0.2 M,1,257920,258726,118,230,109,203 F,0,257920,258726,1,0
Sprite,Foreground,Centre,"SB\dot.png",320,240 S,0,257920,,0.2 M,1,257920,258726,118,230,161,161 F,0,257920,258726,1,0
Sprite,Foreground,Centre,"SB\dot.png",320,240 S,0,257998,,0.5 C,0,257998,,255,28,28 M,1,257998,258804,111,188,159,239 F,0,257998,258804,1,0
Sprite,Foreground,Centre,"SB\dot.png",320,240 S,0,257998,,0.5 C,0,257998,,255,28,28 M,1,257998,258804,111,188,180,175 F,0,257998,258804,1,0
Sprite,Foreground,Centre,"SB\dot.png",320,240 S,0,257998,,0.5 C,0,257998,,255,28,28 M,1,257998,258804,111,188,138,123 F,0,257998,258804,1,0
Sprite,Foreground,Centre,"SB\dot.png",320,240 S,0,257998,,0.5 C,0,257998,,255,28,28 M,1,257998,258804,111,188,71,131 F,0,257998,258804,1,0
Sprite,Foreground,Centre,"SB\dot.png",320,240 S,0,257998,,0.5 C,0,257998,,255,28,28 M,1,257998,258804,111,188,41,191 F,0,257998,258804,1,0
Sprite,Foreground,Centre,"SB\dot.png",320,240 S,0,257998,,0.5 C,0,257998,,255,28,28 M,1,257998,258804,111,188,76,248 F,0,257998,258804,1,0
Sprite,Foreground,Centre,"SB\dot.png",320,240 S,0,257998,,0.2 M,1,257998,258804,111,188,170,225 F,0,257998,258804,1,0
Sprite,Foreground,Centre,"SB\dot.png",320,240 S,0,257998,,0.2 M,1,257998,258804,111,188,179,140 F,0,257998,258804,1,0
Sprite,Foreground,Centre,"SB\dot.png",320,240 S,0,257998,,0.2 M,1,257998,258804,111,188,148,126 F,0,257998,258804,1,0
Sprite,Foreground,Centre,"SB\dot.png",320,240 S,0,257998,,0.2 M,1,257998,258804,111,188,95,204 F,0,257998,258804,1,0
Sprite,Foreground,Centre,"SB\dot.png",320,240 S,0,257998,,0.2 M,1,257998,258804,111,188,52,258 F,0,257998,258804,1,0
Sprite,Foreground,Centre,"SB\dot.png",320,240 S,0,257998,,0.2 M,1,257998,258804,111,188,43,208 F,0,257998,258804,1,0
Sprite,Foreground,Centre,"SB\dot.png",320,240 S,0,258076,,0.5 C,0,258076,,255,65,65 M,1,258076,258882,122,148,114,218 F,0,258076,258882,1,0
Sprite,Foreground,Centre,"SB\dot.png",320,240 S,0,258076,,0.5 C,0,258076,,255,65,65 M,1,258076,258882,122,148,176,192 F,0,258076,258882,1,0
Sprite,Foreground,Centre,"SB\dot.png",320,240 S,0,258076,,0.5 C,0,258076,,255,65,65 M,1,258076,258882,122,148,189,126 F,0,258076,258882,1,0
Sprite,Foreground,Centre,"SB\dot.png",320,240 S,0,258076,,0.5 C,0,258076,,255,65,65 M,1,258076,258882,122,148,140,80 F,0,258076,258882,1,0
Sprite,Foreground,Centre,"SB\dot.png",320,240 S,0,258076,,0.5 C,0,258076,,255,65,65 M,1,258076,258882,122,148,75,96 F,0,258076,258882,1,0
Sprite,Foreground,Centre,"SB\dot.png",320,240 S,0,258076,,0.5 C,0,258076,,255,65,65 M,1,258076,258882,122,148,53,160 F,0,258076,258882,1,0
Sprite,Foreground,Centre,"SB\dot.png",320,240 S,0,258076,,0.2 M,1,258076,258882,122,148,132,217 F,0,258076,258882,1,0
Sprite,Foreground,Centre,"SB\dot.png",320,240 S,0,258076,,0.2 M,1,258076,258882,122,148,178,156 F,0,258076,258882,1,0
Sprite,Foreground,Centre,"SB\dot.png",320,240 S,0,258076,,0.2 M,1,258076,258882,122,148,191,83 F,0,258076,258882,1,0
Sprite,Foreground,Centre,"SB\dot.png",320,240 S,0,258076,,0.2 M,1,258076,258882,122,148,164,106 F,0,258076,258882,1,0
Sprite,Foreground,Centre,"SB\dot.png",320,240 S,0,258076,,0.2 M,1,258076,258882,122,148,112,191 F,0,258076,258882,1,0
Sprite,Foreground,Centre,"SB\dot.png",320,240 S,0,258076,,0.2 M,1,258076,258882,122,148,66,212 F,0,258076,258882,1,0
Sprite,Foreground,Centre,"SB\dot.png",320,240 S,0,258154,,0.5 C,0,258154,,255,66,66 M,1,258154,258960,149,116,82,137 F,0,258154,258960,1,0
Sprite,Foreground,Centre,"SB\dot.png",320,240 S,0,258154,,0.5 C,0,258154,,255,66,66 M,1,258154,258960,149,116,131,184 F,0,258154,258960,1,0
Sprite,Foreground,Centre,"SB\dot.png",320,240 S,0,258154,,0.5 C,0,258154,,255,66,66 M,1,258154,258960,149,116,196,168 F,0,258154,258960,1,0
Sprite,Foreground,Centre,"SB\dot.png",320,240 S,0,258154,,0.5 C,0,258154,,255,66,66 M,1,258154,258960,149,116,218,105 F,0,258154,258960,1,0
Sprite,Foreground,Centre,"SB\dot.png",320,240 S,0,258154,,0.5 C,0,258154,,255,66,66 M,1,258154,258960,149,116,177,52 F,0,258154,258960,1,0
Sprite,Foreground,Centre,"SB\dot.png",320,240 S,0,258154,,0.5 C,0,258154,,255,66,66 M,1,258154,258960,149,116,110,58 F,0,258154,258960,1,0
Sprite,Foreground,Centre,"SB\dot.png",320,240 S,0,258154,,0.2 M,1,258154,258960,149,116,90,154 F,0,258154,258960,1,0
Sprite,Foreground,Centre,"SB\dot.png",320,240 S,0,258154,,0.2 M,1,258154,258960,149,116,134,183 F,0,258154,258960,1,0
Sprite,Foreground,Centre,"SB\dot.png",320,240 S,0,258154,,0.2 M,1,258154,258960,149,116,187,113 F,0,258154,258960,1,0
Sprite,Foreground,Centre,"SB\dot.png",320,240 S,0,258154,,0.2 M,1,258154,258960,149,116,217,48 F,0,258154,258960,1,0
Sprite,Foreground,Centre,"SB\dot.png",320,240 S,0,258154,,0.2 M,1,258154,258960,149,116,208,84 F,0,258154,258960,1,0
Sprite,Foreground,Centre,"SB\dot.png",320,240 S,0,258154,,0.2 M,1,258154,258960,149,116,164,168 F,0,258154,258960,1,0
//Storyboard Sound Samples

[TimingPoints]
1045,312.5,4,2,1,50,1,0
1045,-133.333333333333,4,2,1,50,0,0
2920,-100,4,2,1,50,0,0
3545,-133.333333333333,4,2,1,50,0,0
5420,-100,4,2,1,50,0,0
6045,-133.333333333333,4,2,1,50,0,0
6513,-100,4,2,1,50,0,0
6982,-133.333333333333,4,2,1,50,0,0
7451,-100,4,2,1,70,0,0
12763,-80,4,2,1,70,0,0
12920,-100,4,2,1,70,0,0
15263,-80,4,2,1,70,0,0
15732,-100,4,2,1,70,0,0
17763,-80,4,2,1,70,0,0
18545,-100,4,2,1,70,0,0
20263,-80,4,2,1,70,0,0
20420,-133.333333333333,4,2,1,50,0,0
21513,-100,4,2,1,50,0,0
23545,-133.333333333333,4,2,1,50,0,0
24013,-100,4,2,1,50,0,0
26045,-133.333333333333,4,2,1,50,0,0
26513,-100,4,2,1,50,0,0
28545,-133.333333333333,4,2,1,50,0,0
29013,-100,4,2,1,50,0,0
31045,-133.333333333333,4,2,1,50,0,0
36045,-100,4,2,1,70,0,0
37920,-80,4,2,1,70,0,0
41045,-133.333333333333,4,2,1,50,0,0
41513,-100,4,2,1,50,0,0
43545,-133.333333333333,4,2,1,50,0,0
44170,-100,4,2,1,50,0,0
46045,-133.333333333333,4,2,1,50,0,0
46670,-100,4,2,1,50,0,0
48545,-133.333333333333,4,2,1,50,0,0
49170,-100,4,2,1,50,0,0
51045,-133.333333333333,4,2,1,50,0,0
52763,-100,4,2,1,50,0,0
53545,-100,4,2,1,70,0,0
56045,-200,4,2,1,60,0,0
57138,-100,4,2,1,60,0,0
58545,-200,4,2,1,60,0,0
60420,-166.666666666667,4,2,1,60,0,0
61045,-200,4,2,1,60,0,0
62138,-100,4,2,1,60,0,0
64170,-200,4,2,1,60,0,0
65420,-166.666666666667,4,2,1,60,0,0
69638,-100,4,2,1,60,0,0
71045,-133.333333333333,4,2,1,60,0,0
72138,-80,4,2,1,60,0,0
72295,-133.333333333333,4,2,1,60,0,0
74638,-80,4,2,1,70,0,0
75107,-100,4,2,1,70,0,0
75420,-133.333333333333,4,2,1,60,0,0
75732,-200,4,2,1,50,0,0
76045,-90.9090909090909,4,2,1,80,0,1
90420,-80,4,2,1,80,0,1
91045,-133.333333333333,4,2,1,80,0,0
91357,-90.9090909090909,4,2,1,80,0,1
103154,-80,4,2,1,80,0,1
106045,-90.9090909090909,4,2,1,80,0,0
114795,-133.333333333333,4,2,1,50,0,0
115732,-100,4,2,1,50,0,0
116045,-166.666666666667,4,2,1,50,0,0
124091,-125,4,2,1,50,0,0
124482,-100,4,2,1,50,0,0
126045,-133.333333333333,4,2,1,70,0,0
129638,-100,4,2,1,70,0,0
130420,-133.333333333333,4,2,1,70,0,0
130732,-133.333333333333,4,2,1,70,0,0
131045,-200,4,2,1,60,0,0
132138,-100,4,2,1,60,0,0
133545,-200,4,2,1,60,0,0
134951,-100,4,2,1,60,0,0
136045,-200,4,2,1,60,0,0
137138,-100,4,2,1,60,0,0
139170,-200,4,2,1,60,0,0
139795,-166.666666666667,4,2,1,60,0,0
141045,-200,4,2,1,60,0,0
142451,-166.666666666667,4,2,1,60,0,0
144795,-100,4,2,1,60,0,0
145107,-133.333333333333,4,2,1,60,0,0
147138,-79.9999999999999,4,2,1,60,0,0
147295,-133.333333333333,4,2,1,60,0,0
149638,-79.9999999999999,4,2,1,70,0,0
150107,-100,4,2,1,70,0,0
150420,-133.333333333333,4,2,1,60,0,0
150732,-200,4,2,1,50,0,0
151045,-80,4,2,1,80,0,0
151357,-90.9090909090909,4,2,1,80,0,0
153232,-80,4,2,1,80,0,0
153545,-90.9090909090909,4,2,1,80,0,0
154170,-80,4,2,1,80,0,0
154795,-90.9090909090909,4,2,1,80,0,0
155420,-80,4,2,1,80,0,0
158545,-90.9090909090909,4,2,1,80,0,0
159013,-80,4,2,1,80,0,0
163232,-90.9090909090909,4,2,1,80,0,0
163545,-80,4,2,1,80,0,0
165107,-90.9090909090909,4,2,1,80,0,0
165888,-80,4,2,1,80,0,0
168232,-90.9090909090909,4,2,1,80,0,0
168545,-80,4,2,1,80,0,0
169170,-66.6666666666667,4,2,1,80,0,0
169482,-100,4,2,1,80,0,0
170107,-66.6666666666667,4,2,1,80,0,0
171045,-200,4,2,1,70,0,0
173388,-133.333333333333,4,2,1,70,0,0
173545,-100,4,2,1,70,0,0
175576,-133.333333333333,4,2,1,70,0,0
176045,-200,4,2,1,70,0,0
177138,-133.333333333333,4,2,1,70,0,0
178545,-200,4,2,1,70,0,0
179170,-133.333333333333,4,2,1,70,0,0
179638,-100,4,2,1,70,0,0
179951,-133.333333333333,4,2,1,70,0,0
180576,-200,4,2,1,70,0,0
181045,-133.333333333333,4,2,1,70,0,0
182295,-100,4,2,1,70,0,0
183545,-100,4,2,1,70,0,1
183857,-90.9090909090909,4,2,1,80,0,1
188545,-100,4,2,1,60,0,0
189795,-200,4,2,1,60,0,0
191045,-100,4,2,1,60,0,0
192216,-200,4,2,1,60,0,0
193545,-100,4,2,1,60,0,0
194795,-200,4,2,1,60,0,0
196045,-100,4,2,1,60,0,0
198232,-133.333333333333,4,2,1,60,0,0
198545,-100,4,2,1,60,0,0
199482,-200,4,2,1,70,0,0
199795,-80,4,2,1,70,0,0
200420,-200,4,2,1,70,0,0
201045,-100,4,2,1,70,0,0
201982,-200,4,2,1,70,0,0
202295,-66.6666666666667,4,2,1,70,0,0
202607,-80,4,2,1,70,0,0
203545,-133.333333333333,4,2,1,70,0,0
204170,-66.6666666666667,4,2,1,70,0,0
204482,-133.333333333333,4,2,1,70,0,0
205420,-66.6666666666667,4,2,1,70,0,0
205732,-133.333333333333,4,2,1,70,0,0
206045,-80,4,2,1,70,0,0
206982,-100,4,2,1,70,0,0
207685,-80,4,2,1,70,0,0
207920,-200,4,2,1,70,0,0
209795,-90.9090909090909,4,2,1,80,0,1
214482,-80,4,2,1,80,0,1
214795,-90.9090909090909,4,2,1,80,0,1
217138,-80,4,2,1,80,0,1
217295,-133.333333333333,4,2,1,80,0,1
217607,-66.6666666666667,4,2,1,80,0,1
218388,-80,4,2,1,80,0,1
219795,-90.9090909090909,4,2,1,80,0,1
223388,-80,4,2,1,80,0,1
223701,-66.6666666666667,4,2,1,80,0,1
224170,-80,4,2,1,80,0,1
224795,-133.333333333333,4,2,1,80,0,0
225107,-90.9090909090909,4,2,1,80,0,1
227138,-80,4,2,1,80,0,1
227295,-90.9090909090909,4,2,1,80,0,1
228388,-80,4,2,1,80,0,1
229795,-90.9090909090909,4,2,1,80,0,1
231357,-80,4,2,1,80,0,1
232295,-90.9090909090909,4,2,1,80,0,1
234795,-166.666666666667,4,2,1,80,0,1
235107,-90.9090909090909,4,2,1,80,0,1
236357,-66.6666666666667,4,2,1,80,0,1
236982,-90.9090909090909,4,2,1,80,0,1
238545,-200,4,2,1,80,0,1
238857,-80,4,2,1,80,0,1
239795,-133.333333333333,4,2,1,70,0,0
240420,-200,4,2,1,70,0,0
240888,-133.333333333333,4,2,1,70,0,0
241826,-200,4,2,1,70,0,0
242295,-133.333333333333,4,2,1,70,0,0
242920,-200,4,2,1,70,0,0
243388,-133.333333333333,4,2,1,70,0,0
245420,-200,4,2,1,70,0,0
245888,-133.333333333333,4,2,1,70,0,0
246982,-80,4,2,1,70,0,0
247451,-200,4,2,1,70,0,0
248545,-80,4,2,1,70,0,0
249482,-66.6666666666667,4,2,1,70,0,0
249795,-100,4,2,1,70,0,0
258232,-66.6666666666667,4,2,1,70,0,0
258545,-100,4,2,1,70,0,0
259482,-50,4,2,1,70,0,0

[Colours]
Combo1 : 235,160,217
Combo2 : 153,197,206
Combo3 : 148,56,203
Combo4 : 10,100,250
SliderTrackOverride : 17,89,115
SliderBorder : 133,127,210

[HitObjects]
68,32,1045,6,0,L|194:49,1,127.500004863739,12|0,0:1|0:0,0:0:0:0:
376,28,1513,2,0,P|344:26|315:38,1,63.7500024318696,8|2,0:1|0:0,0:0:0:0:
416,136,1826,1,0,3:0:0:0:
428,140,1904,1,0,3:0:0:0:
440,144,1982,6,0,L|313:161,1,127.500004863739,8|2,0:1|0:0,0:0:0:0:
120,184,2451,2,0,P|151:182|180:194,1,63.7500024318696,0|0,0:0|0:0,0:0:0:0:
164,324,2763,1,8,0:1:0:0:
152,320,2841,1,0,3:0:0:0:
140,316,2920,6,2,L|134:267,7,42.5,0|0|0|0|8|0|0|0,0:0|0:0|0:0|0:0|0:1|0:0|0:0|0:0,0:0:0:0:
124,328,3545,6,0,P|88:278|108:218,1,127.500004863739,8|0,0:1|0:0,0:0:0:0:
208,116,4013,2,0,L|144:109,1,63.7500024318696,0|2,0:0|0:0,0:0:0:0:
274,48,4326,1,0,3:0:0:0:
284,35,4404,1,0,3:0:0:0:
287,19,4482,6,0,P|324:68|303:129,1,127.500004863739,8|2,0:1|0:0,0:0:0:0:
256,256,4951,2,0,L|319:249,1,63.7500024318696,0|0,0:0|0:0,0:0:0:0:
140,200,5263,1,8,0:1:0:0:
126,192,5341,1,0,3:0:0:0:
117,177,5420,6,2,L|113:134,7,42.5,0|0|0|0|8|0|0|0,3:0|0:0|0:0|0:0|0:1|0:0|0:0|0:0,0:0:0:0:
132,104,6045,6,0,L|144:230,1,127.500004863739,8|0,0:1|0:0,0:0:0:0:
340,360,6513,2,0,B|355:321|355:321|341:280,1,85,8|2,0:1|0:0,0:0:0:0:
228,316,6826,1,0,3:0:0:0:
240,320,6904,1,0,3:0:0:0:
252,324,6982,6,0,L|124:332,1,127.500004863739,8|2,0:1|0:0,0:0:0:0:
32,184,7451,2,0,B|70:166|70:166|112:175,1,85,0|0,0:0|0:0,0:0:0:0:
232,100,7763,1,8,0:1:0:0:
228,88,7841,1,0,3:0:0:0:
224,76,7920,6,2,L|176:72,7,42.5,0|0|0|0|8|0|0|0,0:0|0:0|0:0|0:0|0:1|0:0|0:0|0:0,0:0:0:0:
244,56,8545,6,0,B|172:80|152:28|77:51,1,170,8|0,0:1|0:0,0:0:0:0:
40,156,9013,1,8,0:1:0:0:
40,248,9170,5,2,0:0:0:0:
64,144,9326,1,0,0:0:0:0:
132,288,9482,5,8,0:1:0:0:
184,172,9638,2,0,L|186:214,1,42.5,0|2,0:0|0:0,0:0:0:0:
132,288,9795,5,2,0:0:0:0:
163,309,9873,1,2,0:0:0:0:
200,314,9951,1,2,0:0:0:0:
236,302,10029,1,2,0:0:0:0:
262,275,10107,1,2,0:0:0:0:
293,253,10185,1,2,0:0:0:0:
330,248,10263,1,2,0:0:0:0:
366,260,10341,1,2,0:0:0:0:
392,287,10420,6,0,L|400:336,1,42.5,2|0,0:0|0:0,0:0:0:0:
312,328,10576,1,0,3:0:0:0:
283,297,10654,1,0,3:0:0:0:
278,255,10732,1,0,3:0:0:0:
298,218,10810,1,0,3:0:0:0:
326,187,10888,1,0,3:0:0:0:
331,145,10966,1,0,3:0:0:0:
311,108,11045,5,12,0:1:0:0:
136,168,11201,2,0,L|220:161,1,85,2|8,0:0|0:0,0:0:0:0:
452,160,11513,2,0,B|470:120|470:120|458:80,1,85,2|8,0:0|0:1,0:0:0:0:
220,56,11826,2,0,B|202:96|202:96|213:135,1,85,2|8,0:0|0:0,0:0:0:0:
372,272,12138,5,2,3:2:0:0:
372,272,12216,1,8,0:0:0:0:
372,272,12295,1,8,0:1:0:0:
208,212,12451,1,2,0:0:0:0:
344,112,12607,1,8,0:0:0:0:
286,272,12763,6,0,L|294:217,1,53.125,10|0,0:1|0:0,0:0:0:0:
344,112,12920,1,0,3:0:0:0:
355,129,12998,1,8,0:0:0:0:
355,150,13076,1,10,0:1:0:0:
120,124,13232,2,0,L|247:131,1,127.5,8|0,0:0|0:0,0:0:0:0:
247,131,13545,6,0,P|235:91|248:52,1,85,10|0,0:1|0:0,0:0:0:0:
316,224,13857,1,8,0:0:0:0:
144,276,14013,1,2,3:2:0:0:
160,272,14091,1,8,0:0:0:0:
176,268,14170,1,8,0:1:0:0:
76,356,14326,1,10,0:1:0:0:
264,364,14482,1,8,0:0:0:0:
134,137,14638,1,2,3:2:0:0:
136,153,14716,1,8,0:0:0:0:
139,169,14795,5,8,0:1:0:0:
316,224,14951,1,2,0:0:0:0:
144,276,15107,1,8,0:0:0:0:
360,132,15263,6,0,P|335:122|309:123,1,53.125,10|0,0:1|0:0,0:0:0:0:
232,172,15420,1,0,3:0:0:0:
232,172,15498,1,8,0:0:0:0:
232,172,15576,1,10,0:1:0:0:
314,347,15732,2,0,B|322:303|322:303|309:267|309:267|316:223,1,127.5,8|0,0:0|0:0,0:0:0:0:
400,256,16045,6,0,L|484:245,1,85,10|0,0:1|0:0,0:0:0:0:
228,316,16357,1,8,0:0:0:0:
349,94,16513,1,2,3:2:0:0:
360,111,16591,1,8,0:0:0:0:
360,132,16670,1,8,0:1:0:0:
232,172,16826,1,10,0:1:0:0:
376,8,16982,1,8,0:0:0:0:
464,184,17138,5,2,3:2:0:0:
464,184,17216,1,8,0:0:0:0:
464,184,17295,1,8,0:1:0:0:
272,136,17451,1,2,0:0:0:0:
500,68,17607,1,8,0:0:0:0:
349,94,17763,6,0,L|408:88,1,53.125,10|0,0:1|0:0,0:0:0:0:
500,68,17920,1,0,3:0:0:0:
496,80,17998,1,8,0:0:0:0:
492,92,18076,1,10,0:1:0:0:
324,296,18232,1,8,0:0:0:0:
496,256,18388,1,0,3:0:0:0:
496,256,18466,1,0,3:0:0:0:
496,256,18545,6,0,P|446:213|378:220,1,127.5,10|0,0:1|0:0,0:0:0:0:
324,296,18857,1,8,0:0:0:0:
464,184,19013,1,2,3:2:0:0:
464,184,19091,1,0,3:0:0:0:
464,184,19170,5,8,0:1:0:0:
312,156,19326,1,10,0:1:0:0:
492,92,19482,1,12,0:0:0:0:
496,256,19638,1,10,0:1:0:0:
200,104,19795,5,12,0:0:0:0:
414,57,19951,1,10,0:1:0:0:
208,128,20107,1,12,0:0:0:0:
464,184,20263,2,0,L|412:175,1,53.125,10|0,0:1|3:0,0:0:0:0:
188,256,20420,6,0,L|250:246,1,63.7500024318696,4|0,0:3|0:0,0:0:0:0:
259,255,20654,1,0,3:0:0:0:
262,267,20732,1,8,0:0:0:0:
128,344,20888,1,2,0:0:0:0:
250,246,21045,6,0,L|123:232,1,127.500004863739,10|8,0:1|0:0,0:0:0:0:
2,113,21513,2,0,B|42:98|42:98|88:109,1,85,2|8,0:0|0:1,0:0:0:0:
83,108,21826,1,8,0:1:0:0:
96,328,21982,2,0,B|56:343|56:343|10:332,1,85,10|0,0:0|0:0,0:0:0:0:
14,333,22216,1,0,3:0:0:0:
14,333,22295,5,8,0:1:0:0:
56,212,22451,2,0,L|140:203,1,85,2|8,0:0|0:0,0:0:0:0:
279,198,22763,1,8,0:1:0:0:
280,213,22841,1,0,3:2:0:0:
272,228,22920,1,2,3:2:0:0:
204,88,23076,1,8,0:1:0:0:
376,140,23232,1,10,0:0:0:0:
160,312,23388,1,0,3:2:0:0:
160,312,23466,1,0,3:2:0:0:
160,312,23545,6,0,P|147:251|183:201,1,127.500004863739,10|8,0:1|0:0,0:0:0:0:
376,140,24013,2,0,P|339:161|298:157,1,85,2|8,0:0|0:1,0:0:0:0:
298,157,24326,1,8,0:1:0:0:
150,29,24482,2,0,P|186:49|203:87,1,85,10|0,0:0|0:0,0:0:0:0:
180,164,24716,1,0,3:2:0:0:
168,172,24795,5,8,0:1:0:0:
248,360,24951,2,0,L|255:275,1,85,2|8,0:0|0:0,0:0:0:0:
298,157,25263,1,8,0:1:0:0:
298,157,25341,1,0,3:2:0:0:
298,157,25420,1,2,3:2:0:0:
376,248,25576,1,8,0:1:0:0:
168,172,25732,1,10,0:0:0:0:
260,56,25888,1,0,3:2:0:0:
260,56,25966,1,0,3:2:0:0:
260,56,26045,6,0,B|317:41|333:75|385:60,1,127.500004863739,10|8,0:1|0:0,0:0:0:0:
512,36,26513,2,0,L|498:119,1,85,2|8,0:0|0:1,0:0:0:0:
498,119,26826,1,8,0:1:0:0:
284,240,26982,2,0,L|297:156,1,85,10|0,0:0|0:0,0:0:0:0:
332,120,27216,1,0,3:2:0:0:
332,120,27295,6,0,P|282:156|217:144,1,127.5,10|0,0:1|0:0,0:0:0:0:
220,146,27607,1,8,0:0:0:0:
20,168,27763,2,0,P|61:165|98:185,1,85,10|0,0:1|3:2,0:0:0:0:
98,185,27998,1,0,3:2:0:0:
98,185,28076,1,8,0:1:0:0:
108,340,28232,1,10,0:0:0:0:
132,112,28388,1,0,3:2:0:0:
132,112,28466,1,0,3:2:0:0:
132,112,28545,6,0,L|155:237,1,127.500004863739,10|8,0:1|0:0,0:0:0:0:
267,328,29013,2,0,P|303:305|353:308,1,85,2|8,0:0|0:1,0:0:0:0:
345,305,29326,1,8,0:1:0:0:
480,172,29482,6,0,B|409:133|387:187|315:146,1,170,12|8,0:0|0:1,0:0:0:0:
372,72,29951,1,2,0:0:0:0:
432,252,30107,1,8,0:0:0:0:
296,168,30263,1,10,0:1:0:0:
300,184,30341,1,0,3:2:0:0:
304,200,30420,5,0,3:2:0:0:
460,72,30576,1,10,0:1:0:0:
208,136,30732,1,8,0:0:0:0:
339,347,30888,2,0,L|345:304,1,42.5,2|0,0:0|3:2,0:0:0:0:
376,280,31045,6,0,L|249:294,1,127.500004863739,10|8,0:1|0:0,0:0:0:0:
140,216,31513,1,2,3:2:0:0:
136,228,31591,1,0,3:2:0:0:
132,240,31670,1,8,0:1:0:0:
236,312,31826,1,8,0:1:0:0:
288,164,31982,1,10,0:0:0:0:
64,176,32138,1,0,3:2:0:0:
64,176,32216,1,0,3:2:0:0:
64,176,32295,6,0,P|125:184|172:142,1,127.500004863739,10|8,0:1|0:0,0:0:0:0:
332,48,32763,1,2,3:1:0:0:
340,64,32841,1,0,3:1:0:0:
340,80,32920,1,8,0:1:0:0:
288,164,33076,1,8,0:1:0:0:
240,12,33232,1,10,0:0:0:0:
124,80,33388,1,8,0:1:0:0:
124,80,33466,1,0,3:2:0:0:
124,80,33545,6,0,L|187:87,1,63.7500024318696,12|0,0:1|0:0,0:0:0:0:
384,168,33857,1,10,0:1:0:0:
172,280,34013,1,0,3:2:0:0:
172,280,34091,1,0,3:2:0:0:
172,280,34170,6,0,L|235:272,1,63.7500024318696,10|8,0:1|0:1,0:0:0:0:
404,164,34482,1,10,0:0:0:0:
208,72,34638,1,8,0:1:0:0:
208,72,34716,1,0,3:2:0:0:
208,72,34795,6,0,L|271:79,1,63.7500024318696,10|8,0:1|0:1,0:0:0:0:
428,160,35107,1,10,0:0:0:0:
248,292,35263,1,0,3:2:0:0:
248,292,35341,1,0,3:2:0:0:
248,292,35420,6,0,L|311:284,1,63.7500024318696,10|8,0:1|0:1,0:0:0:0:
448,160,35732,2,0,L|352:149,1,95.6250036478044,12|0,0:0|0:0,0:0:0:0:
336,132,36045,6,0,B|349:191|349:191|331:236|331:236|342:296,1,170,12|8,0:1|0:0,0:0:0:0:
240,176,36513,1,2,3:2:0:0:
240,176,36591,1,0,3:2:0:0:
240,176,36670,1,8,0:1:0:0:
432,256,36826,1,8,0:1:0:0:
247,291,36982,2,0,L|232:375,1,85,10|0,0:0|0:0,0:0:0:0:
99,131,37295,5,8,0:1:0:0:
115,215,37451,2,0,L|99:131,1,85,2|8,0:0|0:0,0:0:0:0:
224,64,37763,1,8,0:1:0:0:
224,64,37841,1,8,0:1:0:0:
224,64,37920,6,0,P|247:76|276:81,1,53.125,10|0,0:1|3:2,0:0:0:0:
408,96,38076,2,0,P|433:90|459:68,1,53.125,10|0,0:1|3:2,0:0:0:0:
308,56,38232,6,0,B|324:169|324:169|339:126,1,159.375,10|0,0:0|0:0,0:0:0:0:
339,126,38545,5,8,0:1:0:0:
127,169,38701,1,8,0:1:0:0:
356,240,38857,1,12,0:0:0:0:
194,232,39013,5,0,3:2:0:0:
194,232,39091,1,0,3:2:0:0:
194,232,39170,1,8,0:1:0:0:
416,312,39326,1,8,0:1:0:0:
143,373,39482,1,12,0:0:0:0:
323,332,39638,5,0,3:2:0:0:
323,332,39716,1,0,3:2:0:0:
323,332,39795,1,8,0:1:0:0:
109,284,39951,1,8,0:1:0:0:
424,184,40107,5,12,0:0:0:0:
124,104,40263,2,0,L|175:115,1,53.125,8|0,0:1|0:0,0:0:0:0:
404,76,40420,5,12,0:0:0:0:
288,204,40576,1,8,0:0:0:0:
284,184,40654,1,8,0:0:0:0:
288,164,40732,1,8,0:1:0:0:
512,176,41045,6,0,L|384:184,1,127.500004863739,10|8,0:1|0:0,0:0:0:0:
432,360,41513,1,2,0:0:0:0:
432,360,41591,1,0,0:0:0:0:
431,360,41670,2,0,B|448:320|448:320|435:280,1,85,8|8,0:1|0:1,0:0:0:0:
164,304,41982,6,0,B|238:331|254:275|330:296,1,170,10|8,0:0|0:1,0:0:0:0:
184,120,42451,2,0,L|196:208,1,85,2|8,0:0|0:0,0:0:0:0:
296,384,42763,1,8,0:1:0:0:
296,384,42841,1,0,3:2:0:0:
296,384,42920,1,2,3:2:0:0:
404,216,43076,1,8,0:1:0:0:
200,212,43232,1,10,0:0:0:0:
368,312,43388,1,0,3:2:0:0:
348,67,43545,6,0,P|304:110|307:172,1,127.500004863739,10|8,0:1|0:0,0:0:0:0:
172,316,44013,1,2,0:0:0:0:
172,316,44091,1,0,0:0:0:0:
172,316,44170,2,0,P|217:321|258:292,1,85,0|8,0:0|0:1,0:0:0:0:
420,244,44482,6,0,B|361:234|361:234|330:198|330:198|268:186,1,170,10|8,0:0|0:1,0:0:0:0:
412,148,44951,1,2,0:0:0:0:
268,284,45107,1,8,0:0:0:0:
488,304,45263,1,8,0:1:0:0:
312,176,45420,2,0,L|300:124,2,42.5,2|0|8,3:2|0:0|0:1,0:0:0:0:
496,96,45732,2,0,P|511:136|502:176,1,85,10|0,0:0|3:2,0:0:0:0:
397,274,46045,6,0,L|411:147,1,127.500004863739,10|8,0:1|0:0,0:0:0:0:
288,48,46513,1,2,0:0:0:0:
288,48,46591,1,0,0:0:0:0:
288,48,46670,2,0,P|249:61|209:50,1,85,0|8,0:0|0:1,0:0:0:0:
0,192,46982,2,0,P|31:163|38:119,1,85,10|0,0:0|0:0,0:0:0:0:
112,32,47295,6,0,B|132:86|132:86|116:134|116:134|136:191,1,170,10|8,0:1|0:0,0:0:0:0:
272,216,47763,1,10,0:1:0:0:
272,216,47841,1,0,0:0:0:0:
272,216,47920,1,0,3:2:0:0:
20,96,48076,1,8,0:1:0:0:
244,64,48232,1,10,0:0:0:0:
88,212,48388,2,0,L|128:200,1,42.5,0|0,3:2|3:2,0:0:0:0:
148,172,48545,6,0,L|137:299,1,127.500004863739,10|8,0:1|0:0,0:0:0:0:
256,364,49013,1,2,0:0:0:0:
256,364,49091,1,0,0:0:0:0:
256,364,49170,1,0,0:0:0:0:
40,316,49326,1,8,0:1:0:0:
248,216,49482,1,12,0:0:0:0:
108,84,49638,1,0,0:0:0:0:
108,84,49716,1,0,0:0:0:0:
108,84,49795,1,8,0:1:0:0:
145,251,49951,6,0,P|133:210|147:171,1,85,2|8,0:0|0:0,0:0:0:0:
252,48,50263,1,10,0:1:0:0:
252,48,50341,1,0,3:2:0:0:
252,48,50420,6,0,L|246:90,1,42.5,0|0,3:2|0:0,0:0:0:0:
312,156,50576,1,10,0:1:0:0:
392,60,50732,1,8,0:0:0:0:
408,272,50888,2,0,L|402:229,1,42.5,2|0,0:0|3:2,0:0:0:0:
404,203,51045,6,0,P|367:252|381:313,1,127.500004863739,10|8,0:1|0:0,0:0:0:0:
504,188,51513,1,2,3:2:0:0:
504,188,51591,1,0,3:2:0:0:
504,188,51670,1,8,0:1:0:0:
312,112,51826,1,8,0:1:0:0:
488,88,51982,1,10,0:0:0:0:
240,72,52138,1,0,3:2:0:0:
240,72,52216,1,0,3:2:0:0:
240,72,52295,6,0,L|372:56,1,127.500004863739,10|8,0:1|0:0,0:0:0:0:
489,7,52763,2,0,B|502:49|502:49|487:87,1,85,2|8,3:1|0:1,0:0:0:0:
364,280,53076,2,0,B|351:238|351:238|365:199,1,85,8|10,0:1|0:0,0:0:0:0:
365,199,53388,1,8,0:1:0:0:
444,368,53545,5,10,0:1:0:0:
352,88,53701,1,8,0:0:0:0:
272,328,53857,1,8,0:0:0:0:
356,108,54013,1,8,0:1:0:0:
454,242,54170,6,0,B|396:249|366:200|366:200|347:233|310:239,1,170,12|8,0:1|0:1,0:0:0:0:
448,152,54638,1,0,3:2:0:0:
456,136,54716,1,0,3:2:0:0:
456,118,54795,1,8,0:0:0:0:
364,316,54951,1,8,0:0:0:0:
276,152,55107,2,0,L|224:144,2,42.5,8|0|8,0:1|0:0|0:1,0:0:0:0:
454,242,55420,5,8,0:0:0:0:
203,305,55576,1,8,0:3:0:0:
396,324,55732,1,4,0:3:0:0:
273,236,55888,1,8,0:1:0:0:
76,319,56045,6,0,L|202:304,1,127.5,12|8,0:1|0:1,0:0:0:0:
360,232,56670,2,0,L|276:218,1,85,8|0,0:0|0:0,0:0:0:0:
180,328,57138,6,0,L|187:286,2,42.5,8|8|8,0:0|0:0|0:1,0:0:0:0:
112,184,57451,1,8,0:0:0:0:
112,184,57763,5,8,0:1:0:0:
288,164,57920,1,8,0:0:0:0:
168,116,58076,1,8,0:1:0:0:
348,80,58232,2,0,L|264:72,1,85,8|8,0:1|0:1,0:0:0:0:
288,164,58545,6,0,P|317:220|297:284,1,127.5,12|8,0:1|0:1,0:0:0:0:
426,100,59170,2,0,P|383:101|347:79,1,85,8|8,0:0|0:1,0:0:0:0:
492,172,59638,5,8,0:3:0:0:
408,8,59795,1,8,0:1:0:0:
232,116,59951,1,8,0:0:0:0:
426,100,60107,1,8,0:1:0:0:
304,64,60263,1,8,0:1:0:0:
320,280,60420,6,0,P|316:254|326:226,1,50.9999984436036,8|8,0:0|0:1,0:0:0:0:
276,103,60732,2,0,P|284:79|304:64,1,50.9999984436036,8|8,0:1|0:1,0:0:0:0:
348,208,61045,6,0,L|221:197,1,127.5,12|8,0:1|0:1,0:0:0:0:
104,44,61670,2,0,L|188:51,1,85,8|8,0:0|0:1,0:0:0:0:
412,104,62138,6,0,L|370:113,2,42.5,8|8|8,0:0|0:0|0:1,0:0:0:0:
288,48,62451,1,8,0:0:0:0:
288,48,62763,5,8,0:1:0:0:
248,188,62920,1,8,0:0:0:0:
412,104,63076,1,8,0:1:0:0:
192,8,63232,2,0,B|176:47|176:47|187:88,1,85,8|8,0:1|0:1,0:0:0:0:
324,244,63545,1,12,0:1:0:0:
484,180,63701,5,8,0:0:0:0:
416,128,63857,1,8,0:1:0:0:
336,160,64013,1,8,0:1:0:0:
324,244,64170,6,0,L|408:233,1,85,8|8,0:0|0:1,0:0:0:0:
240,360,64638,2,0,L|247:318,1,42.5,8|0,0:3|0:0,0:0:0:0:
199,228,64951,5,8,0:0:0:0:
344,332,65107,1,0,0:0:0:0:
336,160,65263,1,8,0:1:0:0:
181,58,65420,2,0,P|168:80|166:105,1,50.9999984436036,8|8,0:0|0:1,0:0:0:0:
108,240,65732,2,0,P|115:264|136:288,1,50.9999984436036,8|0,0:1|0:0,0:0:0:0:
199,228,65966,1,4,0:3:0:0:
199,228,66045,6,0,L|299:213,1,101.999996887207,12|0,0:1|0:0,0:0:0:0:
404,96,66513,1,8,0:1:0:0:
505,111,66670,2,0,L|404:96,1,101.999996887207,8|8,0:0|0:1,0:0:0:0:
300,40,67138,6,0,P|290:63|290:88,1,50.9999984436036,8|8,0:0|0:1,0:0:0:0:
408,208,67451,2,0,P|433:205|455:192,1,50.9999984436036,8|0,0:0|0:0,0:0:0:0:
304,300,67763,1,8,0:1:0:0:
192,171,67920,1,8,0:0:0:0:
286,192,68076,6,0,P|242:167|192:172,1,101.999996887207,8|8,0:1|0:1,0:0:0:0:
88,236,68545,1,12,0:1:0:0:
99,135,68701,2,0,L|88:236,1,101.999996887207,8|8,0:0|0:1,0:0:0:0:
40,355,69170,2,0,P|61:342|94:338,1,50.9999984436036,8|0,0:0|0:0,0:0:0:0:
320,300,69482,1,8,0:1:0:0:
191,311,69638,5,2,0:0:0:0:
191,311,69716,2,0,P|215:319|231:331,1,42.5,8|8,0:0|0:0,0:0:0:0:
320,300,69951,1,8,0:0:0:0:
112,228,70107,5,8,0:3:0:0:
372,176,70263,1,8,0:3:0:0:
176,140,70420,5,8,0:0:0:0:
360,192,70576,1,0,0:0:0:0:
168,120,70732,5,8,0:1:0:0:
320,84,70888,1,8,0:1:0:0:
244,223,71045,6,0,P|205:272|216:333,1,127.500004863739,12|8,0:1|0:1,0:0:0:0:
383,309,71513,2,0,L|319:299,1,63.7500024318696,2|8,0:0|0:1,0:0:0:0:
232,348,71826,2,0,L|168:357,1,63.7500024318696,2|8,0:0|0:1,0:0:0:0:
32,216,72138,2,0,P|44:192|46:166,1,53.125,2|0,0:0|0:0,0:0:0:0:
47,139,72295,6,0,P|85:188|70:248,1,127.500004863739,8|8,0:1|0:1,0:0:0:0:
176,152,72763,2,0,P|200:132|231:125,1,63.7500024318696,2|8,0:0|0:1,0:0:0:0:
336,36,73076,2,0,P|366:45|393:72,1,63.7500024318696,2|8,0:0|0:1,0:0:0:0:
316,255,73388,1,0,0:0:0:0:
324,128,73545,6,0,L|316:256,1,127.500004863739,12|8,0:1|0:1,0:0:0:0:
260,356,74013,1,8,0:3:0:0:
260,356,74091,2,0,L|354:366,1,95.6250036478044,8|4,0:3|0:3,0:0:0:0:
440,296,74482,1,4,0:3:0:0:
324,127,74638,6,0,B|328:156|304:184|304:184|318:204|322:231,1,106.25,2|12,0:0|0:1,0:0:0:0:
411,194,75107,6,0,L|466:206,2,56.6666666666667,2|0|0,3:2|3:2|3:2,0:0:0:0:
215,131,75420,6,0,L|154:135,2,42.5000016212464,2|0|0,3:2|3:2|3:2,0:0:0:0:
403,58,75732,6,0,L|444:44,2,28.3333333333333,2|0|0,3:2|3:2|3:2,0:0:0:0:
317,138,76045,6,0,B|224:158|232:83|140:99,1,187.000005706787,12|8,0:1|0:0,0:0:0:0:
292,0,76513,1,2,3:2:0:0:
297,22,76591,1,0,3:2:0:0:
292,45,76670,1,8,0:1:0:0:
157,200,76826,1,10,0:1:0:0:
362,261,76982,1,8,0:0:0:0:
262,206,77138,6,0,P|306:154|374:148,1,140.25000428009,10|0,0:1|0:0,0:0:0:0:
454,188,77451,1,10,0:1:0:0:
204,99,77607,1,8,0:0:0:0:
239,376,77763,2,0,P|230:329|222:283,1,93.5000028533936,2|8,3:2|0:1,0:0:0:0:
364,113,78076,2,0,P|356:67|348:21,1,93.5000028533936,10|8,0:1|0:0,0:0:0:0:
376,224,78388,1,2,3:2:0:0:
376,224,78466,1,0,3:2:0:0:
376,224,78545,6,0,B|287:239|300:161|200:183,1,187.000005706787,8|8,0:1|0:0,0:0:0:0:
214,332,79013,1,2,3:2:0:0:
226,312,79091,1,0,3:2:0:0:
228,288,79170,1,8,0:1:0:0:
95,134,79326,1,10,0:1:0:0:
3,300,79482,1,8,0:0:0:0:
124,272,79638,1,2,3:2:0:0:
124,272,79716,1,0,3:2:0:0:
124,272,79795,5,8,0:1:0:0:
166,99,79951,2,0,P|120:93|74:88,1,93.5000028533936,2|8,0:0|0:0,0:0:0:0:
230,268,80263,2,0,P|299:257|368:247,1,140.25000428009,10|0,0:1|0:0,0:0:0:0:
399,245,80576,1,10,0:1:0:0:
282,157,80732,1,8,0:0:0:0:
137,317,80888,1,2,3:2:0:0:
125,296,80966,1,0,3:2:0:0:
124,272,81045,5,8,0:1:0:0:
297,343,81201,1,0,0:0:0:0:
249,55,81357,2,0,L|243:148,1,93.5000028533936,8|2,0:0|3:2,0:0:0:0:
235,235,81591,1,0,3:2:0:0:
234,258,81670,1,8,0:1:0:0:
141,169,81826,1,10,0:1:0:0:
347,191,81982,1,8,0:0:0:0:
178,367,82138,1,2,3:2:0:0:
199,358,82216,1,0,3:2:0:0:
222,359,82295,5,8,0:1:0:0:
410,272,82451,2,0,P|368:291|321:285,1,93.5000028533936,2|8,0:0|0:0,0:0:0:0:
221,64,82763,2,0,P|225:86|229:109,1,46.7500014266968,10|0,0:1|3:2,0:0:0:0:
251,204,82920,1,0,3:2:0:0:
316,11,83076,1,10,0:1:0:0:
60,251,83232,2,0,P|68:204|75:158,1,93.5000028533936,8|2,0:0|3:2,0:0:0:0:
76,159,83466,1,0,3:2:0:0:
76,159,83545,6,0,B|168:141|157:219|253:202,1,187.000005706787,8|10,0:1|0:0,0:0:0:0:
398,95,84013,1,0,3:2:0:0:
375,89,84091,1,0,3:2:0:0:
351,92,84170,1,10,0:1:0:0:
91,261,84326,1,8,0:1:0:0:
236,113,84482,1,10,0:0:0:0:
316,298,84638,1,0,3:2:0:0:
316,298,84716,1,0,3:2:0:0:
316,298,84795,5,10,0:1:0:0:
143,78,84951,1,8,0:1:0:0:
28,321,85107,1,10,0:0:0:0:
223,17,85263,2,0,L|285:9,2,46.7500014266968,8|0|2,0:1|3:2|3:2,0:0:0:0:
328,148,85576,1,8,0:1:0:0:
123,186,85732,2,0,P|169:192|215:200,1,93.5000028533936,10|0,0:0|3:2,0:0:0:0:
439,177,85966,1,0,3:2:0:0:
439,177,86045,6,0,B|382:185|327:148|327:148|342:184|336:215,1,187.000005706787,12|8,0:1|0:0,0:0:0:0:
267,339,86513,1,2,3:2:0:0:
258,317,86591,1,0,3:2:0:0:
258,293,86670,1,8,0:1:0:0:
407,75,86826,1,2,0:1:0:0:
422,268,86982,1,8,0:0:0:0:
177,167,87138,6,0,P|244:172|295:127,1,140.25000428009,10|0,0:1|0:0,0:0:0:0:
311,48,87451,1,10,0:1:0:0:
332,235,87607,1,8,0:0:0:0:
215,9,87763,2,0,P|210:31|207:55,2,46.7500014266968,10|0|0,0:1|3:2|3:2,0:0:0:0:
398,156,88076,1,10,0:1:0:0:
142,292,88232,2,0,P|187:281|233:276,1,93.5000028533936,8|2,0:0|3:2,0:0:0:0:
363,320,88466,1,0,3:2:0:0:
363,320,88545,6,0,B|314:358|314:358|333:227,1,187.000005706787,8|12,0:1|0:0,0:0:0:0:
398,156,89013,1,0,0:0:0:0:
213,64,89170,2,0,P|226:110|232:156,1,93.5000028533936,10|8,0:1|0:1,0:0:0:0:
115,349,89482,1,10,0:0:0:0:
55,259,89638,6,0,P|144:246|209:309,1,187.000005706787,8|8,0:1|0:1,0:0:0:0:
398,156,90107,2,0,P|331:172|268:143,1,140.25000428009,10|0,0:0|0:0,0:0:0:0:
155,61,90420,6,0,L|162:113,1,53.125,10|0,0:1|0:0,0:0:0:0:
136,253,90576,1,8,0:0:0:0:
151,231,90654,1,8,0:0:0:0:
175,220,90732,1,8,0:0:0:0:
306,286,90888,1,8,0:3:0:0:
290,283,90966,1,0,3:2:0:0:
275,281,91045,6,0,L|268:184,1,95.6250036478044,12|0,0:1|0:0,0:0:0:0:
162,113,91357,6,0,B|255:91|248:164|340:146,1,187.000005706787,12|8,0:0|0:1,0:0:0:0:
314,43,91826,1,10,0:1:0:0:
187,215,91982,1,8,0:0:0:0:
472,256,92138,6,0,L|458:116,1,140.25000428009,10|0,0:1|0:0,0:0:0:0:
454,87,92451,1,10,0:1:0:0:
368,318,92607,1,8,0:0:0:0:
293,192,92763,2,0,P|315:197|338:204,2,46.7500014266968,2|0|8,3:2|3:2|0:1,0:0:0:0:
198,264,93076,1,10,0:1:0:0:
300,71,93232,1,8,0:0:0:0:
393,134,93388,1,2,3:2:0:0:
393,134,93466,1,0,3:2:0:0:
393,134,93545,6,0,P|342:184|236:168,1,187.000005706787,8|8,0:1|0:0,0:0:0:0:
130,44,94013,1,2,3:2:0:0:
141,64,94091,1,0,3:2:0:0:
145,87,94170,1,8,0:1:0:0:
24,204,94326,2,0,P|30:157|36:111,1,93.5000028533936,10|8,0:1|0:0,0:0:0:0:
130,293,94638,1,2,3:2:0:0:
130,293,94716,1,0,3:2:0:0:
130,293,94795,5,8,0:1:0:0:
299,226,94951,1,2,0:0:0:0:
190,167,95107,1,8,0:0:0:0:
408,197,95263,2,0,P|401:243|397:289,1,93.5000028533936,10|0,0:1|3:2,0:0:0:0:
279,114,95576,2,0,P|274:67|268:21,1,93.5000028533936,10|8,0:1|0:0,0:0:0:0:
80,158,95888,2,0,P|102:153|125:148,1,46.7500014266968,2|0,3:2|3:2,0:0:0:0:
299,226,96045,6,0,B|211:204|206:275|118:252,1,187.000005706787,12|8,0:1|0:0,0:0:0:0:
255,377,96513,1,2,3:2:0:0:
263,355,96591,1,0,3:2:0:0:
263,331,96670,1,8,0:1:0:0:
142,155,96826,1,10,0:1:0:0:
356,116,96982,1,8,0:0:0:0:
373,233,97138,6,0,P|304:230|257:177,1,140.25000428009,2|0,3:2|0:0,0:0:0:0:
252,154,97451,1,2,0:0:0:0:
472,149,97607,1,8,0:0:0:0:
369,341,97763,2,0,P|414:329|460:319,1,93.5000028533936,10|0,0:1|3:2,0:0:0:0:
326,67,98076,2,0,P|280:57|234:45,1,93.5000028533936,10|8,0:1|0:0,0:0:0:0:
75,227,98388,1,2,3:2:0:0:
75,227,98466,1,0,3:2:0:0:
75,227,98545,6,0,P|141:246|203:215,1,140.25000428009,8|0,0:1|0:0,0:0:0:0:
300,179,98857,2,0,L|278:300,1,93.5000028533936,10|0,0:0|3:2,0:0:0:0:
356,348,99170,5,10,0:1:0:0:
128,135,99326,1,8,0:1:0:0:
371,80,99482,1,10,0:0:0:0:
74,226,99638,1,0,3:2:0:0:
283,270,99795,5,10,0:1:0:0:
49,56,99951,2,0,P|94:46|140:36,1,93.5000028533936,8|10,0:1|0:0,0:0:0:0:
333,130,100263,1,8,0:1:0:0:
310,136,100341,1,0,3:2:0:0:
287,142,100420,1,2,3:2:0:0:
214,319,100576,1,8,0:1:0:0:
100,160,100732,2,0,P|80:202|80:248,1,93.5000028533936,10|0,0:0|3:2,0:0:0:0:
305,384,101045,6,0,P|323:316|300:251,1,140.25000428009,12|0,0:1|0:0,0:0:0:0:
272,227,101357,2,0,L|393:212,1,93.5000028533936,8|2,0:0|3:2,0:0:0:0:
445,287,101670,1,8,0:1:0:0:
304,118,101826,1,2,0:1:0:0:
214,319,101982,1,8,0:0:0:0:
324,26,102138,6,0,B|260:10|248:54|185:36,1,140.25000428009,10|0,0:1|0:0,0:0:0:0:
99,8,102451,2,0,P|110:54|119:100,1,93.5000028533936,10|8,0:1|0:0,0:0:0:0:
225,213,102763,6,0,B|289:197|301:241|363:223,1,140.25000428009,10|0,0:1|0:0,0:0:0:0:
449,195,103076,2,0,P|437:240|428:286,1,93.5000028533936,10|8,0:1|0:0,0:0:0:0:
448,376,103310,1,0,0:0:0:0:
448,376,103388,1,2,3:2:0:0:
152,260,103545,5,12,0:1:0:0:
320,212,103701,1,2,0:0:0:0:
104,176,103857,5,12,0:0:0:0:
404,256,104013,1,0,0:0:0:0:
58,259,104170,5,10,0:1:0:0:
400,157,104326,1,8,0:1:0:0:
53,94,104482,5,10,0:0:0:0:
495,203,104638,1,12,0:1:0:0:
104,176,104795,5,2,0:0:0:0:
379,130,104951,2,0,L|323:122,1,53.125,8|0,0:1|0:0,0:0:0:0:
152,260,105107,1,10,0:0:0:0:
288,344,105263,5,8,0:0:0:0:
299,332,105341,1,8,0:0:0:0:
303,316,105420,2,0,L|295:263,1,53.125,8|0,0:0|0:0,0:0:0:0:
192,60,105576,5,8,0:0:0:0:
203,72,105654,1,8,0:0:0:0:
207,88,105732,2,0,L|199:141,1,53.125,8|0,0:0|0:0,0:0:0:0:
43,287,105888,5,8,0:0:0:0:
54,275,105966,1,8,0:0:0:0:
58,259,106045,1,12,0:1:0:0:
256,192,106123,12,0,108545,0:0:0:0:
102,128,114795,5,2,0:0:0:0:
115,136,114873,1,2,0:0:0:0:
132,143,114951,1,2,0:0:0:0:
153,148,115029,1,2,0:0:0:0:
178,150,115107,1,2,0:0:0:0:
206,147,115185,1,2,0:0:0:0:
236,136,115263,1,2,0:0:0:0:
269,124,115341,1,2,0:0:0:0:
307,124,115420,1,2,0:0:0:0:
346,137,115498,1,2,0:0:0:0:
379,166,115576,1,2,0:0:0:0:
397,210,115654,1,2,0:0:0:0:
394,260,115732,2,0,L|386:301,1,42.5,2|0,0:0|0:0,0:0:0:0:
291,224,116045,6,0,L|306:123,1,101.999996887207,12|8,0:1|0:1,0:0:0:0:
179,55,116513,2,0,B|159:100|159:100|177:149,1,101.999996887207,2|0,0:0|0:0,0:0:0:0:
264,104,116982,1,8,0:1:0:0:
84,36,117138,1,8,0:0:0:0:
120,180,117295,6,0,L|169:166,1,50.9999984436036,8|0,0:1|0:0,0:0:0:0:
364,224,117607,2,0,L|263:206,1,101.999996887207,8|8,0:1|0:1,0:0:0:0:
264,104,118076,2,0,L|278:46,1,50.9999984436036,0|8,0:0|0:1,0:0:0:0:
120,180,118388,1,2,0:0:0:0:
120,180,118466,1,2,0:0:0:0:
120,179,118545,6,0,P|97:221|110:278,1,101.999996887207,8|8,0:1|0:1,0:0:0:0:
212,332,119013,1,0,0:0:0:0:
292,292,119170,5,8,0:1:0:0:
212,332,119326,1,0,0:0:0:0:
300,384,119482,5,8,0:1:0:0:
210,232,119638,1,8,0:0:0:0:
112,312,119795,5,8,0:1:0:0:
292,292,119951,2,0,P|315:250|302:193,1,101.999996887207,8|0,0:0|0:0,0:0:0:0:
228,84,120420,2,0,L|219:134,1,50.9999984436036,8|0,0:1|0:0,0:0:0:0:
219,134,120654,1,0,0:0:0:0:
219,134,120732,1,8,0:1:0:0:
316,124,120888,1,8,0:0:0:0:
128,92,121045,6,0,L|8:88,1,101.999996887207,8|8,0:1|0:1,0:0:0:0:
140,188,121513,1,0,0:0:0:0:
56,236,121670,1,8,0:1:0:0:
232,228,121826,5,8,0:0:0:0:
80,112,121982,1,8,0:1:0:0:
140,188,122138,1,0,3:2:0:0:
140,188,122216,1,0,3:2:0:0:
140,188,122295,6,0,L|144:308,1,101.999996887207,8|8,0:1|0:1,0:0:0:0:
292,320,122763,1,0,0:0:0:0:
200,368,122920,1,8,0:1:0:0:
388,356,123076,5,8,0:0:0:0:
232,228,123232,1,8,0:1:0:0:
360,240,123388,1,8,0:3:0:0:
360,240,123466,1,8,0:3:0:0:
360,240,123545,6,0,L|366:189,1,50.9999984436036,8|0,0:1|0:0,0:0:0:0:
421,100,123857,1,8,0:1:0:0:
320,104,124013,5,8,0:1:0:0:
320,104,124091,2,0,L|421:100,1,102,8|8,0:1|0:3,0:0:0:0:
485,245,124482,2,0,B|443:241|443:241|423:234|423:234|404:239|404:239|359:239,1,127.5,8|0,0:3|0:0,0:0:0:0:
360,240,124795,5,10,0:1:0:0:
344,272,125107,1,2,0:0:0:0:
248,320,125420,1,2,0:0:0:0:
116,276,125732,1,2,0:0:0:0:
112,132,126045,6,0,B|124:184|92:204|104:260,1,127.500004863739,12|8,0:1|0:0,0:0:0:0:
220,188,126513,1,0,3:2:0:0:
235,188,126591,1,0,3:2:0:0:
249,181,126670,1,8,0:1:0:0:
112,132,126826,1,8,0:1:0:0:
328,112,126982,1,8,0:0:0:0:
224,36,127138,1,0,3:2:0:0:
224,36,127216,1,0,3:2:0:0:
224,36,127295,6,0,L|216:104,1,63.7500024318696,8|0,0:1|0:0,0:0:0:0:
352,216,127607,1,8,0:0:0:0:
252,320,127763,1,0,3:2:0:0:
248,304,127841,1,0,3:2:0:0:
244,288,127920,1,0,0:0:0:0:
420,144,128076,1,8,0:1:0:0:
512,288,128232,2,0,L|417:271,1,95.6250036478044,8|0,0:0|0:0,0:0:0:0:
351,216,128545,6,0,P|369:189|373:158,1,63.7500024318696,12|0,0:1|0:0,0:0:0:0:
252,24,128857,1,8,0:0:0:0:
88,212,129013,1,0,3:2:0:0:
88,212,129091,1,0,3:2:0:0:
88,212,129170,6,8,P|70:185|66:154,1,63.7500024318696,10|8,0:1|0:1,0:0:0:0:
268,40,129482,1,8,0:0:0:0:
351,216,129638,2,0,L|309:205,1,42.5,8|0,0:1|0:0,0:0:0:0:
172,164,129795,6,0,B|234:156|234:156|266:123|266:123|327:115,1,170,12|8,0:1|0:0,0:0:0:0:
419,83,130341,5,8,0:0:0:0:
419,83,130420,1,8,0:0:0:0:
495,199,130576,1,8,0:3:0:0:
461,298,130732,1,4,0:3:0:0:
376,321,130888,1,8,0:1:0:0:
328,305,131045,6,0,P|273:273|212:285,1,127.5,12|8,0:1|0:1,0:0:0:0:
24,223,131670,2,0,P|57:199|102:202,1,85,8|8,0:0|0:1,0:0:0:0:
223,134,132138,6,0,L|214:175,2,42.5,8|8|8,0:0|0:0|0:1,0:0:0:0:
284,288,132451,1,8,0:0:0:0:
284,288,132763,5,8,0:1:0:0:
412,232,132920,1,8,0:0:0:0:
208,192,133076,1,8,0:1:0:0:
277,366,133232,2,0,P|294:330|281:285,1,85,0|8,0:0|0:1,0:0:0:0:
64,312,133545,6,0,L|191:322,1,127.5,12|8,0:1|0:1,0:0:0:0:
12,224,134170,2,0,L|4:140,1,85,8|8,0:0|0:1,0:0:0:0:
108,84,134638,5,8,0:0:0:0:
136,220,134795,1,8,0:1:0:0:
56,28,134951,2,0,P|113:51|172:30,1,127.5,8|0,0:0|0:0,0:0:0:0:
264,48,135263,1,8,0:1:0:0:
272,64,135341,1,8,0:1:0:0:
274,82,135420,5,8,0:1:0:0:
136,220,135576,1,8,0:1:0:0:
328,196,135732,1,0,0:1:0:0:
136,220,135888,1,8,0:1:0:0:
384,256,136045,6,0,B|325:228|325:228|266:250,1,127.5,12|8,0:1|0:1,0:0:0:0:
476,320,136670,2,0,L|486:235,1,85,8|8,0:0|0:3,0:0:0:0:
324,332,137138,6,0,L|331:373,2,42.5,8|0|8,0:3|3:2|0:1,0:0:0:0:
476,216,137451,1,8,0:0:0:0:
280,220,137607,1,0,0:0:0:0:
471,352,137763,5,8,0:1:0:0:
479,338,137841,1,8,0:1:0:0:
476,320,137920,1,8,0:0:0:0:
348,124,138076,2,0,B|405:134|405:134|453:109|453:109|510:118,1,170,8|8,0:1|0:1,0:0:0:0:
476,216,138545,1,8,0:1:0:0:
388,28,138701,5,8,0:0:0:0:
296,12,138857,1,0,0:0:0:0:
228,76,139013,1,8,0:1:0:0:
228,76,139091,1,8,0:1:0:0:
228,76,139170,2,0,L|238:160,1,85,8|8,0:0|0:1,0:0:0:0:
72,80,139638,1,8,0:0:0:0:
80,224,139795,6,0,L|94:174,1,50.9999984436036,8|8,0:1|0:0,0:0:0:0:
277,269,140107,2,0,B|244:284|244:284|205:273,1,76.4999976654053,8|8,0:1|0:0,0:0:0:0:
206,274,140420,5,8,0:3:0:0:
228,76,140576,1,8,0:3:0:0:
12,172,140732,1,4,0:3:0:0:
151,188,140888,1,4,0:3:0:0:
354,94,141045,6,0,L|227:75,1,127.5,12|8,0:1|0:1,0:0:0:0:
148,24,141591,1,8,0:1:0:0:
148,23,141670,2,0,P|126:58|131:99,1,85,8|8,0:0|0:1,0:0:0:0:
244,240,142138,5,8,0:0:0:0:
227,75,142295,1,8,0:1:0:0:
102,201,142451,2,0,L|152:188,1,50.9999984436036,8|0,0:0|0:0,0:0:0:0:
360,184,142763,1,8,0:1:0:0:
376,300,142920,2,0,P|351:303|327:295,1,50.9999984436036,8|8,0:0|0:1,0:0:0:0:
208,368,143232,2,0,P|192:349|185:323,1,50.9999984436036,0|8,0:0|0:1,0:0:0:0:
244,240,143545,1,12,0:1:0:0:
88,148,143701,5,0,0:0:0:0:
168,116,143857,1,0,0:0:0:0:
244,152,144013,1,8,0:1:0:0:
244,240,144170,6,0,L|193:246,1,50.9999984436036,8|0,0:0|0:0,0:0:0:0:
252,64,144482,2,0,L|302:70,1,50.9999984436036,8|8,0:0|0:0,0:0:0:0:
404,128,144716,1,8,0:1:0:0:
404,128,144795,6,0,B|437:120|437:120|454:122|454:122|492:113,1,85,12|0,0:0|0:0,0:0:0:0:
328,68,145107,5,0,3:2:0:0:
316,78,145185,1,0,3:2:0:0:
306,91,145263,1,8,0:1:0:0:
300,106,145341,1,8,0:1:0:0:
298,121,145420,1,8,0:1:0:0:
298,137,145498,1,8,0:1:0:0:
303,153,145576,1,8,0:1:0:0:
299,338,145732,5,8,0:1:0:0:
311,319,145810,1,8,0:1:0:0:
314,297,145888,1,8,0:1:0:0:
308,276,145966,1,8,0:1:0:0:
294,259,146045,6,0,B|167:246,1,127.500004863739,12|8,0:1|0:1,0:0:0:0:
156,184,146513,2,0,L|167:246,1,63.7500024318696,2|8,0:0|0:1,0:0:0:0:
60,324,146826,2,0,L|48:261,1,63.7500024318696,2|8,0:0|0:1,0:0:0:0:
56,90,147138,2,0,P|78:74|104:70,1,53.125,2|0,0:0|0:0,0:0:0:0:
180,84,147295,6,0,B|135:79|135:79|100:96|100:96|57:90,1,127.500004863739,8|8,0:1|0:1,0:0:0:0:
140,242,147763,2,0,P|155:214|155:183,1,63.7500024318696,2|8,0:0|0:1,0:0:0:0:
280,64,148076,2,0,P|271:34|237:7,1,63.7500024318696,2|8,0:0|0:1,0:0:0:0:
396,160,148388,1,0,0:0:0:0:
282,182,148545,6,0,P|343:194|396:160,1,127.500004863739,12|8,0:1|0:1,0:0:0:0:
476,352,149013,1,8,0:3:0:0:
476,352,149091,2,0,P|476:305|506:268,1,95.6250036478044,8|4,0:3|0:3,0:0:0:0:
340,308,149482,1,4,0:3:0:0:
241,304,149638,6,0,B|274:290|274:290|303:312|340:308,1,106.25,2|12,0:0|0:1,0:0:0:0:
344,136,150107,6,0,P|347:108|362:84,2,56.6666666666667,2|0|0,3:2|3:2|3:2,0:0:0:0:
241,304,150420,6,0,P|244:325|252:344,2,42.5000016212464,2|0|0,3:2|3:2|3:2,0:0:0:0:
108,212,150732,6,0,P|95:204|83:190,2,28.3333333333333,2|0|0,3:2|3:2|3:2,0:0:0:0:
116,308,151045,6,0,B|169:307|188:263|188:263|201:295|241:303,1,159.375,12|0,0:1|0:0,0:0:0:0:
368,224,151357,2,0,L|274:216,1,93.5000028533936,12|0,0:0|0:0,0:0:0:0:
20,268,151670,1,8,0:1:0:0:
200,384,151826,1,8,0:1:0:0:
224,128,151982,1,8,0:0:0:0:
116,308,152138,6,0,B|136:267|136:267|122:221,1,93.5000028533936,8|2,0:1|0:0,0:0:0:0:
288,52,152451,1,8,0:1:0:0:
374,137,152607,2,0,B|354:178|354:178|368:224,1,93.5000028533936,8|0,0:0|0:0,0:0:0:0:
508,204,152920,2,0,L|458:193,1,46.7500014266968,2|0,0:0|0:0,0:0:0:0:
312,300,153076,1,8,0:1:0:0:
75,127,153232,6,0,P|100:152|135:159,1,70.8333333333333,10|0,0:0|0:0,0:0:0:0:
224,128,153440,1,10,0:1:0:0:
358,100,153545,6,0,B|326:64|326:64|238:80|238:80|224:127,1,187.000005706787,10|8,0:1|0:0,0:0:0:0:
312,244,154013,1,0,3:2:0:0:
312,244,154091,1,8,0:0:0:0:
312,244,154170,2,0,L|304:188,1,53.125,8|0,0:1|0:0,0:0:0:0:
400,304,154326,1,8,0:1:0:0:
208,280,154482,1,8,0:0:0:0:
357,100,154638,2,0,L|304:93,1,53.125,8|0,0:1|0:0,0:0:0:0:
201,23,154795,6,0,B|224:131|224:131|194:98|147:105,1,187.000005706787,2|8,0:0|0:0,0:0:0:0:
12,168,155263,1,0,3:2:0:0:
12,168,155341,1,8,0:0:0:0:
12,168,155420,2,0,L|64:157,1,53.125,8|0,0:1|0:0,0:0:0:0:
156,200,155576,1,8,0:1:0:0:
12,288,155732,1,8,0:0:0:0:
44,12,155888,2,0,P|36:37|38:63,1,53.125,8|0,0:1|0:0,0:0:0:0:
124,96,156045,5,12,0:1:0:0:
12,168,156201,1,2,0:0:0:0:
169,305,156357,2,0,L|155:199,1,106.25,8|0,0:0|0:0,0:0:0:0:
155,199,156591,2,0,P|179:209|205:212,1,53.125,8|8,0:0|0:1,0:0:0:0:
12,288,156826,1,0,0:0:0:0:
292,156,156982,1,8,0:0:0:0:
44,12,157138,1,0,0:0:0:0:
204,120,157295,5,8,0:1:0:0:
204,120,157373,2,0,B|157:96|157:96|107:116,1,106.25,8|0,0:0|0:0,0:0:0:0:
2,115,157607,2,0,L|11:167,1,53.125,8|0,0:0|0:0,0:0:0:0:
128,348,157763,1,0,3:2:0:0:
128,348,157841,1,8,0:0:0:0:
128,348,157920,2,0,L|137:295,1,53.125,8|0,0:1|0:0,0:0:0:0:
156,200,158076,1,8,0:1:0:0:
388,112,158232,6,0,P|403:143|399:178,1,70.8333333333333,8|0,0:0|0:0,0:0:0:0:
360,272,158440,1,8,0:1:0:0:
213,271,158545,6,0,B|275:273|302:222|302:222|319:260|360:272,1,187.000005706787,12|8,0:1|0:0,0:0:0:0:
200,168,159013,2,0,L|147:158,2,53.125,0|8|8,3:2|0:0|0:1,0:0:0:0:
300,368,159326,1,8,0:1:0:0:
392,184,159482,1,8,0:0:0:0:
205,321,159638,2,0,P|203:295|213:271,1,53.125,0|8,3:2|0:0,0:0:0:0:
300,368,159795,1,8,0:1:0:0:
460,256,159951,5,8,0:0:0:0:
444,252,160029,1,8,0:0:0:0:
428,248,160107,2,0,L|416:196,1,53.125,8|0,0:0|0:0,0:0:0:0:
168,176,160263,5,8,0:0:0:0:
184,172,160341,1,8,0:0:0:0:
200,168,160420,2,0,L|211:116,1,53.125,8|0,0:0|0:0,0:0:0:0:
460,88,160576,5,8,0:0:0:0:
444,84,160654,1,8,0:0:0:0:
428,80,160732,2,0,L|416:28,1,53.125,8|0,0:0|0:0,0:0:0:0:
335,150,160888,5,8,0:3:0:0:
315,175,160966,1,8,0:3:0:0:
288,190,161045,1,8,0:1:0:0:
256,195,161123,1,8,0:1:0:0:
226,187,161201,1,8,0:1:0:0:
200,168,161279,1,8,0:1:0:0:
172,192,161357,5,12,0:0:0:0:
127,162,161435,1,8,0:1:0:0:
79,162,161513,1,8,0:1:0:0:
42,182,161591,1,8,0:1:0:0:
19,212,161670,1,8,0:1:0:0:
12,243,161748,1,8,0:1:0:0:
13,269,161826,1,8,0:1:0:0:
20,288,161904,1,8,0:1:0:0:
6,332,161982,6,0,P|26:315|51:307,1,53.125,12|8,0:0|0:1,0:0:0:0:
154,278,162138,2,0,P|178:287|202:309,1,53.125,8|8,0:1|0:1,0:0:0:0:
266,378,162295,5,8,0:1:0:0:
285,359,162373,1,8,0:1:0:0:
298,335,162451,1,8,0:1:0:0:
302,309,162529,1,8,0:1:0:0:
299,283,162607,1,12,0:0:0:0:
289,259,162685,1,8,0:1:0:0:
271,239,162763,1,8,0:1:0:0:
252,220,162841,1,8,0:1:0:0:
239,196,162920,1,8,0:1:0:0:
235,170,162998,1,8,0:1:0:0:
238,144,163076,1,8,0:1:0:0:
248,120,163154,1,8,0:1:0:0:
265,100,163232,6,0,P|331:103|346:166,1,140.25000428009,12|0,0:0|0:0,0:0:0:0:
336,175,163545,6,0,P|309:179|284:186,1,53.125,10|0,0:1|0:0,0:0:0:0:
160,64,163701,2,0,P|135:55|112:41,1,53.125,10|0,0:1|0:0,0:0:0:0:
72,215,163857,2,0,P|46:223|22:235,1,53.125,10|0,0:0|0:0,0:0:0:0:
156,156,164013,1,10,0:1:0:0:
140,376,164170,6,0,P|147:348|155:325,1,53.125,10|0,0:1|0:0,0:0:0:0:
143,104,164326,2,0,P|147:130|155:155,1,53.125,10|0,0:1|0:0,0:0:0:0:
336,175,164482,2,0,P|356:158|388:145,1,53.125,8|0,0:0|0:0,0:0:0:0:
208,240,164638,1,10,0:1:0:0:
359,268,164795,6,0,B|280:284|291:224|207:240,1,159.375,2|0,0:1|0:0,0:0:0:0:
319,91,165107,2,0,P|343:129|336:175,1,93.5000028533936,12|0,0:0|0:0,0:0:0:0:
228,328,165420,1,8,0:1:0:0:
155,155,165576,1,8,0:1:0:0:
424,200,165732,1,8,0:0:0:0:
248,216,165888,2,0,P|240:190|242:164,1,53.125,0|0,3:2|3:2,0:0:0:0:
332,272,166045,5,12,0:1:0:0:
120,240,166201,1,8,0:1:0:0:
318,91,166357,2,0,B|283:94|283:94|253:83|253:83|213:88,1,106.25,8|0,0:0|0:0,0:0:0:0:
204,35,166591,2,0,L|214:88,1,53.125,8|8,0:0|0:1,0:0:0:0:
52,168,166826,1,8,0:1:0:0:
108,12,166982,1,8,0:0:0:0:
248,216,167138,5,8,0:1:0:0:
155,155,167295,1,8,0:1:0:0:
256,104,167451,1,8,0:1:0:0:
336,256,167607,5,12,0:0:0:0:
156,304,167763,1,0,3:2:0:0:
156,304,167841,1,0,3:2:0:0:
156,304,167920,2,0,L|165:251,3,53.125,8|8|8|8,0:1|0:1|0:1|0:1,0:0:0:0:
336,168,168232,2,0,B|353:210|353:210|335:255,1,93.5000028533936,12|0,0:0|0:0,0:0:0:0:
72,192,168545,5,12,0:0:0:0:
248,212,168701,2,0,L|195:218,1,53.125,8|8,0:1|0:1,0:0:0:0:
40,272,168857,5,8,0:0:0:0:
264,112,169013,2,0,L|204:117,1,53.125,8|8,0:1|0:1,0:0:0:0:
4,120,169170,6,0,B|-7:89|-7:89|0:59,1,63.7500024318696,8|8,0:0|0:1,0:0:0:0:
192,44,169326,2,0,B|203:75|203:75|195:104,1,63.7500024318696,8|8,0:0|0:1,0:0:0:0:
104,144,169482,5,8,0:1:0:0:
104,144,169560,1,8,0:1:0:0:
104,144,169638,2,0,L|98:101,3,42.5,8|8|8|8,0:0|0:1|0:1|0:1,0:0:0:0:
92,168,169951,5,8,0:3:0:0:
92,168,170029,1,8,0:3:0:0:
92,168,170107,2,0,P|122:156|157:159,1,63.7500024318696,8|0,0:3|0:0,0:0:0:0:
208,280,170263,5,8,0:1:0:0:
208,280,170341,1,8,0:1:0:0:
208,280,170420,2,0,P|238:287|266:312,1,63.7500024318696,8|8,0:3|0:1,0:0:0:0:
318,84,170576,2,0,P|294:104|263:111,1,63.7500024318696,8|8,0:3|0:1,0:0:0:0:
336,220,170732,5,8,0:3:0:0:
375,238,170810,1,8,0:3:0:0:
420,236,170888,1,4,0:3:0:0:
457,213,170966,1,4,0:3:0:0:
480,175,171045,6,0,P|446:150|404:153,1,85,12|0,0:1|0:0,0:0:0:0:
200,360,171513,6,0,P|241:359|273:332,1,85,2|0,0:0|0:0,0:0:0:0:
280,12,171982,6,0,P|246:36|236:77,1,85,2|0,0:0|0:0,0:0:0:0:
400,320,172451,6,0,P|412:280|396:241,1,85,2|0,0:0|0:0,0:0:0:0:
104,144,172920,6,0,P|117:183|152:205,1,85,2|0,0:0|0:0,0:0:0:0:
344,176,173388,6,0,P|362:150|363:118,1,63.7500024318696,2|12,0:0|0:1,0:0:0:0:
352,104,173857,1,0,0:0:0:0:
256,240,174013,2,0,L|262:282,2,42.5,8|8|8,0:1|0:1|0:0,0:0:0:0:
260,228,174482,1,8,0:1:0:0:
112,128,174638,1,0,3:2:0:0:
128,120,174716,1,0,3:2:0:0:
148,120,174795,5,8,0:1:0:0:
136,240,174951,2,0,P|131:282|124:324,1,85,8|0,0:0|0:0,0:0:0:0:
248,280,175263,1,8,0:1:0:0:
296,152,175420,1,8,0:0:0:0:
372,352,175576,2,0,P|363:288|357:225,1,127.500004863739,8|8,0:1|0:1,0:0:0:0:
408,80,176045,6,0,L|323:72,1,85,12|0,0:1|0:0,0:0:0:0:
200,140,176513,1,8,0:1:0:0:
115,147,176670,2,0,L|199:139,1,85,8|8,0:0|0:1,0:0:0:0:
284,239,177138,6,0,P|279:271|273:302,1,63.7500024318696,8|8,0:3|0:1,0:0:0:0:
404,212,177451,1,8,0:0:0:0:
472,360,177607,2,0,P|465:328|461:297,1,63.7500024318696,0|8,0:0|0:1,0:0:0:0:
476,116,177920,5,8,0:0:0:0:
412,180,178076,1,8,0:1:0:0:
324,168,178232,1,8,0:3:0:0:
288,88,178388,1,4,0:3:0:0:
204,120,178545,6,0,P|162:127|122:115,1,85,12|0,0:1|0:0,0:0:0:0:
68,264,179013,1,8,0:1:0:0:
68,264,179091,1,8,0:1:0:0:
67,264,179170,6,0,P|119:228|180:239,1,127.500004863739,12|8,0:0|0:1,0:0:0:0:
308,328,179638,2,0,L|392:316,1,85,8|8,0:0|0:1,0:0:0:0:
450,185,179951,6,0,P|386:177|323:167,1,127.500004863739,8|8,0:0|0:1,0:0:0:0:
220,76,180420,1,8,0:0:0:0:
164,244,180576,2,0,P|161:201|154:159,1,85,8|8,0:1|0:1,0:0:0:0:
40,52,181045,6,0,P|70:62|101:67,1,63.7500024318696,12|0,0:1|0:0,0:0:0:0:
328,188,181357,2,0,P|297:177|266:172,1,63.7500024318696,0|8,0:0|0:1,0:0:0:0:
64,200,181670,1,8,0:0:0:0:
175,359,181826,2,0,P|191:299|163:243,1,127.500004863739,8|8,0:1|0:1,0:0:0:0:
163,243,182216,1,8,0:1:0:0:
163,243,182295,5,4,0:0:0:0:
224,104,182451,2,0,L|265:97,2,42.5,8|8|8,0:1|0:1|0:0,0:0:0:0:
348,280,182763,2,0,L|389:286,2,42.5,8|8|8,0:1|0:1|0:0,0:0:0:0:
416,200,183076,5,0,3:2:0:0:
383,173,183154,1,0,3:2:0:0:
341,168,183232,1,8,0:0:0:0:
302,184,183310,1,8,0:0:0:0:
269,210,183388,1,8,0:0:0:0:
227,215,183466,1,8,0:0:0:0:
188,198,183545,2,0,P|181:135|176:72,1,127.5,8|0,0:1|0:0,0:0:0:0:
188,48,183857,6,0,P|141:43|95:36,1,93.5000028533936,12|0,0:0|0:0,0:0:0:0:
148,168,184170,1,8,0:1:0:0:
76,304,184326,2,0,P|122:297|168:292,1,93.5000028533936,10|8,0:1|0:0,0:0:0:0:
459,205,184638,6,0,P|407:159|340:167,1,140.25000428009,10|0,0:1|0:0,0:0:0:0:
284,256,184951,2,0,P|286:279|287:302,2,46.7500014266968,10|8|8,0:1|0:1|0:0,0:0:0:0:
376,360,185263,1,2,0:0:0:0:
184,264,185420,1,8,0:1:0:0:
340,152,185576,1,10,0:1:0:0:
232,64,185732,2,0,B|211:107|211:107|222:151,1,93.5000028533936,8|0,0:0|0:0,0:0:0:0:
388,32,186045,5,12,0:1:0:0:
459,205,186201,2,0,B|480:162|480:162|469:118,1,93.5000028533936,10|8,0:1|0:0,0:0:0:0:
340,152,186513,2,0,P|316:158|295:165,2,46.7500014266968,10|8|8,0:1|0:1|0:0,0:0:0:0:
304,320,186826,2,0,P|317:299|330:281,2,46.7500014266968,10|8|8,0:1|0:1|0:0,0:0:0:0:
196,88,187138,2,0,P|173:82|150:77,2,46.7500014266968,10|8|8,0:1|0:1|0:0,0:0:0:0:
91,194,187451,5,0,3:2:0:0:
91,194,187529,1,0,3:2:0:0:
91,194,187607,1,8,0:3:0:0:
308,64,187763,1,8,0:3:0:0:
64,4,187920,5,8,0:3:0:0:
32,37,187998,1,0,3:2:0:0:
19,82,188076,1,0,3:2:0:0:
30,127,188154,1,0,3:2:0:0:
60,161,188232,1,4,0:3:0:0:
91,194,188310,1,0,3:2:0:0:
104,239,188388,1,0,3:2:0:0:
93,284,188466,1,0,3:2:0:0:
63,318,188545,1,12,0:1:0:0:
132,84,188857,5,8,0:1:0:0:
196,164,189013,2,0,B|236:192|296:180|312:140|312:140|260:148,1,170,2|2,0:0|0:0,0:0:0:0:
276,145,189482,1,8,0:1:0:0:
336,248,189638,1,2,0:0:0:0:
436,208,189795,6,0,P|429:250|425:292,1,85,10|8,0:1|0:1,0:0:0:0:
276,145,190263,1,0,0:0:0:0:
240,328,190420,2,0,P|235:285|229:243,1,85,10|8,0:1|0:1,0:0:0:0:
120,76,191045,6,0,B|83:93|71:139|84:176|84:176|112:175|134:192,1,170,10|8,0:1|0:1,0:0:0:0:
276,145,191513,2,0,B|328:172|376:155|376:155|428:132|468:160|468:160|440:152|408:164,1,255,2|8,0:0|0:1,0:0:0:0:
336,52,192138,5,8,0:3:0:0:
336,52,192216,2,0,L|441:44,1,106.25,8|10,0:3|0:1,0:0:0:0:
456,56,192920,1,8,0:1:0:0:
440,144,193076,1,8,0:1:0:0:
424,232,193232,2,0,P|408:204|413:170,1,63.75,10|0,0:1|0:0,0:0:0:0:
512,260,193545,6,0,B|464:276|424:232|424:232|420:268|391:287,1,170,12|8,0:1|0:1,0:0:0:0:
272,288,194013,2,0,B|230:265|227:207|260:179|260:179|266:200|252:227,1,170,2|2,0:0|0:0,0:0:0:0:
140,216,194482,1,8,0:1:0:0:
166,101,194638,1,2,0:0:0:0:
87,111,194795,6,0,P|128:119|166:101,1,85,10|8,0:1|0:1,0:0:0:0:
360,112,195420,1,8,0:1:0:0:
276,52,195576,1,0,0:0:0:0:
264,196,195732,2,0,L|269:153,1,42.5,10|0,0:1|0:0,0:0:0:0:
484,224,196045,6,0,B|372:196|372:196|377:223|361:248,1,170,10|8,0:1|0:1,0:0:0:0:
204,288,196513,1,8,0:3:0:0:
204,288,196591,2,0,B|167:258|121:269|121:269|173:217|146:155,1,212.5,8|10,0:3|0:1,0:0:0:0:
136,144,197295,5,8,0:1:0:0:
148,356,197451,1,8,0:1:0:0:
52,196,197607,1,8,0:1:0:0:
248,180,197763,6,0,L|288:191,2,42.5,8|8|8,0:0|0:0|0:1,0:0:0:0:
136,232,198076,1,8,0:1:0:0:
363,256,198232,2,0,P|395:219|386:170,1,95.6250036478044,10|0,0:1|0:0,0:0:0:0:
316,92,198545,6,0,B|329:197|329:197|389:175,1,170,12|8,0:1|0:1,0:0:0:0:
212,156,199013,1,8,0:3:0:0:
212,156,199091,2,0,P|160:118|92:132,1,127.5,8|0,0:3|0:0,0:0:0:0:
212,325,199482,2,0,P|233:302|242:264,1,63.75,10|0,0:1|0:0,0:0:0:0:
136,232,199795,6,0,B|184:211|184:211|238:230|238:230|284:208|284:208|342:225,1,212.5,8|8,0:0|0:1,0:0:0:0:
480,200,200263,1,0,3:2:0:0:
480,200,200341,1,0,3:2:0:0:
480,200,200420,2,0,P|473:241|467:284,1,85,10|8,0:1|0:1,0:0:0:0:
392,120,200888,1,8,0:1:0:0:
296,296,201045,6,0,P|291:232|285:168,1,127.5,12|0,0:1|0:0,0:0:0:0:
285,168,201357,1,8,0:1:0:0:
88,72,201513,1,8,0:1:0:0:
88,72,201591,2,0,B|164:100|164:100|196:67,1,127.5,8|0,0:3|0:0,0:0:0:0:
120,236,201982,2,0,P|103:262|104:293,1,63.75,10|0,0:1|0:0,0:0:0:0:
224,356,202295,6,0,B|268:343|268:343|290:245|290:245|249:213,1,191.250007295609,12|0,0:0|0:0,0:0:0:0:
48,252,202607,2,0,L|99:263,1,53.125,8|0,0:1|0:0,0:0:0:0:
192,280,202763,1,8,0:1:0:0:
188,152,202920,5,8,0:3:0:0:
12,164,203076,1,8,0:3:0:0:
24,40,203232,1,4,0:3:0:0:
164,56,203388,1,4,0:3:0:0:
132,200,203545,6,0,L|257:178,1,127.500004863739,12|0,0:1|0:0,0:0:0:0:
380,128,204013,1,10,0:1:0:0:
398,220,204170,6,0,B|435:166|450:72|358:60|382:140,1,191.250007295609,12|0,0:0|0:0,0:0:0:0:
321,111,204482,2,0,P|347:128|378:127,1,63.7500024318696,8|0,0:1|0:0,0:0:0:0:
213,55,204795,1,10,0:1:0:0:
225,182,204951,6,0,L|213:55,1,127.500004863739,8|8,0:1|0:1,0:0:0:0:
132,200,205341,1,8,0:1:0:0:
132,200,205420,6,0,B|186:237|280:252|292:160|212:184,1,191.250007295609,12|0,0:0|0:0,0:0:0:0:
279,240,205732,2,0,P|317:211|372:220,1,95.6250036478044,8|0,0:0|0:0,0:0:0:0:
340,292,206045,5,12,0:1:0:0:
132,200,206201,2,0,L|143:251,1,53.125,8|8,0:0|0:0,0:0:0:0:
60,340,206357,1,8,0:1:0:0:
384,200,206513,5,10,0:1:0:0:
68,68,206670,2,0,L|56:119,1,53.125,8|8,0:0|0:0,0:0:0:0:
132,200,206826,1,8,0:0:0:0:
304,96,206982,5,10,0:1:0:0:
208,16,207138,1,8,0:3:0:0:
420,64,207295,1,4,0:3:0:0:
252,248,207451,2,0,B|241:206|241:206|260:169,1,85,10|0,0:1|0:0,0:0:0:0:
304,96,207685,2,0,L|252:84,1,53.125,8|8,0:1|0:1,0:0:0:0:
21,222,207920,6,0,B|131:200|131:200|115:255,1,170,12|2,0:1|0:0,0:0:0:0:
256,192,208623,12,0,209638,0:0:0:0:
236,67,209795,6,0,B|201:148|264:168|228:250,1,187.000005706787,12|8,0:1|0:0,0:0:0:0:
336,115,210263,1,2,3:2:0:0:
336,115,210341,1,0,3:2:0:0:
336,115,210420,1,8,0:1:0:0:
130,204,210576,1,10,0:1:0:0:
322,338,210732,1,8,0:0:0:0:
219,288,210888,6,0,P|267:240|337:235,1,140.25000428009,10|0,0:1|0:0,0:0:0:0:
404,286,211201,1,10,0:1:0:0:
165,129,211357,1,8,0:0:0:0:
290,35,211513,2,0,P|296:80|283:125,1,93.5000028533936,2|8,3:2|0:1,0:0:0:0:
397,376,211826,2,0,P|390:330|403:285,1,93.5000028533936,10|8,0:1|0:0,0:0:0:0:
423,178,212138,1,2,3:2:0:0:
423,178,212216,1,0,3:2:0:0:
423,178,212295,6,0,P|332:201|240:219,1,187.000005706787,8|8,0:1|0:0,0:0:0:0:
62,133,212763,1,2,3:2:0:0:
57,110,212841,1,0,3:2:0:0:
61,86,212920,1,8,0:1:0:0:
261,15,213076,1,10,0:1:0:0:
240,219,213232,1,8,0:0:0:0:
169,109,213388,1,2,3:2:0:0:
169,109,213466,1,0,3:2:0:0:
169,109,213545,5,8,0:1:0:0:
345,138,213701,1,2,0:0:0:0:
227,340,213857,1,8,0:0:0:0:
103,253,214013,2,0,L|241:231,1,140.25000428009,10|0,0:1|0:0,0:0:0:0:
268,226,214326,1,10,0:1:0:0:
247,5,214482,6,0,P|248:31|248:58,1,53.125,12|0,0:0|0:0,0:0:0:0:
432,227,214638,2,0,P|432:200|433:173,1,53.125,8|0,0:1|0:0,0:0:0:0:
388,6,214795,6,0,B|377:70|377:70|334:101|334:101|323:169,1,187.000005706787,8|8,0:1|0:0,0:0:0:0:
317,278,215263,1,2,3:2:0:0:
296,266,215341,1,0,3:2:0:0:
272,262,215420,1,8,0:1:0:0:
424,214,215576,1,10,0:1:0:0:
219,165,215732,1,8,0:0:0:0:
268,365,215888,1,2,3:2:0:0:
268,365,215966,1,0,3:2:0:0:
268,365,216045,1,8,0:1:0:0:
323,76,216201,6,0,P|326:123|330:170,1,93.5000028533936,2|8,0:0|0:0,0:0:0:0:
155,319,216513,2,0,P|151:272|147:225,1,93.5000028533936,10|0,0:1|3:2,0:0:0:0:
293,268,216826,1,10,0:1:0:0:
141,116,216982,1,8,0:0:0:0:
388,64,217138,2,0,P|366:71|336:80,1,53.125,2|0,3:2|3:2,0:0:0:0:
90,204,217295,6,0,L|184:215,1,95.6250036478044,12|0,0:1|0:0,0:0:0:0:
372,249,217607,2,0,B|318:241|274:273|274:273|301:229|289:188,1,191.250007295609,12|0,0:0|3:2,0:0:0:0:
216,33,217920,6,0,P|213:64|209:96,1,63.7500024318696,10|0,0:1|0:0,0:0:0:0:
184,215,218076,1,8,0:1:0:0:
378,312,218232,2,0,P|374:280|371:248,1,63.7500024318696,10|0,0:0|0:0,0:0:0:0:
485,126,218388,6,0,B|399:100|397:180|306:154,1,187.000005706787,0|0,3:2|0:0,0:0:0:0:
80,49,218857,2,0,P|103:37|129:32,1,53.125,12|0,0:0|0:0,0:0:0:0:
229,76,219013,1,8,0:1:0:0:
26,177,219170,1,2,3:2:0:0:
208,272,219326,1,8,0:1:0:0:
145,148,219482,6,0,P|138:173|134:199,1,53.125,12|0,0:0|0:0,0:0:0:0:
294,326,219638,2,0,P|300:300|304:274,1,53.125,0|0,3:2|3:2,0:0:0:0:
262,176,219795,6,0,P|330:185|393:152,1,140.25000428009,12|0,0:1|0:0,0:0:0:0:
483,119,220107,2,0,L|462:239,1,93.5000028533936,8|2,0:0|3:2,0:0:0:0:
309,81,220420,1,8,0:1:0:0:
483,307,220576,1,2,0:1:0:0:
249,362,220732,1,8,0:0:0:0:
466,211,220888,6,0,P|423:193|376:192,1,93.5000028533936,10|0,0:1|0:0,0:0:0:0:
129,272,221201,2,0,P|175:270|218:253,1,93.5000028533936,10|8,0:1|0:0,0:0:0:0:
234,52,221513,1,10,0:1:0:0:
223,73,221591,1,0,3:2:0:0:
221,96,221670,1,0,3:2:0:0:
381,286,221826,1,10,0:1:0:0:
327,107,221982,2,0,L|313:214,1,93.5000028533936,8|2,0:0|3:2,0:0:0:0:
381,286,222216,1,0,3:2:0:0:
381,286,222295,5,12,0:1:0:0:
181,158,222451,1,2,0:0:0:0:
420,107,222607,1,12,0:0:0:0:
186,182,222763,1,0,0:0:0:0:
462,10,222920,5,12,0:1:0:0:
151,47,223076,1,8,0:1:0:0:
380,189,223232,1,10,0:0:0:0:
103,298,223388,2,0,P|126:285|156:278,1,53.125,8|0,0:1|0:0,0:0:0:0:
264,320,223545,1,2,0:0:0:0:
224,117,223701,6,0,P|215:148|216:180,1,63.7500024318696,12|0,0:1|0:0,0:0:0:0:
263,319,223857,2,0,P|292:335|329:343,1,63.7500024318696,12|0,0:0|0:0,0:0:0:0:
462,208,224013,1,8,0:1:0:0:
462,208,224091,1,8,0:1:0:0:
462,208,224170,2,0,B|389:186|384:247|307:226,1,159.375,10|8,0:1|0:0,0:0:0:0:
153,120,224482,5,8,0:0:0:0:
175,97,224560,1,8,0:1:0:0:
205,85,224638,1,8,0:3:0:0:
236,85,224716,1,8,0:1:0:0:
264,94,224795,6,0,P|298:129|307:178,1,95.6250036478044,12|0,0:1|0:0,0:0:0:0:
181,353,225107,6,0,L|200:214,1,140.25000428009,12|0,0:0|0:0,0:0:0:0:
216,180,225420,2,0,P|170:188|123:196,1,93.5000028533936,8|10,0:1|0:1,0:0:0:0:
312,341,225732,1,8,0:0:0:0:
369,231,225888,6,0,P|414:222|461:214,1,93.5000028533936,10|0,0:1|0:0,0:0:0:0:
333,115,226201,1,10,0:1:0:0:
449,318,226357,1,8,0:0:0:0:
210,304,226513,1,2,3:2:0:0:
333,244,226670,1,8,0:1:0:0:
202,65,226826,2,0,P|195:112|207:156,1,93.5000028533936,10|8,0:1|0:0,0:0:0:0:
417,342,227138,1,2,3:2:0:0:
417,342,227216,1,0,3:2:0:0:
417,341,227295,6,0,P|451:280|450:211,1,140.25000428009,12|0,0:1|0:0,0:0:0:0:
398,129,227607,2,0,P|444:122|490:114,1,93.5000028533936,8|0,0:0|0:0,0:0:0:0:
333,244,227920,1,8,0:1:0:0:
251,65,228076,1,10,0:1:0:0:
135,221,228232,1,8,0:0:0:0:
253,175,228388,1,2,3:2:0:0:
240,194,228466,1,0,3:2:0:0:
236,217,228545,5,8,0:1:0:0:
352,76,228701,1,2,0:0:0:0:
146,123,228857,1,8,0:0:0:0:
323,304,229013,2,0,P|328:278|336:244,2,53.125,10|0|0,0:1|0:0|0:0,0:0:0:0:
434,181,229326,1,10,0:1:0:0:
143,230,229482,2,0,P|192:224|240:180,1,106.25,8|0,0:0|0:0,0:0:0:0:
268,112,229716,1,0,3:2:0:0:
269,88,229795,5,12,0:1:0:0:
53,53,229951,1,0,0:0:0:0:
151,293,230107,2,0,L|146:152,1,140.25000428009,8|0,0:0|0:0,0:0:0:0:
146,123,230420,1,8,0:1:0:0:
361,283,230576,1,10,0:1:0:0:
438,198,230732,1,8,0:0:0:0:
279,213,230888,6,0,P|263:257|258:304,1,93.5000028533936,2|0,3:2|0:0,0:0:0:0:
28,152,231201,1,2,0:0:0:0:
160,18,231357,2,0,P|167:44|171:70,1,53.125,12|0,0:0|0:0,0:0:0:0:
134,165,231513,1,10,0:1:0:0:
301,74,231670,5,0,3:2:0:0:
306,284,231826,1,10,0:1:0:0:
242,187,231982,1,8,0:0:0:0:
163,367,232138,2,0,P|187:356|213:350,1,53.125,2|0,3:2|3:2,0:0:0:0:
394,308,232295,2,0,P|347:303|305:283,1,93.5000028533936,12|0,0:1|0:0,0:0:0:0:
326,82,232607,2,0,P|330:128|335:175,1,93.5000028533936,10|0,0:0|3:2,0:0:0:0:
208,142,232920,5,10,0:1:0:0:
208,142,233076,1,8,0:1:0:0:
447,159,233232,5,12,0:0:0:0:
165,236,233388,1,0,3:2:0:0:
475,256,233545,5,10,0:1:0:0:
208,142,233701,1,8,0:1:0:0:
415,336,233857,5,12,0:0:0:0:
102,146,234013,1,8,0:1:0:0:
447,159,234170,5,2,3:2:0:0:
109,323,234326,1,8,0:3:0:0:
119,298,234404,1,8,0:3:0:0:
137,276,234482,1,14,0:3:0:0:
161,262,234560,1,4,0:3:0:0:
188,255,234638,1,8,0:1:0:0:
216,257,234716,1,8,0:1:0:0:
242,267,234795,6,0,L|232:361,1,76.4999976654053,12|0,0:1|0:0,0:0:0:0:
341,298,235107,6,0,B|365:208|297:196|320:117,1,187.000005706787,12|8,0:1|0:1,0:0:0:0:
242,267,235576,1,2,0:1:0:0:
434,147,235732,1,8,0:0:0:0:
243,91,235888,6,0,L|381:66,1,140.25000428009,10|0,0:1|0:0,0:0:0:0:
434,147,236201,2,0,L|422:199,1,46.7500014266968,10|8,0:1|0:1,0:0:0:0:
342,378,236357,6,0,B|332:313|377:275|377:275|337:256|328:218,1,191.250007295609,12|0,0:0|3:2,0:0:0:0:
328,218,236670,1,0,3:2:0:0:
450,355,236826,5,10,0:1:0:0:
511,197,236982,2,0,L|465:189|419:181,1,93.5000028533936,12|2,0:0|3:2,0:0:0:0:
168,232,237295,5,8,0:1:0:0:
336,256,237451,1,2,0:0:0:0:
68,260,237607,5,12,0:0:0:0:
402,168,237763,1,0,0:0:0:0:
108,152,237920,5,10,0:1:0:0:
419,310,238076,1,8,0:1:0:0:
37,80,238232,5,10,0:0:0:0:
329,319,238388,1,10,0:1:0:0:
329,319,238466,1,2,0:0:0:0:
329,319,238545,6,0,L|335:255,1,63.75,2|0,0:0|0:0,0:0:0:0:
396,115,238857,6,0,L|401:167,1,53.125,12|0,0:0|0:0,0:0:0:0:
221,247,239013,2,0,L|215:194,1,53.125,8|0,0:1|0:0,0:0:0:0:
289,109,239170,5,10,0:1:0:0:
204,64,239326,1,8,0:0:0:0:
123,115,239482,1,8,0:3:0:0:
132,210,239638,1,4,0:3:0:0:
221,247,239795,6,0,L|346:223,1,127.5,12|0,0:1|0:0,0:0:0:0:
95,288,240263,1,8,0:1:0:0:
95,288,240341,1,8,0:1:0:0:
95,288,240420,2,0,L|103:246|111:204,1,85,8|8,0:0|0:1,0:0:0:0:
204,64,240888,6,0,P|208:95|214:126,1,63.7500024318696,8|8,0:0|0:1,0:0:0:0:
334,263,241201,2,0,P|338:231|344:200,1,63.7500024318696,8|0,0:0|0:0,0:0:0:0:
465,56,241513,1,8,0:1:0:0:
333,106,241670,1,8,0:0:0:0:
407,135,241826,2,0,P|374:109|333:106,1,85,8|8,0:1|0:1,0:0:0:0:
100,163,242295,6,0,B|155:144|171:181|225:163,1,127.500004863739,12|0,0:1|0:0,0:0:0:0:
315,281,242763,1,8,0:1:0:0:
315,281,242841,1,8,0:1:0:0:
315,281,242920,2,0,L|231:265,1,85,8|8,0:0|0:1,0:0:0:0:
198,52,243388,6,0,L|260:63,1,63.7500024318696,8|8,0:3|0:1,0:0:0:0:
410,159,243701,2,0,L|345:170,1,63.7500024318696,8|0,0:3|0:0,0:0:0:0:
411,316,244013,1,8,0:1:0:0:
416,301,244091,1,8,0:1:0:0:
416,285,244170,1,8,0:0:0:0:
229,256,244326,5,8,0:1:0:0:
220,280,244404,1,8,0:1:0:0:
220,306,244482,1,8,0:1:0:0:
229,329,244560,1,8,0:1:0:0:
246,348,244638,1,8,0:1:0:0:
268,360,244716,1,8,0:1:0:0:
294,363,244795,6,0,L|316:234,1,127.500004863739,12|0,0:1|0:0,0:0:0:0:
386,130,245263,1,8,0:1:0:0:
386,130,245341,1,8,0:1:0:0:
386,130,245420,2,0,B|342:132|342:132|306:110,1,85,12|8,0:0|0:1,0:0:0:0:
187,127,245888,6,0,L|169:55,1,63.7500024318696,8|8,0:0|0:1,0:0:0:0:
67,190,246201,2,0,L|82:251,1,63.7500024318696,8|0,0:0|0:0,0:0:0:0:
209,300,246513,1,8,0:1:0:0:
222,292,246591,1,8,0:1:0:0:
238,290,246670,1,8,0:0:0:0:
363,231,246826,1,8,0:1:0:0:
350,223,246904,1,8,0:1:0:0:
334,221,246982,6,0,B|326:276|326:276|330:304|330:304|315:328|315:328|306:374,1,159.375,8|0,0:0|0:0,0:0:0:0:
306,374,247295,1,12,0:1:0:0:
504,293,247451,2,0,P|469:270|427:274,1,85,8|8,0:0|0:1,0:0:0:0:
427,274,247841,1,8,0:1:0:0:
427,274,247920,1,8,0:0:0:0:
358,120,248076,5,8,0:1:0:0:
360,101,248154,1,8,0:1:0:0:
362,82,248232,1,8,0:0:0:0:
188,118,248388,1,8,0:1:0:0:
190,137,248466,1,8,0:1:0:0:
192,156,248545,2,0,L|140:145,1,53.125,8|0,0:0|0:0,0:0:0:0:
125,260,248701,5,8,0:1:0:0:
148,288,248779,1,8,0:1:0:0:
181,304,248857,1,8,0:1:0:0:
218,305,248935,1,8,0:1:0:0:
252,290,249013,2,0,L|309:274,1,53.125,8|0,0:0|0:0,0:0:0:0:
410,322,249170,6,0,P|424:299|426:272,1,53.125,8|0,0:0|0:0,0:0:0:0:
502,186,249326,2,0,P|487:163|465:150,1,53.125,8|8,0:1|0:1,0:0:0:0:
303,88,249482,5,8,0:0:0:0:
293,131,249560,1,8,0:0:0:0:
313,170,249638,1,8,0:0:0:0:
304,214,249716,1,8,0:0:0:0:
324,253,249795,5,12,0:1:0:0:
118,183,249951,2,0,L|202:194,1,85,10|8,0:1|0:0,0:0:0:0:
430,76,250263,2,0,B|450:114|450:114|441:155,1,85,2|8,0:0|0:1,0:0:0:0:
218,305,250576,2,0,B|198:267|198:267|206:225,1,85,10|8,0:1|0:0,0:0:0:0:
303,88,250888,6,0,P|313:150|323:213,1,127.5,10|0,0:1|0:0,0:0:0:0:
320,303,251201,1,8,0:1:0:0:
341,305,251279,1,8,0:1:0:0:
361,298,251357,1,8,0:0:0:0:
180,196,251513,1,0,0:0:0:0:
124,340,251670,5,10,0:1:0:0:
105,317,251748,1,8,0:1:0:0:
79,302,251826,1,8,0:1:0:0:
50,297,251904,1,8,0:1:0:0:
21,304,251982,1,10,0:0:0:0:
180,196,252138,1,0,0:0:0:0:
28,112,252295,6,0,P|70:107|112:103,1,85,12|8,0:1|0:1,0:0:0:0:
286,60,252607,1,8,0:0:0:0:
175,239,252763,1,2,3:2:0:0:
177,217,252841,1,0,3:2:0:0:
180,196,252920,1,8,0:1:0:0:
351,176,253076,2,0,P|354:218|358:260,1,85,8|10,0:1|0:0,0:0:0:0:
429,106,253388,1,2,3:2:0:0:
429,106,253466,1,0,3:2:0:0:
429,106,253545,5,10,0:1:0:0:
256,143,253701,1,8,0:1:0:0:
435,321,253857,1,8,0:0:0:0:
479,225,254013,2,0,L|436:219,1,42.5,8|0,0:1|0:0,0:0:0:0:
351,176,254170,1,2,0:0:0:0:
304,336,254326,1,10,0:1:0:0:
314,317,254404,1,8,0:1:0:0:
311,295,254482,1,8,0:0:0:0:
128,148,254638,1,10,0:1:0:0:
125,169,254716,1,8,0:1:0:0:
135,188,254795,5,8,0:0:0:0:
219,48,254951,1,10,0:1:0:0:
210,295,255107,5,8,0:0:0:0:
304,89,255263,1,10,0:1:0:0:
388,328,255420,5,8,0:0:0:0:
395,59,255576,1,10,0:1:0:0:
395,59,255654,1,8,0:1:0:0:
395,59,255732,1,8,0:0:0:0:
492,290,255888,1,10,0:1:0:0:
261,158,256045,5,8,0:0:0:0:
494,264,256201,1,10,0:1:0:0:
494,264,256279,1,8,0:1:0:0:
494,264,256357,1,8,0:0:0:0:
260,307,256513,1,10,0:1:0:0:
505,146,256670,5,8,0:0:0:0:
371,352,256826,1,10,0:1:0:0:
371,352,256904,1,8,0:1:0:0:
371,352,256982,1,8,0:0:0:0:
261,158,257138,1,2,0:0:0:0:
344,241,257295,5,8,0:1:0:0:
315,211,257373,1,8,0:1:0:0:
276,195,257451,1,8,0:1:0:0:
234,197,257529,1,8,0:1:0:0:
196,215,257607,1,8,0:1:0:0:
157,231,257685,1,8,0:1:0:0:
115,229,257763,1,8,0:1:0:0:
78,209,257841,1,8,0:1:0:0:
53,175,257920,1,8,0:1:0:0:
46,133,257998,1,8,0:1:0:0:
57,93,258076,1,8,0:1:0:0:
84,61,258154,1,8,0:1:0:0:
123,44,258232,6,0,P|127:76|132:107,1,63.7500024318696,10|0,0:0|0:0,0:0:0:0:
78,209,258388,2,0,P|73:240|68:272,1,63.7500024318696,10|0,0:0|0:0,0:0:0:0:
188,336,258545,5,8,0:1:0:0:
213,302,258623,1,8,0:1:0:0:
248,279,258701,1,8,0:1:0:0:
290,269,258779,1,8,0:1:0:0:
332,275,258857,1,8,0:1:0:0:
369,294,258935,1,8,0:1:0:0:
393,328,259013,1,8,0:1:0:0:
352,316,259091,1,8,0:1:0:0:
318,291,259170,1,8,0:1:0:0:
293,254,259248,1,8,0:1:0:0:
286,212,259326,1,8,0:1:0:0:
291,171,259404,1,8,0:1:0:0:
314,137,259482,6,0,B|342:135|342:135|355:130|355:130|371:132|371:132|398:129,1,85,12|0,0:0|0:0,0:0:0:0:
207,52,259638,2,0,B|179:50|179:50|166:45|166:45|150:47|150:47|122:44,1,85,12|0,0:0|0:0,0:0:0:0:
