osu file format v14

[General]
AudioFilename: audio.mp3
AudioLeadIn: 0
PreviewTime: 59442
Countdown: 0
SampleSet: Soft
StackLeniency: 0.7
Mode: 2
LetterboxInBreaks: 0
WidescreenStoryboard: 0

[Editor]
Bookmarks: 11984,22831,33679,45882,59442,70289,78425,86391,89272
DistanceSpacing: 1.1
BeatDivisor: 4
GridSize: 4
TimelineZoom: 2.2

[Metadata]
Title:Yasashisa no Riyuu
TitleUnicode:優しさの理由
Artist:ChouCho
ArtistUnicode:ChouCho
Creator:celerih
Version:Hyperion's Overdose
Source:氷菓
Tags:hyouka hyoka opening tv size kyoto animation kyoani JBHyperion JBH 株式会社京都アニメーション 京アニ
BeatmapID:1456611
BeatmapSetID:685391

[Difficulty]
HPDrainRate:7
CircleSize:4.5
OverallDifficulty:9.2
ApproachRate:9.2
SliderMultiplier:2
SliderTickRate:2

[Events]
//Background and Video events
0,0,"Yasashisa BG.jpg",0,0
//Break Periods
//Storyboard Layer 0 (Background)
//Storyboard Layer 1 (Fail)
//Storyboard Layer 2 (Pass)
//Storyboard Layer 3 (Foreground)
//Storyboard Sound Samples

[TimingPoints]
1137,338.983050847458,4,2,1,45,1,0
1814,-100,4,2,1,25,0,0
1984,-100,4,2,1,45,0,0
3170,-100,4,2,1,25,0,0
3340,-100,4,2,1,45,0,0
5882,-100,4,2,1,25,0,0
6052,-100,4,2,1,45,0,0
7238,-100,4,2,1,25,0,0
7408,-100,4,2,1,45,0,0
8594,-100,4,2,1,25,0,0
8764,-100,4,2,1,45,0,0
11984,-100,4,2,1,60,0,0
20289,-100,4,2,1,35,0,0
21475,-100,4,2,1,45,0,0
22831,-100,4,2,1,45,0,0
23509,-100,4,2,1,25,0,0
23679,-100,4,2,1,45,0,0
24865,-100,4,2,1,25,0,0
25035,-100,4,2,1,45,0,0
26221,-100,4,2,1,25,0,0
26391,-100,4,2,1,45,0,0
27577,-100,4,2,1,25,0,0
27747,-100,4,2,1,45,0,0
28933,-100,4,2,1,25,0,0
29103,-100,4,2,1,45,0,0
30289,-100,4,2,1,25,0,0
30459,-100,4,2,1,45,0,0
32831,-100,4,2,1,55,0,0
33679,-100,4,2,1,60,0,0
48594,-80,4,2,1,60,0,0
48933,-100,4,2,1,60,0,0
55713,-100,4,2,1,45,0,0
56052,-100,4,2,1,60,0,0
56730,-200,4,2,1,60,0,0
57408,-133.333333333333,4,2,1,60,0,0
59442,-100,4,2,1,70,0,1
60120,-100,4,2,1,40,0,1
60459,-100,4,2,1,70,0,1
61475,-100,4,2,1,40,0,1
61814,-100,4,2,1,70,0,1
62831,-100,4,2,1,40,0,1
63170,-100,4,2,1,70,0,1
64187,-100,4,2,1,40,0,1
64526,-100,4,2,1,70,0,1
64696,-100,4,2,1,50,0,1
64865,-100,4,2,1,60,0,1
65204,-100,4,2,1,70,0,1
66899,-100,4,2,1,40,0,1
67238,-100,4,2,1,70,0,1
69950,-100,4,2,1,30,0,1
70289,-100,4,2,1,70,0,1
70967,-100,4,2,1,40,0,1
71306,-100,4,2,1,70,0,1
72323,-100,4,2,1,40,0,1
72662,-100,4,2,1,70,0,1
73679,-100,4,2,1,40,0,1
74018,-100,4,2,1,70,0,1
75035,-100,4,2,1,40,0,1
75374,-100,4,2,1,70,0,1
77747,-100,4,2,1,50,0,1
78425,-100,4,2,1,60,0,0
78933,-100,4,2,1,50,0,0
87238,-100,4,2,1,60,0,0
87916,-100,4,2,1,40,0,0
88594,-100,4,2,1,20,0,0

[Colours]
Combo1 : 164,175,181
Combo2 : 43,79,145
Combo3 : 172,164,217
Combo4 : 60,43,140

[HitObjects]
248,240,1137,6,0,L|240:136,1,100,2|0,0:0|0:0,0:0:0:0:
132,140,1475,2,0,L|244:140,1,100
404,140,1814,2,0,P|464:208|408:284,1,200,8|0,0:0|0:0,0:0:0:0:
220,288,2323,6,0,P|248:200|348:168,1,200,2|0,0:0|0:0,0:0:0:0:
452,168,2831,2,0,L|364:232,1,100
196,228,3170,1,8,0:0:0:0:
396,128,3509,2,0,L|408:228,1,100
176,228,3848,6,0,B|84:188|84:188|76:80,1,200,2|0,0:0|0:0,0:0:0:0:
252,84,4357,2,0,P|232:168|132:192,1,200,2|0,0:0|0:0,0:0:0:0:
240,192,4865,2,0,L|324:136,1,100
148,92,5204,6,0,L|80:20,2,100,2|0|0,0:0|0:0|0:0,0:0:0:0:
300,92,5882,1,8,0:0:0:0:
100,92,6221,1,0,0:0:0:0:
424,128,6560,6,0,L|432:232,1,100,2|0,0:0|0:0,0:0:0:0:
320,228,6899,2,0,L|432:228,1,100
244,228,7238,2,0,P|184:160|240:84,1,200,8|0,0:0|0:0,0:0:0:0:
416,84,7747,6,0,B|400:184|400:184|288:204,1,200,2|0,0:0|0:0,0:0:0:0:
192,200,8255,2,0,L|104:136,1,100
284,200,8594,1,8,0:0:0:0:
104,140,8933,2,0,L|204:140,1,100
436,140,9272,6,0,P|488:256|376:368,1,300,2|0,0:0|0:0,0:0:0:0:
132,364,9950,2,0,P|144:264|300:160,1,300,2|0,0:0|0:0,0:0:0:0:
48,164,10628,6,0,P|60:100|168:32,1,200,2|0,0:0|0:0,0:0:0:0:
420,32,11137,2,0,B|232:108,2,200,2|0|0,0:0|0:0|0:0,0:0:0:0:
120,32,11984,6,0,P|72:112|120:196,1,200,12|10,0:0|0:0,0:0:0:0:
224,224,12492,1,0,0:0:0:0:
400,224,12662,2,0,L|408:124,1,100,10|0,0:0|0:0,0:0:0:0:
216,128,13001,1,8,0:0:0:0:
476,124,13170,6,0,P|520:176|464:280,1,200,8|0,0:0|0:0,0:0:0:0:
352,280,13679,2,0,L|460:280,1,100,8|0,0:0|0:0,0:0:0:0:
276,280,14018,2,0,L|264:180,1,100,2|8,0:0|0:0,0:0:0:0:
444,180,14357,1,10,0:0:0:0:
284,180,14526,1,0,0:0:0:0:
40,180,14696,6,0,P|44:124|152:40,1,200,12|10,0:0|0:0,0:0:0:0:
372,40,15374,1,10,0:0:0:0:
262,40,15543,1,2,0:0:0:0:
152,40,15713,1,8,0:0:0:0:
452,40,15882,6,0,P|520:96|456:160,1,200,4|0,0:0|0:0,0:0:0:0:
276,164,16391,2,0,L|180:192,1,100,8|0,0:0|0:0,0:0:0:0:
304,164,16730,2,0,L|312:264,1,100,2|0,0:0|0:0,0:0:0:0:
128,264,17069,2,0,L|32:292,1,100,10|0,0:0|0:0,0:0:0:0:
332,264,17408,6,0,P|376:192|340:88,1,200,12|10,0:0|0:0,0:0:0:0:
228,72,17916,1,0,0:0:0:0:
404,72,18086,2,0,L|412:172,1,100,10|2,0:0|0:0,0:0:0:0:
220,168,18425,1,8,0:0:0:0:
480,172,18594,6,0,B|464:272|464:272|364:304,1,200,4|0,0:0|0:0,0:0:0:0:
244,304,19103,2,0,L|232:204,1,100,8|0,0:0|0:0,0:0:0:0:
408,204,19442,2,0,L|460:104,1,100,2|0,0:0|0:0,0:0:0:0:
268,136,19781,2,0,L|172:104,1,100,10|0,0:0|0:0,0:0:0:0:
424,36,20120,6,0,P|466:118|412:204,1,200,12|8,0:0|0:0,0:0:0:0:
190,207,20798,2,0,L|368:116,1,200,8|8,0:0|0:0,0:0:0:0:
268,116,21306,1,0,0:0:0:0:
440,116,21475,5,2,0:0:0:0:
188,116,21645,2,0,L|104:60,2,100,8|4|4,0:0|0:3|0:3,0:0:0:0:
368,112,22153,2,0,L|288:172,1,100,4|0,0:0|0:0,0:0:0:0:
108,172,22492,2,0,L|120:272,1,100,12|0,0:0|0:0,0:0:0:0:
360,272,22831,6,0,L|452:220,1,100,2|0,0:0|0:0,0:0:0:0:
328,192,23170,2,0,L|420:140,1,100
224,192,23509,2,0,P|164:124|224:52,1,200,8|0,0:0|0:0,0:0:0:0:
416,52,24018,6,0,P|432:116|344:204,1,200,2|0,0:0|0:0,0:0:0:0:
236,204,24526,2,0,L|136:232,1,100
320,204,24865,2,0,L|332:304,1,100,8|0,0:0|0:0,0:0:0:0:
140,230,25204,2,0,L|236:204,1,100
480,200,25543,6,0,P|500:144|412:52,1,200,2|0,0:0|0:0,0:0:0:0:
232,52,26052,1,0,0:0:0:0:
124,52,26221,2,0,P|92:96|84:144,1,100,8|0,0:0|0:0,0:0:0:0:
264,140,26560,2,0,L|352:192,1,100
168,192,26899,5,2,0:0:0:0:
259,192,27069,1,0,0:0:0:0:
350,191,27238,1,2,0:0:0:0:
168,280,27577,1,8,0:0:0:0:
368,280,27916,1,2,0:0:0:0:
44,232,28255,6,0,L|132:281,1,100,2|0,0:0|0:0,0:0:0:0:
232,240,28594,2,0,L|140:188,1,100
320,192,28933,2,0,P|304:104|212:56,1,200,8|0,0:0|0:0,0:0:0:0:
404,56,29442,6,0,P|460:128|408:208,1,200,2|0,0:0|0:0,0:0:0:0:
292,208,29950,2,0,L|280:308,1,100
440,280,30289,2,0,L|344:306,1,100,8|0,0:0|0:0,0:0:0:0:
168,236,30628,1,0,0:0:0:0:
348,208,30798,1,0,0:0:0:0:
108,236,30967,5,2,0:0:0:0:
34,175,31137,1,0,0:0:0:0:
36,84,31306,1,0,0:0:0:0:
120,52,31475,1,0,0:0:0:0:
304,52,31645,2,0,B|404:52|404:52|404:152,1,200,2|0,0:0|0:0,0:0:0:0:
292,192,32153,1,0,0:0:0:0:
112,192,32323,6,0,L|36:124,2,100,2|0|0,0:0|0:0|0:0,0:0:0:0:
224,192,32831,1,0,0:0:0:0:
274,191,32916,1,0,0:0:0:0:
112,192,33001,2,0,L|104:296,1,100,8|0,0:0|0:0,0:0:0:0:
284,288,33340,2,0,L|384:252,1,100,4|0,0:0|0:0,0:0:0:0:
112,192,33679,6,0,L|212:156,1,100,12|0,0:0|0:0,0:0:0:0:
384,120,34018,2,0,L|292:68,1,100,2|0,0:0|0:0,0:0:0:0:
476,192,34357,2,0,P|468:124|356:72,1,200,8|0,0:0|0:0,0:0:0:0:
112,72,34865,6,0,B|128:172|128:172|228:212,1,200,8|0,0:0|0:0,0:0:0:0:
336,212,35374,2,0,L|236:240,1,100,2|0,0:0|0:0,0:0:0:0:
420,212,35713,2,0,L|432:312,1,100,8|0,0:0|0:0,0:0:0:0:
240,239,36052,2,0,L|336:265,1,100,2|0,0:0|0:0,0:0:0:0:
56,248,36391,6,0,P|36:192|124:100,1,200,10|0,0:0|0:0,0:0:0:0:
232,100,36899,1,0,0:0:0:0:
56,248,37069,2,0,P|100:216|148:208,1,100,8|0,0:0|0:0,0:0:0:0:
332,156,37408,2,0,P|288:188|240:196,1,100,2|0,0:0|0:0,0:0:0:0:
56,248,37747,6,0,L|52:148,1,100,8|0,0:0|0:0,0:0:0:0:
244,196,38086,2,0,L|144:192,1,100,10|0,0:0|0:0,0:0:0:0:
396,196,38425,2,0,L|400:92,1,100,8|0,0:0|0:0,0:0:0:0:
144,192,38764,2,0,L|61:128,1,100,10|0,0:0|0:0,0:0:0:0:
313,47,39103,6,0,L|401:96,1,100,12|0,0:0|0:0,0:0:0:0:
220,108,39442,2,0,L|308:157,1,100,2|0,0:0|0:0,0:0:0:0:
127,169,39781,2,0,B|144:268|144:268|244:268,1,200,8|0,0:0|0:0,0:0:0:0:
428,324,40289,6,0,P|488:252|432:172,1,200,8|0,0:0|0:0,0:0:0:0:
256,172,40798,2,0,L|356:144,1,100,2|0,0:0|0:0,0:0:0:0:
244,76,41137,2,0,L|160:12,1,100,8|0,0:0|0:0,0:0:0:0:
352,145,41475,1,2,0:0:0:0:
164,76,41645,1,0,0:0:0:0:
420,204,41814,6,0,P|440:132|336:56,1,200,8|0,0:0|0:0,0:0:0:0:
164,76,42323,2,0,B|180:176|180:176|276:208,1,200,2|0,0:0|0:0,0:0:0:0:
456,192,42831,2,0,L|356:208,1,100,8|0,0:0|0:0,0:0:0:0:
108,208,43170,5,12,0:0:0:0:
348,208,43509,1,2,0:0:0:0:
28,208,43848,2,0,L|56:108,1,100,8|4,0:0|0:3,0:0:0:0:
236,204,44187,2,0,L|136:204,1,100,8|8,0:0|0:3,0:0:0:0:
312,204,44526,1,2,0:0:0:0:
32,204,44696,6,0,B|32:304|32:304|116:360,1,200,12|0,0:0|0:0,0:0:0:0:
416,360,45204,1,12,0:0:0:0:
196,364,45543,2,0,L|180:260,1,100,2|0,0:0|0:0,0:0:0:0:
436,264,45882,6,0,P|496:192|432:132,1,200,12|0,0:0|0:0,0:0:0:0:
320,132,46391,1,0,0:0:0:0:
72,196,46560,2,0,B|140:268|140:268|240:268,1,200,8|0,0:0|0:0,0:0:0:0:
140,268,47069,1,0,0:0:0:0:
388,268,47238,5,2,0:0:0:0:
260,172,47408,2,0,L|360:172,2,100,8|0|0,0:0|0:0|0:0,0:0:0:0:
16,120,47916,2,0,P|48:24|136:0,1,200,8|0,0:0|0:0,0:0:0:0:
236,0,48425,1,0,0:0:0:0:
476,0,48594,6,0,B|456:124|456:124|332:144,1,250,10|0,0:0|0:0,0:0:0:0:
224,144,49103,1,0,0:0:0:0:
464,144,49272,2,0,L|472:248,1,100,8|0,0:0|0:0,0:0:0:0:
288,356,49611,2,0,L|176:328,1,100
380,248,49950,6,0,L|292:200,2,100,2|8|0,0:0|0:0|0:0,0:0:0:0:
492,248,50459,1,0,0:0:0:0:
192,200,50628,2,0,B|204:300|204:300|300:324,1,200,12|0,0:0|0:0,0:0:0:0:
400,324,51137,1,0,0:0:0:0:
97,320,51306,6,0,P|41:248|113:188,1,200,10|0,0:0|0:0,0:0:0:0:
221,188,51814,1,0,0:0:0:0:
469,252,51984,2,0,L|388:312,1,100,8|0,0:0|0:0,0:0:0:0:
208,312,52323,2,0,L|289:252,1,100
36,192,52662,5,2,0:0:0:0:
208,192,52831,1,8,0:0:0:0:
24,192,53001,2,0,L|112:144,1,100
364,192,53340,2,0,B|343:96|343:96|243:68,1,200,8|0,0:0|0:0,0:0:0:0:
136,68,53848,1,0,0:0:0:0:
384,68,54018,6,0,P|408:152|392:264,1,200,4|8,0:0|0:0,0:0:0:0:
112,192,54526,2,0,P|60:268|132:320,1,200,4|8,0:0|0:0,0:0:0:0:
408,356,55035,6,0,B|356:272|356:272|252:272,1,200,4|8,0:0|0:0,0:0:0:0:
496,192,55543,1,4,0:0:0:0:
396,192,55713,1,8,0:3:0:0:
296,192,55882,1,8,0:3:0:0:
44,192,56052,6,0,L|140:152,1,100,8|4,0:0|0:3,0:0:0:0:
396,192,56391,2,0,L|300:152,1,100
24,192,56730,6,0,P|8:120|56:8,1,200,4|0,0:0|0:0,0:0:0:0:
284,8,57916,1,0,0:0:0:0:
44,92,58086,6,0,B|44:168|44:168|116:192,1,150.000005722046,2|0,0:0|0:0,0:0:0:0:
376,192,58594,2,0,P|452:124|380:56,1,225.000008583069,2|0,0:0|0:0,0:0:0:0:
60,192,59442,6,0,P|64:128|172:56,1,200,4|8,0:0|0:0,0:0:0:0:
360,56,59950,2,0,L|368:164,1,100,0|4,0:0|0:3,0:0:0:0:
176,192,60289,2,0,L|168:300,1,100,4|8,0:3|0:0,0:0:0:0:
444,292,60628,6,0,L|353:240,1,100,0|2,0:0|0:0,0:0:0:0:
168,291,60967,2,0,L|280:291,1,100,0|8,0:0|0:0,0:0:0:0:
28,292,61306,2,0,L|16:192,1,100,0|4,0:0|0:3,0:0:0:0:
292,192,61645,2,0,L|380:144,1,100,4|8,0:3|0:0,0:0:0:0:
108,80,61984,6,0,L|212:80,1,100,0|2,0:0|0:0,0:0:0:0:
400,80,62323,2,0,L|300:80,1,100,0|8,0:0|0:0,0:0:0:0:
68,192,62662,1,0,0:0:0:0:
232,248,62831,2,0,L|148:192,1,100,4|4,0:3|0:3,0:0:0:0:
308,192,63170,2,0,L|392:136,1,100,8|0,0:0|0:0,0:0:0:0:
140,80,63509,5,10,0:0:0:0:
260,80,63679,1,0,0:0:0:0:
380,80,63848,1,8,0:0:0:0:
208,80,64018,1,0,0:0:0:0:
468,80,64187,2,0,L|496:176,1,100,4|4,0:3|0:3,0:0:0:0:
220,176,64526,1,8,0:0:0:0:
360,176,64696,2,0,L|400:144,1,50,8|8,0:0|0:0,0:0:0:0:
156,176,64865,6,0,L|152:76,1,100,4|4,0:3|0:3,0:0:0:0:
440,12,65204,2,0,P|480:76|396:144,1,200,12|0,0:0|0:0,0:0:0:0:
260,192,65713,1,0,0:0:0:0:
92,192,65882,1,8,0:0:0:0:
395,192,66052,6,0,P|476:235|449:324,1,200,12|0,0:0|0:0,0:0:0:0:
264,324,66560,1,8,0:0:0:0:
435,324,66730,1,0,0:0:0:0:
187,324,66899,2,0,L|83:296,1,100,4|2,0:3|0:3,0:0:0:0:
320,192,67238,1,8,0:0:0:0:
156,192,67408,1,0,0:0:0:0:
416,76,67577,6,0,P|472:132|396:192,1,200,4|8,0:0|0:0,0:0:0:0:
124,192,68086,1,4,0:0:0:0:
232,192,68255,1,0,0:0:0:0:
344,192,68425,1,0,0:0:0:0:
44,192,68594,6,0,P|52:132|164:60,1,200,4|8,0:0|0:0,0:0:0:0:
412,192,69103,2,0,B|336:128|336:128|236:128,1,200,4|8,0:0|0:0,0:0:0:0:
472,192,69611,2,0,L|476:88,1,100,4|4,0:3|0:3,0:0:0:0:
160,188,69950,5,2,0:0:0:0:
139,167,69992,1,2,0:0:0:0:
126,142,70035,1,2,0:0:0:0:
120,114,70077,1,2,0:0:0:0:
122,86,70120,1,2,0:0:0:0:
132,59,70162,1,2,0:0:0:0:
149,37,70204,1,2,0:0:0:0:
172,19,70247,1,2,0:0:0:0:
368,192,70289,6,0,B|468:192|468:192|497:97,1,200,4|8,0:0|0:0,0:0:0:0:
388,96,70798,1,0,0:0:0:0:
128,96,70967,2,0,L|228:96,1,100,4|0,0:3|0:3,0:0:0:0:
408,96,71306,1,8,0:0:0:0:
136,192,71475,6,0,L|49:241,1,100,0|2,0:0|0:0,0:0:0:0:
240,192,71814,2,0,L|326:241,1,100,0|8,0:0|0:0,0:0:0:0:
36,192,72153,2,0,L|148:192,1,100,0|4,0:0|0:3,0:0:0:0:
428,236,72492,2,0,L|340:188,1,100,4|8,0:3|0:0,0:0:0:0:
44,192,72831,6,0,B|72:96|72:96|172:96,1,200,2|0,0:0|0:0,0:0:0:0:
356,96,73340,1,8,0:0:0:0:
184,96,73509,1,0,0:0:0:0:
344,96,73679,2,0,L|232:96,1,100,4|4,0:3|0:3,0:0:0:0:
484,96,74018,2,0,L|488:200,1,100,8|0,0:0|0:0,0:0:0:0:
184,96,74357,6,0,L|72:96,1,100,8|0,0:0|0:0,0:0:0:0:
336,192,74696,1,8,0:0:0:0:
164,192,74865,1,0,0:0:0:0:
432,192,75035,2,0,L|480:168,1,50,8|8,0:3|0:3,0:0:0:0:
412,108,75204,2,0,L|367:130,1,50,4|4,0:3|0:3,0:0:0:0:
164,192,75374,1,8,0:0:0:0:
329,36,75543,1,4,0:3:0:0:
68,32,75713,6,0,P|8:100|64:176,1,200,4|8,0:0|0:0,0:0:0:0:
364,176,76221,2,0,P|336:88|244:44,1,200,4|8,0:0|0:0,0:0:0:0:
488,48,76730,1,8,0:0:0:0:
148,44,76899,6,0,B|48:44|48:44|20:140,1,200,4|0,0:0|0:0,0:0:0:0:
204,140,77408,1,8,0:0:0:0:
32,140,77577,1,0,0:0:0:0:
352,140,77747,2,0,P|416:156|452:228,1,150,4|0,0:0|0:0,0:0:0:0:
256,224,78086,2,0,P|192:240|156:312,1,150,4|0,0:0|0:0,0:0:0:0:
432,308,78425,6,0,P|488:192|416:48,1,300,4|0,0:0|0:0,0:0:0:0:
232,48,79103,2,0,L|144:112,1,100,10|0,0:0|0:0,0:0:0:0:
384,112,79442,1,0,0:0:0:0:
151,107,79611,6,0,L|68:48,2,100,2|0|4,0:0|0:0|0:3,0:0:0:0:
344,112,80120,2,0,L|404:192,1,100,8|0,0:0|0:0,0:0:0:0:
128,192,80459,2,0,P|68:264|128:336,1,200,8|2,0:0|0:0,0:0:0:0:
236,336,80967,1,0,0:0:0:0:
488,336,81137,6,0,P|508:260|436:172,1,200,4|0,0:0|0:0,0:0:0:0:
276,172,81645,2,0,B|176:156|176:156|148:60,1,200,2|0,0:0|0:0,0:0:0:0:
328,60,82153,1,0,0:0:0:0:
76,48,82323,6,0,P|28:116|96:192,1,200,2|0,0:0|0:0,0:0:0:0:
276,192,82831,2,0,L|364:244,1,100,0|0,0:0|0:0,0:0:0:0:
176,192,83170,2,0,B|216:100|216:100|320:100,1,200,2|0,0:0|0:0,0:0:0:0:
140,100,83679,1,0,0:0:0:0:
440,100,83848,6,0,P|488:180|440:264,1,200,4|0,0:0|0:0,0:0:0:0:
328,264,84357,1,0,0:0:0:0:
152,264,84526,2,0,L|144:164,1,100,8|0,0:0|0:0,0:0:0:0:
336,168,84865,1,2,0:0:0:0:
76,164,85035,6,0,P|32:216|88:320,1,200,8|0,0:0|0:0,0:0:0:0:
272,320,85543,2,0,L|365:266,1,100,2|0,0:0|0:0,0:0:0:0:
172,320,85882,2,0,L|160:220,1,100,8|0,0:0|0:0,0:0:0:0:
336,192,86221,1,8,0:3:0:0:
36,192,86391,5,12,0:0:0:0:
256,192,86560,12,0,89272,0:0:0:0:
