osu file format v14

[General]
AudioFilename: Yasashisa no Riyuu.mp3
AudioLeadIn: 0
PreviewTime: 178532
Countdown: 0
SampleSet: Soft
StackLeniency: 0.6
Mode: 0
LetterboxInBreaks: 0
EpilepsyWarning: 1
WidescreenStoryboard: 1

[Editor]
Bookmarks: 207854
DistanceSpacing: 0.5
BeatDivisor: 4
GridSize: 4
TimelineZoom: 1.3

[Metadata]
Title:Yasashisa no Riyuu
TitleUnicode:優しさの理由
Artist:ChouCho
ArtistUnicode:ChouCho
Creator:Time Capsule
Version:Normal Desu
Source:氷菓
Tags:Hyouka Opening 1 Saori Kodama Makoto Miyazaki eclipselotus Akitoshi MugiwaraSekai Irohas Shiratoi Fii -wwwww Vanillas Moena
BeatmapID:1012441
BeatmapSetID:473056

[Difficulty]
HPDrainRate:4
CircleSize:3.2
OverallDifficulty:5
ApproachRate:5
SliderMultiplier:1.2
SliderTickRate:1

[Events]
//Background and Video events
0,0,"3.jpg",0,0
//Break Periods
2,94834,96146
2,178902,184959
//Storyboard Layer 0 (Background)
//Storyboard Layer 1 (Fail)
//Storyboard Layer 2 (Pass)
//Storyboard Layer 3 (Foreground)
Sprite,Foreground,Centre,"sb\staff\Time Capsule.png",320,240 M,0,20058,,320,350 F,0,20058,,1 S,0,20058,25481,0.95,0.9 F,0,21413,,0 F,0,22769,,1 F,0,24125,25481,1,0
//Storyboard Sound Samples

[TimingPoints]
1075,338.983050847458,4,2,2,60,1,0
1752,-142.857142857143,4,2,2,50,0,0
2430,-142.857142857143,4,2,2,40,0,0
3108,-142.857142857143,4,2,2,30,0,0
3786,-142.857142857143,4,2,1,45,0,0
11922,-200,4,2,2,55,0,0
12600,-200,4,2,2,35,0,0
14634,-142.857142857143,4,2,1,60,0,0
15820,-142.857142857143,4,2,1,60,0,0
16329,-142.857142857143,4,2,1,60,0,0
24125,-142.857142857143,4,2,1,20,0,0
24295,-142.857142857143,4,3,1,60,0,0
25481,-142.857142857143,4,2,1,50,0,0
35481,-142.857142857143,4,3,1,40,0,0
36329,-142.857142857143,4,2,1,60,0,0
46498,-142.857142857143,4,3,1,60,0,0
46837,-142.857142857143,4,2,1,60,0,0
48532,-142.857142857143,4,2,1,60,0,0
55990,-142.857142857143,4,2,1,60,0,0
56159,-142.857142857143,4,2,1,60,0,0
58702,-142.857142857143,4,3,1,60,0,0
58871,-142.857142857143,4,2,1,60,0,0
59380,-200,4,2,2,70,0,0
60058,-200,4,2,2,60,0,0
62091,-125,4,2,1,70,0,1
77515,-125,4,3,1,70,0,1
77685,-125,4,3,1,70,0,1
77854,-125,4,3,1,70,0,1
78363,-125,4,2,1,70,0,1
79888,-125,4,3,1,70,0,1
80397,-125,4,2,1,70,0,1
83786,-125,4,2,1,60,0,1
84464,-125,4,2,1,50,0,1
85142,-125,4,2,1,40,0,1
85820,-125,4,2,1,30,0,1
86498,-142.857142857143,4,2,1,50,0,0
96159,-142.857142857143,4,2,1,40,0,0
97346,-142.857142857143,4,2,1,55,0,0
107007,-142.857142857143,4,3,1,45,0,0
108193,-142.857142857143,4,2,1,65,0,0
118024,-142.857142857143,4,3,1,65,0,0
118702,-142.857142857143,4,2,1,65,0,0
119549,-142.857142857143,4,3,1,65,0,0
119719,-142.857142857143,4,2,1,65,0,0
119888,-142.857142857143,4,2,1,65,0,0
120397,-142.857142857143,4,2,1,65,0,0
129041,-142.857142857143,4,2,1,65,0,0
129549,-142.857142857143,4,2,1,65,0,0
129719,-142.857142857143,4,3,1,65,0,0
130058,-142.857142857143,4,2,1,65,0,0
131244,-200,4,2,2,75,0,0
131922,-200,4,2,2,65,0,0
133108,-153.846153846154,4,2,2,65,0,0
133956,-125,4,2,1,75,0,1
141922,-125,4,2,1,75,0,1
142091,-125,4,2,1,75,0,1
143278,-125,4,3,1,75,0,1
143447,-125,4,2,1,75,0,1
143617,-125,4,2,1,75,0,1
149719,-125,4,3,1,75,0,1
150227,-125,4,2,1,75,0,1
151752,-125,4,3,1,75,0,1
152261,-125,4,2,1,75,0,1
155651,-125,4,2,1,65,0,1
156837,-125,4,3,1,65,0,1
157007,-125,4,2,1,70,0,1
158193,-142.857142857143,4,2,1,75,0,0
159888,-142.857142857143,4,3,1,75,0,0
160905,-142.857142857143,4,2,1,75,0,0
162261,-142.857142857143,4,2,2,55,0,0
163447,-142.857142857143,4,2,1,55,0,0
163617,-142.857142857143,4,2,1,70,0,0
175990,-142.857142857143,4,2,1,60,0,0
176668,-142.857142857143,4,2,1,40,0,0
177346,-142.857142857143,4,2,1,20,0,0
177854,-142.857142857143,4,2,1,60,0,0
185990,-142.857142857143,4,2,1,75,0,0
186159,-142.857142857143,4,2,1,30,0,0
186329,-142.857142857143,4,2,1,75,0,0
189549,-142.857142857143,4,2,1,55,0,0
192261,-142.857142857143,4,2,1,65,0,0
194973,-142.857142857143,4,2,1,75,0,0
196837,-142.857142857143,4,3,1,75,0,0
197685,-142.857142857143,4,2,1,75,0,0
200397,-142.857142857143,4,3,1,55,0,0
200736,-125,4,2,1,85,0,1
218193,-125,4,3,1,85,0,1
218702,-125,4,2,1,75,0,1
219380,-125,4,2,1,75,0,0
224803,-200,4,2,1,75,0,0
227515,-166.666666666667,4,2,2,65,0,0
232939,-142.857142857143,4,2,2,75,0,0
233617,-142.857142857143,4,2,2,65,0,0
234295,-142.857142857143,4,2,2,55,0,0
234973,-142.857142857143,4,2,1,45,0,0
235651,-133.333333333333,4,2,1,60,0,0
240227,-133.333333333333,4,2,1,60,0,0
240566,-133.333333333333,4,2,1,60,0,0
242600,-133.333333333333,4,3,1,60,0,0
243617,-133.333333333333,4,2,1,60,0,0
243786,-133.333333333333,4,2,1,50,0,0
245142,-133.333333333333,4,2,1,40,0,0
246498,-133.333333333333,4,2,1,30,0,0
247854,-133.333333333333,4,2,1,15,0,0
249210,-133.333333333333,4,2,1,5,0,0

[Colours]
Combo1 : 255,0,128
Combo2 : 255,255,0
Combo3 : 255,128,0
Combo4 : 255,255,113
Combo5 : 255,128,128
Combo6 : 255,0,0

[HitObjects]
256,192,1075,12,0,3108,0:0:0:0:
129,201,3786,6,0,L|105:115,1,83.9999974365235,2|0,0:0|0:0,0:0:0:0:
128,79,4295,1,0,0:0:0:0:
128,79,4464,2,0,P|172:67|240:79,1,83.9999974365235,8|0,0:0|0:0,0:0:0:0:
284,123,5142,1,0,0:0:0:0:
356,183,5481,2,0,P|421:203|472:195,2,83.9999974365235,2|8|0,0:0|0:0|0:0,0:0:0:0:
320,159,6329,1,0,0:0:0:0:
320,159,6498,6,0,L|332:71,2,83.9999974365235,2|0|8,0:0|0:0|0:0,0:0:0:0:
269,246,7515,1,0,0:0:0:0:
174,280,7854,2,0,L|105:252,2,41.9999987182618,2|0|10,0:0|0:0|0:0,0:0:0:0:
256,338,8532,2,0,L|329:316,2,41.9999987182618,2|0|8,0:0|0:0|0:0,0:0:0:0:
160,371,9210,6,0,L|56:323,1,83.9999974365235,2|0,0:0|0:0,0:0:0:0:
33,340,9719,1,0,0:0:0:0:
33,340,9888,2,0,P|21:296|33:228,1,83.9999974365235,8|0,0:0|0:0,0:0:0:0:
107,202,10566,2,0,B|151:194|151:194|199:202,2,83.9999974365235,0|2|8,0:0|0:0|0:0,0:0:0:0:
69,108,11583,1,0,0:0:0:0:
172,107,11922,6,0,B|228:119|228:119|308:103,1,120,6|8,0:0|0:0,0:0:0:0:
372,39,13108,1,0,0:0:0:0:
372,39,13278,2,0,B|400:71|396:119,1,60,8|0,0:0|0:0,0:0:0:0:
388,127,13786,2,0,B|376:171|376:171|392:259,1,120,8|0,0:0|0:0,0:0:0:0:
416,287,14634,6,0,P|372:271|316:283,1,83.9999974365235,6|8,0:0|0:0,0:0:0:0:
240,303,15312,2,0,P|198:305|159:290,1,83.9999974365235,2|8,0:0|0:0,0:0:0:0:
116,267,15820,2,0,L|144:135,1,125.999996154785,6|8,0:0|0:0,0:0:0:0:
220,79,16668,1,2,0:0:0:0:
132,31,17007,1,8,0:0:0:0:
220,79,17346,6,0,P|261:86|301:74,1,83.9999974365235,6|8,0:0|0:0,0:0:0:0:
392,119,18024,2,0,P|432:107|473:114,1,83.9999974365235,2|8,0:0|0:0,0:0:0:0:
508,151,18532,2,0,L|484:267,1,83.9999974365235,6|0,0:0|0:0,0:0:0:0:
460,271,19041,1,8,0:0:0:0:
460,271,19210,2,0,B|416:263|416:263|372:271|372:271|300:247,1,125.999996154785,6|8,0:0|0:0,0:0:0:0:
264,327,20058,6,0,P|240:287|248:215,1,83.9999974365235,6|8,0:0|0:0,0:0:0:0:
180,167,20736,2,0,L|208:79,1,83.9999974365235,2|8,0:0|0:0,0:0:0:0:
254,67,21244,2,0,B|298:79|298:79|402:63,1,125.999996154785,6|8,0:0|0:0,0:0:0:0:
468,23,22091,1,2,0:0:0:0:
512,115,22430,1,8,0:0:0:0:
256,192,22769,12,0,24295,0:0:0:0:
437,95,25481,6,0,P|392:80|328:92,1,83.9999974365235,6|0,0:0|0:0,0:0:0:0:
272,136,26159,2,0,L|164:116,1,83.9999974365235,8|0,0:0|0:0,0:0:0:0:
104,176,26837,1,0,0:0:0:0:
16,124,27176,2,0,P|0:85|3:44,2,83.9999974365235,2|8|0,0:0|0:0|0:0,0:0:0:0:
56,156,28024,1,0,0:0:0:0:
56,156,28193,6,0,L|168:132,1,83.9999974365235,2|0,0:0|0:0,0:0:0:0:
224,192,28871,2,0,P|240:150|232:100,1,83.9999974365235,8|0,0:0|0:0,0:0:0:0:
196,20,29549,2,0,L|304:40,1,83.9999974365235,0|2,0:0|0:0,0:0:0:0:
354,110,30227,2,0,L|462:90,1,83.9999974365235,8|2,0:0|0:0,0:0:0:0:
484,184,30905,6,0,L|424:200,1,41.9999987182618,2|0,0:0|0:0,0:0:0:0:
404,228,31244,2,0,P|364:240|296:216,1,83.9999974365235,0|8,0:0|0:0,0:0:0:0:
224,192,31922,1,0,0:0:0:0:
136,240,32261,2,0,L|133:323,1,83.9999974365235,0|2,0:0|0:0,0:0:0:0:
40,364,32939,2,0,L|28:252,1,83.9999974365235,8|0,0:0|0:0,0:0:0:0:
56,236,33447,1,0,0:0:0:0:
56,236,33617,6,0,P|72:176|48:108,1,125.999996154785,2|0,0:0|0:0,0:0:0:0:
20,80,34295,2,0,B|48:100|84:84|84:84|124:68|164:96,1,125.999996154785,8|2,0:0|0:0,0:0:0:0:
188,108,34973,1,0,0:0:0:0:
332,60,35481,1,8,0:0:0:0:
332,60,35651,2,0,L|380:64,1,41.9999987182618,8|8,0:0|0:0,0:0:0:0:
424,56,35990,2,0,L|476:64,1,41.9999987182618,8|8,0:0|0:0,0:0:0:0:
492,108,36329,5,6,0:0:0:0:
436,192,36668,2,0,L|328:176,1,83.9999974365235,2|2,0:0|0:0,0:0:0:0:
280,108,37346,1,8,0:0:0:0:
196,164,37685,2,0,P|180:125|184:83,1,83.9999974365235,2|2,0:0|0:0,0:0:0:0:
280,108,38363,2,0,P|295:146|291:188,1,83.9999974365235,2|8,0:0|0:0,0:0:0:0:
272,236,38871,1,0,0:0:0:0:
228,264,39041,6,0,L|120:248,1,83.9999974365235,2|2,0:0|0:0,0:0:0:0:
76,176,39719,1,2,0:0:0:0:
4,248,40058,1,8,0:0:0:0:
72,324,40397,2,0,P|112:348|180:344,1,83.9999974365235,2|8,0:0|0:0,0:0:0:0:
248,332,41075,2,0,P|292:320|357:336,1,83.9999974365235,2|8,0:0|0:0,0:0:0:0:
434,345,41752,6,0,L|448:304,1,41.9999987182618,6|0,0:0|0:0,0:0:0:0:
484,268,42091,2,0,P|492:196|476:148,1,83.9999974365235,2|2,0:0|0:0,0:0:0:0:
420,112,42769,1,8,0:0:0:0:
352,179,43108,2,0,L|236:171,1,83.9999974365235,2|2,0:0|0:0,0:0:0:0:
190,237,43786,1,2,0:0:0:0:
124,160,44125,1,8,0:0:0:0:
204,96,44464,6,0,P|252:76|312:88,1,83.9999974365235,2|2,0:0|0:0,0:0:0:0:
332,96,44973,2,0,B|364:104|364:104|440:92,1,83.9999974365235,0|0,0:0|0:0,0:0:0:0:
464,92,45481,1,8,0:0:0:0:
436,192,45820,5,6,0:0:0:0:
336,200,46159,2,0,L|254:178,1,83.9999974365235,8|8,0:0|0:0,0:0:0:0:
164,224,46837,2,0,P|160:136|200:92,1,125.999996154785,8|6,0:0|0:0,0:0:0:0:
332,108,47854,1,6,0:0:0:0:
254,178,48193,1,2,0:0:0:0:
179,107,48532,6,0,P|131:94|80:96,1,83.9999974365235,6|2,0:0|0:0,0:0:0:0:
16,156,49210,2,0,L|28:264,1,83.9999974365235,8|0,0:0|0:0,0:0:0:0:
100,308,49888,1,2,0:0:0:0:
32,380,50227,1,2,0:0:0:0:
100,308,50566,2,0,P|147:295|199:297,1,83.9999974365235,8|0,0:0|0:0,0:0:0:0:
272,336,51244,6,0,B|290:296|276:256|276:256|260:220|276:172,1,167.999994873047,2|8,0:0|0:0,0:0:0:0:
368,216,52261,1,0,0:0:0:0:
456,168,52600,2,0,P|464:124|464:92,1,41.9999987182618,2|8,0:0|0:0,0:0:0:0:
456,76,52939,1,2,0:0:0:0:
360,40,53278,2,0,P|356:92|376:140,1,83.9999974365235,8|8,0:0|0:0,0:0:0:0:
456,168,53956,6,0,L|448:260,1,83.9999974365235,6|2,0:0|0:0,0:0:0:0:
372,320,54634,1,8,0:0:0:0:
272,336,54973,1,0,0:0:0:0:
176,312,55312,2,0,P|132:304|88:316,2,83.9999974365235,2|2|8,0:0|0:0|0:3,0:0:0:0:
272,336,56329,1,8,0:0:0:0:
372,320,56668,6,0,P|386:286|366:208,1,83.9999974365235,6|8,0:0|0:0,0:0:0:0:
356,200,57176,2,0,B|320:208|320:208|240:192,1,83.9999974365235,6|8,0:0|0:0,0:0:0:0:
224,208,57685,2,0,P|183:189|140:188,1,83.9999974365235,6|8,0:0|0:0,0:0:0:0:
100,163,58193,1,6,0:0:0:0:
34,241,58532,1,0,0:0:0:0:
34,241,58702,2,0,L|15:322,1,83.9999974365235,4|6,0:0|0:0,0:0:0:0:
95,382,59380,6,0,P|152:278|122:276,1,240,6|6,0:0|0:0,0:0:0:0:
34,241,61075,1,0,0:0:0:0:
34,241,61244,2,0,P|67:194|116:183,1,90,12|0,0:0|0:0,0:0:0:0:
208,204,62091,6,0,L|338:186,1,96,6|8,0:0|0:0,0:0:0:0:
359,202,62600,2,0,P|404:163|423:93,1,96,0|2,0:0|0:0,0:0:0:0:
408,72,63108,1,8,0:0:0:0:
296,92,63447,2,0,L|165:74,1,96,2|8,0:0|0:0,0:0:0:0:
144,92,63956,2,0,P|88:92|20:64,1,96,0|2,0:0|0:0,0:0:0:0:
0,48,64464,1,8,0:0:0:0:
20,160,64803,6,0,B|16:288,1,96,2|8,0:0|0:0,0:0:0:0:
60,292,65312,2,0,P|104:272|184:268,1,96,0|2,0:0|0:0,0:0:0:0:
204,284,65820,1,8,0:0:0:0:
304,340,66159,2,0,P|351:347|429:328,1,96,2|8,0:0|0:0,0:0:0:0:
456,332,66668,2,0,L|476:272,1,48,0|2,0:0|0:0,0:0:0:0:
512,244,67007,2,0,L|508:192,1,48,2|8,0:0|0:0,0:0:0:0:
417,129,67515,6,0,P|401:83|403:36,2,96,2|12|2,0:0|0:0|0:0,0:0:0:0:
452,176,68363,2,0,L|324:160,1,96,0|6,0:0|0:0,0:0:0:0:
264,96,69041,2,0,L|200:104,1,48,2|8,0:0|0:0,0:0:0:0:
132,23,69549,1,2,0:0:0:0:
76,124,69888,1,8,0:0:0:0:
160,204,70227,6,0,L|260:188,1,96,6|8,0:0|0:0,0:0:0:0:
308,208,70736,2,0,P|352:188|412:192,1,96,6|8,0:0|0:0,0:0:0:0:
496,248,71413,2,0,L|512:148,2,96,6|8|2,0:0|0:0|0:0,0:0:0:0:
472,300,72261,1,12,0:0:0:0:
360,332,72600,1,14,0:0:0:0:
252,292,72939,6,0,P|196:272|120:276,1,96,6|8,0:0|0:0,0:0:0:0:
104,284,73447,2,0,L|80:164,1,96,0|2,0:0|0:0,0:0:0:0:
48,144,73956,1,8,0:0:0:0:
128,60,74295,2,0,P|184:40|260:44,1,96,2|8,0:0|0:0,0:0:0:0:
272,60,74803,2,0,L|253:154,1,96,0|2,0:0|0:0,0:0:0:0:
220,200,75312,1,8,0:0:0:0:
300,284,75651,6,0,P|348:260|412:268,1,96,6|8,0:0|0:0,0:0:0:0:
444,280,76159,2,0,L|460:152,1,96,0|2,0:0|0:0,0:0:0:0:
484,132,76668,1,8,0:0:0:0:
412,44,77007,2,0,B|368:24|368:24|260:32,1,144
220,37,77685,2,0,P|204:56|192:88,1,48,8|0,0:0|0:0,0:0:0:0:
196,136,78024,1,8,0:0:0:0:
216,248,78363,6,0,P|172:227|125:219,1,96,12|2,0:0|0:0,0:0:0:0:
85,189,78871,2,0,L|61:69,1,96,12|2,0:0|0:0,0:0:0:0:
104,48,79380,1,2,0:0:0:0:
104,48,79549,2,0,P|147:68|194:76,1,96,12|0,0:0|0:0,0:0:0:0:
252,72,80058,1,8,0:0:0:0:
356,24,80397,1,6,0:0:0:0:
440,104,80736,1,6,0:0:0:0:
408,216,81075,6,0,B|360:235|360:235|261:220,1,144,6|2,0:0|0:0,0:0:0:0:
224,184,81752,1,8,0:0:0:0:
132,114,82091,2,0,L|116:159,1,48,0|2,0:0|0:0,0:0:0:0:
91,211,82430,2,0,P|45:194|-32:219,1,96
31,310,83108,1,8,0:0:0:0:
139,354,83447,2,0,L|235:334,1,96,2|6,0:0|0:0,0:0:0:0:
256,192,83956,12,0,85820,0:0:0:0:
240,248,86498,6,0,B|200:256|200:256|148:244,2,83.9999974365235,6|8|2,0:0|0:0|0:0,0:0:0:0:
336,220,87515,1,8,0:0:0:0:
336,220,87685,2,0,P|356:148|332:88,1,125.999996154785,6|8,0:0|0:0,0:0:0:0:
252,56,88532,1,2,0:0:0:0:
256,156,88871,1,8,0:0:0:0:
341,101,89210,6,0,P|384:88|452:96,2,83.9999974365235,6|8|2,0:0|0:0|0:0,0:0:0:0:
256,156,90227,1,8,0:0:0:0:
256,156,90397,2,0,B|204:168|204:168|120:148,1,125.999996154785,4|8,0:0|0:0,0:0:0:0:
84,156,91075,2,0,P|60:124|48:76,1,83.9999974365235,6|0,0:0|0:0,0:0:0:0:
68,36,91583,1,8,0:0:0:0:
164,72,91922,6,0,L|256:56,1,83.9999974365235,6|8,0:0|0:0,0:0:0:0:
341,101,92600,1,2,0:0:0:0:
424,44,92939,1,8,0:0:0:0:
424,44,93108,2,0,P|440:114|415:167,1,125.999996154785,6|8,0:0|0:0,0:0:0:0:
336,220,93956,2,0,L|244:204,1,83.9999974365235,2|8,0:0|0:0,0:0:0:0:
157,246,94634,5,6,0:0:0:0:
123,188,97346,6,0,L|24:182,1,83.9999974365235,2|0,0:0|0:0,0:0:0:0:
8,144,97854,1,0,0:0:0:0:
8,144,98024,2,0,P|0:80|16:40,1,83.9999974365235,8|0,0:0|0:0,0:0:0:0:
48,36,98532,2,0,B|80:44|80:44|160:36,1,83.9999974365235,2|0,0:0|0:0,0:0:0:0:
176,60,99041,2,0,P|216:40|272:36,1,83.9999974365235,2|8,0:0|0:0,0:0:0:0:
352,56,99719,2,0,L|424:40,1,41.9999987182618,0|0,0:0|0:0,0:0:0:0:
440,28,100058,6,0,P|428:72|437:111,1,83.9999974365235,2|0,0:0|0:0,0:0:0:0:
480,200,100736,2,0,P|492:244|482:283,1,83.9999974365235,8|0,0:0|0:0,0:0:0:0:
388,244,101413,2,0,P|346:239|308:240,1,41.9999987182618,2|2,0:0|0:0,0:0:0:0:
296,244,101752,1,0,0:0:0:0:
250,335,102091,2,0,P|302:343|326:343,1,41.9999987182618,8|0,0:0|0:0,0:0:0:0:
340,340,102430,1,2,0:0:0:0:
296,244,102769,6,0,P|260:236|184:256,1,83.9999974365235,2|0,0:0|0:0,0:0:0:0:
168,264,103278,1,2,0:0:0:0:
168,264,103447,2,0,L|80:236,1,83.9999974365235,8|0,0:0|0:0,0:0:0:0:
36,240,103956,2,0,P|16:192|28:112,1,125.999996154785,2|2,0:0|0:0,0:0:0:0:
108,68,104803,1,8,0:0:0:0:
196,116,105142,2,0,L|268:108,1,41.9999987182618,0|0,0:0|0:0,0:0:0:0:
280,84,105481,6,0,P|348:100|412:60,1,125.999996154785,2|2,0:0|0:0,0:0:0:0:
444,60,106159,2,0,B|432:108|432:108|456:200,1,125.999996154785,8|2,0:0|0:0,0:0:0:0:
448,232,106837,1,0,0:0:0:0:
448,232,107007,2,0,P|467:274|466:323,1,83.9999974365235,8|0,0:0|0:0,0:0:0:0:
444,356,107515,2,0,L|384:344,1,41.9999987182618,0|8,0:0|0:0,0:0:0:0:
352,352,107854,1,8,0:0:0:0:
250,335,108193,6,0,L|138:311,1,83.9999974365235,6|2,0:0|0:0,0:0:0:0:
81,264,108871,1,2,0:0:0:0:
1,328,109210,1,8,0:0:0:0:
81,264,109549,2,0,P|97:216|93:144,1,83.9999974365235,2|2,0:0|0:0,0:0:0:0:
52,92,110227,1,2,0:0:0:0:
128,24,110566,2,0,L|204:16,1,41.9999987182618,8|0,0:0|0:0,0:0:0:0:
216,40,110905,6,0,P|296:24|332:32,1,83.9999974365235,2|2,0:0|0:0,0:0:0:0:
384,76,111583,1,2,0:0:0:0:
468,24,111922,1,8,0:0:0:0:
384,76,112261,2,0,L|384:184,1,83.9999974365235,2|8,0:0|0:0,0:0:0:0:
476,200,112939,2,0,L|476:116,1,83.9999974365235,2|8,0:0|0:0,0:0:0:0:
384,160,113617,6,0,L|384:232,1,41.9999987182618,6|0,0:0|0:0,0:0:0:0:
396,252,113956,2,0,P|340:232|276:232,1,83.9999974365235,2|2,0:0|0:0,0:0:0:0:
232,288,114634,1,8,0:0:0:0:
136,260,114973,2,0,L|132:152,1,83.9999974365235,2|2,0:0|0:0,0:0:0:0:
69,97,115651,1,2,0:0:0:0:
150,38,115990,2,0,L|222:38,1,41.9999987182618,8|0,0:0|0:0,0:0:0:0:
232,68,116329,6,0,P|276:72|336:56,1,83.9999974365235,2|2,0:0|0:0,0:0:0:0:
360,88,116837,2,0,B|392:76|392:76|456:80,1,83.9999974365235,0|0,0:0|0:0,0:0:0:0:
476,116,117346,1,8,0:0:0:0:
444,212,117685,5,6,0:0:0:0:
356,260,118024,2,0,L|236:228,2,83.9999974365235,8|8|8,0:0|0:0|0:0,0:0:0:0:
336,364,119041,1,2,0:0:0:0:
336,364,119210,2,0,L|232:336,1,83.9999974365235,6|8,0:0|0:0,0:0:0:0:
208,356,119719,2,0,P|176:340|108:344,1,83.9999974365235,6|2,0:0|0:0,0:0:0:0:
28,360,120397,6,0,L|24:264,1,83.9999974365235,6|2,0:0|0:0,0:0:0:0:
100,208,121075,2,0,L|104:112,1,83.9999974365235,8|0,0:0|0:0,0:0:0:0:
184,60,121752,1,2,0:0:0:0:
104,0,122091,1,2,0:0:0:0:
184,60,122430,2,0,P|240:72|284:64,1,83.9999974365235,8|0,0:0|0:0,0:0:0:0:
356,116,123108,6,0,P|416:100|504:168,1,167.999994873047,2|8,0:0|0:0,0:0:0:0:
408,200,124125,1,0,0:0:0:0:
356,116,124464,2,0,L|360:56,2,41.9999987182618,2|8|2,0:0|0:0|0:0,0:0:0:0:
276,176,125142,2,0,P|220:164|176:172,1,83.9999974365235,8|8,0:0|0:0,0:0:0:0:
124,236,125820,6,0,P|100:200|104:124,2,83.9999974365235,6|2|8,0:0|0:0|0:0,0:0:0:0:
204,296,126837,1,0,0:0:0:0:
116,348,127176,2,0,P|73:339|22:282,2,83.9999974365235,2|2|8,0:0|0:0|0:3,0:0:0:0:
204,296,128193,1,8,0:0:0:0:
296,340,128532,6,0,P|332:328|404:336,1,83.9999974365235,6|8,0:0|0:0,0:0:0:0:
428,348,129041,2,0,B|416:316|416:316|424:232,1,83.9999974365235,6|8,0:0|0:0,0:0:0:0:
452,228,129549,2,0,P|460:176|444:120,1,83.9999974365235,6|8,0:0|0:0,0:0:0:0:
438,97,130058,1,12,0:0:0:0:
351,46,130397,1,2,0:0:0:0:
351,46,130566,2,0,L|265:63,1,83.9999974365235,12|12,0:0|0:0,0:0:0:0:
185,121,131244,6,0,P|98:58|177:49,1,240,6|6,0:0|0:0,0:0:0:0:
268,62,132939,1,0,0:0:0:0:
268,62,133108,2,0,P|287:122|273:173,1,116.999994644165,12|8,0:0|0:0,0:0:0:0:
228,279,133956,6,0,B|188:271|188:271|116:287,1,96,6|8,0:0|0:0,0:0:0:0:
80,264,134464,2,0,B|36:232|27:186,1,96,0|2,0:0|0:0,0:0:0:0:
32,128,134973,1,8,0:0:0:0:
108,44,135312,2,0,B|148:36|148:36|220:52,1,96,0|8,0:0|0:0,0:0:0:0:
244,88,135820,2,0,P|288:100|360:84,1,96,0|2,0:0|0:0,0:0:0:0:
388,68,136329,1,8,0:0:0:0:
492,120,136668,6,0,B|484:256,1,96,2|8,0:0|0:0,0:0:0:0:
448,260,137176,2,0,P|408:232|328:228,1,96,0|2,0:0|0:0,0:0:0:0:
308,244,137685,1,8,0:0:0:0:
204,296,138024,2,0,L|92:272,1,96,0|8,0:0|0:0,0:0:0:0:
52,284,138532,2,0,P|42:248|41:205,1,48,0|2,0:0|0:0,0:0:0:0:
0,196,138871,2,0,P|3:153|17:109,1,48,8|2,0:0|0:0,0:0:0:0:
108,96,139380,6,0,P|124:52|124:-8,2,96,6|8|2,0:0|0:0|0:0,0:0:0:0:
88,152,140227,2,0,L|192:144,1,96,2|6,0:0|0:0,0:0:0:0:
288,96,140905,2,0,L|360:112,1,48,2|8,0:0|0:0,0:0:0:0:
424,180,141413,1,2,0:0:0:0:
508,100,141752,1,8,0:0:0:0:
424,180,142091,6,0,P|417:227|426:274,1,96,6|8,0:0|0:0,0:0:0:0:
452,328,142600,2,0,B|412:320|412:320|357:329,1,96,6|8,0:0|0:0,0:0:0:0:
252,288,143278,2,0,B|197:297|197:297|157:289,2,96,8|2|2,0:0|0:0|0:0,0:0:0:0:
296,248,144125,1,12,0:0:0:0:
344,144,144464,1,12,0:0:0:0:
260,64,144803,6,0,P|232:108|240:184,1,96,6|8,0:0|0:0,0:0:0:0:
204,204,145312,2,0,L|88:176,1,96,0|2,0:0|0:0,0:0:0:0:
64,212,145820,1,8,0:0:0:0:
104,320,146159,2,0,P|156:304|224:312,1,96,0|8,0:0|0:0,0:0:0:0:
252,328,146668,2,0,L|368:300,1,96,0|2,0:0|0:0,0:0:0:0:
400,324,147176,1,8,0:0:0:0:
488,248,147515,6,0,P|501:213|500:148,1,96,6|8,0:0|0:0,0:0:0:0:
479,101,148024,2,0,B|431:93|431:93|375:109,1,96,0|2,0:0|0:0,0:0:0:0:
344,144,148532,1,8,0:0:0:0:
296,248,148871,2,0,P|240:280|144:272,1,144,0|2,0:0|0:0,0:0:0:0:
104,276,149549,2,0,L|56:200,1,48,8|8,0:0|0:0,0:0:0:0:
92,176,149888,1,0,0:0:0:0:
196,128,150227,6,0,L|304:136,1,96,6|8,0:0|0:0,0:0:0:0:
344,144,150736,2,0,P|398:130|452:136,1,96,6|8,0:0|0:0,0:0:0:0:
496,152,151244,1,2,0:0:0:0:
496,152,151413,2,0,L|482:37,1,96,6|8,0:0|0:0,0:0:0:0:
444,12,151922,1,0,0:0:0:0:
340,60,152261,1,6,0:0:0:0:
240,4,152600,1,6,0:0:0:0:
152,76,152939,6,0,P|140:120|148:180,1,96,6|0,0:0|0:0,0:0:0:0:
192,204,153447,2,0,L|284:212,1,48,2|8,0:0|0:0,0:0:0:0:
297,309,153956,2,0,L|344:304,1,48,0|2,0:0|0:0,0:0:0:0:
392,272,154295,2,0,P|404:225|399:178,1,96,0|0,0:0|0:0,0:0:0:0:
291,135,154973,1,8,0:0:0:0:
372,52,155312,2,0,B|432:40|432:40|492:48,2,96,2|6|0,0:0|0:0|0:0,0:0:0:0:
316,56,156159,6,0,P|286:54|248:44,1,48,2|8,0:0|0:0,0:0:0:0:
152,76,156668,1,0,0:0:0:0:
152,76,156837,2,0,P|88:64|40:76,1,96,8|8,0:0|0:3,0:0:0:0:
20,112,157346,2,0,L|32:236,1,96,8|4,0:0|0:0,0:0:0:0:
120,280,158024,1,8,0:0:0:0:
120,280,158193,6,0,L|128:196,1,83.9999974365235,6|2,0:0|0:0,0:0:0:0:
224,160,158871,2,0,L|232:243,1,83.9999974365235,6|2,0:0|0:0,0:0:0:0:
328,276,159549,2,0,L|336:192,2,83.9999974365235,6|8|8,0:0|0:0|0:0,0:0:0:0:
396,348,160566,1,8,0:0:0:0:
476,288,160905,6,0,P|496:232|484:172,1,83.9999974365235,6|2,0:0|0:0,0:0:0:0:
444,120,161583,2,0,P|403:127|361:120,1,83.9999974365235,6|2,0:0|0:0,0:0:0:0:
276,68,162261,2,0,L|267:151,2,83.9999974365235,2|12|12,0:0|0:0|0:0,0:0:0:0:
360,8,163278,1,12,0:0:0:0:
276,68,163617,6,0,P|234:75|193:67,1,83.9999974365235,6|2,0:0|0:0,0:0:0:0:
148,48,164125,1,8,0:0:0:0:
60,100,164464,2,0,L|56:212,1,83.9999974365235,2|8,0:0|0:0,0:0:0:0:
96,220,164973,2,0,P|112:264|104:340,1,83.9999974365235,6|2,0:0|0:0,0:0:0:0:
107,350,165481,1,8,0:0:0:0:
107,350,165651,2,0,P|146:335|187:333,1,83.9999974365235,0|2,0:0|0:0,0:0:0:0:
237,343,166159,1,8,0:0:0:0:
330,304,166498,6,0,B|380:311|380:311|442:292,2,83.9999974365235,6|8|2,0:0|0:0|0:0,0:0:0:0:
290,271,167346,1,2,0:0:0:0:
333,180,167685,2,0,P|339:117|333:76,1,83.9999974365235,6|2,0:0|0:0,0:0:0:0:
245,49,168363,1,2,0:0:0:0:
189,133,168702,2,0,P|192:160|201:185,1,41.9999987182618,8|2,0:0|0:0,0:0:0:0:
184,280,169210,6,0,L|92:268,1,83.9999974365235,6|8,0:0|0:0,0:0:0:0:
4,236,169888,2,0,P|0:288|28:340,1,83.9999974365235,0|8,0:0|0:0,0:0:0:0:
107,350,170566,2,0,P|112:308|100:268,1,83.9999974365235,2|8,0:0|0:0,0:0:0:0:
88,220,171075,2,0,L|112:124,1,83.9999974365235,2|2,0:0|0:0,0:0:0:0:
148,108,171583,1,8,0:0:0:0:
244,80,171922,6,0,P|283:92|325:89,1,83.9999974365235,6|8,0:0|0:0,0:0:0:0:
418,128,172600,2,0,L|426:44,2,83.9999974365235,0|8|2,0:0|0:0|0:0,0:0:0:0:
333,180,173617,2,0,L|337:228,1,41.9999987182618,8|2,0:0|0:0,0:0:0:0:
436,230,174125,2,0,L|432:278,1,41.9999987182618,2|8,0:0|0:0,0:0:0:0:
398,367,174634,6,0,P|346:339|266:339,1,125.999996154785,6|6,0:0|0:0,0:0:0:0:
183,363,175481,2,0,L|179:321,1,41.9999987182618,8|6,0:0|0:0,0:0:0:0:
116,244,175990,1,12,0:0:0:0:
256,192,176075,12,4,178702,0:0:0:0:
100,216,186159,6,0,L|92:128,1,83.9999974365235,2|8,0:0|0:0,0:0:0:0:
164,64,186837,1,8,0:0:0:0:
192,40,188871,5,12,0:0:0:0:
280,92,189210,1,12,0:0:0:0:
376,56,189549,6,0,L|384:-24,2,41.9999987182618,6|2|2,0:0|0:0|0:0,0:0:0:0:
432,140,190227,2,0,L|494:89,2,41.9999987182618,2|2|2,0:0|0:0|0:0,0:0:0:0:
400,236,190905,2,0,L|480:244,2,41.9999987182618,2|2|2,0:0|0:0|0:0,0:0:0:0:
308,280,191583,2,0,L|358:342,2,41.9999987182618,0|12|2,0:0|0:0|0:0,0:0:0:0:
264,256,192091,1,8,0:0:0:0:
264,256,192261,6,0,B|228:264|228:264|168:256,1,83.9999974365235,6|2,0:0|0:0,0:0:0:0:
100,200,192939,2,0,P|88:180|76:136,2,41.9999987182618,2|2|2,0:0|0:0|0:0,0:0:0:0:
176,136,193617,2,0,P|181:113|204:73,2,41.9999987182618,2|2|2,0:0|0:0|0:0,0:0:0:0:
276,148,194295,2,0,P|296:136|340:124,2,41.9999987182618,2|12|2,0:0|0:0|0:0,0:0:0:0:
340,228,194973,6,0,P|400:252|420:284,1,83.9999974365235,6|8,0:0|0:0,0:0:0:0:
428,312,195481,2,0,B|476:320|476:320|520:308,2,83.9999974365235,6|2|6,0:0|0:0|0:0,0:0:0:0:
328,332,196498,1,2,0:0:0:0:
328,332,196668,2,0,L|212:328,1,83.9999974365235,8|8,0:0|0:0,0:0:0:0:
152,376,197346,1,8,0:0:0:0:
64,328,197685,6,0,P|52:264|60:220,1,83.9999974365235,6|10,0:0|0:0,0:0:0:0:
28,204,198193,2,0,L|56:112,1,83.9999974365235,6|2,0:0|0:0,0:0:0:0:
96,96,198702,1,8,0:0:0:0:
96,96,198871,2,0,B|136:104|136:104|184:88|184:88|244:100,1,125.999996154785,6|10,0:0|0:0,0:0:0:0:
311,132,199719,2,0,P|332:129|352:123,1,41.9999987182618,2|12,0:0|0:0,0:0:0:0:
464,20,200397,1,6,0:0:0:0:
464,20,200736,6,0,P|496:68|508:128,2,96,12|2|8,0:0|0:0|0:0,0:0:0:0:
408,32,201583,2,0,B|372:44|372:44|296:32,1,96,6|2,0:0|0:0,0:0:0:0:
260,24,202091,1,8,0:0:0:0:
152,64,202430,2,0,P|76:48|40:56,1,96,2|8,2:2|0:0,0:0:0:0:
88,164,203108,6,0,P|135:165|181:150,1,96,6|8,0:0|0:0,0:0:0:0:
236,164,203617,2,0,B|272:152|272:152|348:164,1,96,0|2,0:0|0:0,0:0:0:0:
368,204,204125,1,8,0:0:0:0:
464,140,204464,2,0,P|450:98|407:54,1,96,0|8,0:0|0:0,0:0:0:0:
368,24,204973,1,2,0:0:0:0:
316,48,205142,2,0,L|252:40,1,48,2|8,0:0|0:0,0:0:0:0:
216,64,205481,2,0,L|152:56,1,48,2|8,0:0|0:0,0:0:0:0:
116,75,205820,6,0,P|92:116|87:163,2,96,6|8|2,0:0|0:0|0:0,0:0:0:0:
204,152,206837,1,8,0:0:0:0:
204,152,207007,2,0,B|216:188|216:188|204:268,1,96,6|4,0:0|0:0,0:0:0:0:
180,296,207515,1,8,0:0:0:0:
93,371,207854,6,0,P|46:360|-1:368,2,96,0|8|6,0:0|0:0|0:0,0:0:0:0:
202,334,208871,1,8,0:0:0:0:
253,360,209041,2,0,L|370:352,1,96,0|2,0:0|0:0,0:0:0:0:
457,315,209719,2,0,P|474:260|471:215,1,96,6|2,0:0|0:0,0:0:0:0:
362,248,210397,1,2,0:0:0:0:
362,248,210566,2,0,P|316:231|269:231,1,96,2|2,0:0|0:0,0:0:0:0:
158,199,211244,6,0,P|156:246|171:290,1,96,6|8,0:0|0:0,0:0:0:0:
209,333,211752,2,0,L|318:320,1,96,0|2,0:0|0:0,0:0:0:0:
353,359,212261,1,8,0:0:0:0:
460,315,212600,2,0,P|477:260|474:215,1,96,0|8,0:0|0:0,0:0:0:0:
492,165,213108,2,0,L|461:69,1,96,0|2,0:0|0:0,0:0:0:0:
424,32,213617,1,8,0:0:0:0:
352,116,213956,6,0,P|308:132|244:132,1,96,6|8,0:0|0:0,0:0:0:0:
204,152,214464,2,0,P|144:136|84:144,1,96,0|2,0:0|0:0,0:0:0:0:
60,168,214973,1,8,0:0:0:0:
20,276,215312,2,0,L|40:392,1,96,0|8,0:0|0:0,0:0:0:0:
92,376,215820,2,0,P|130:364|167:362,1,48,2|8,0:0|0:0,0:0:0:0:
184,328,216159,2,0,P|223:336|255:354,1,48,2|8,0:0|0:0,0:0:0:0:
344,360,216668,6,0,P|388:348|460:356,1,96,6|8,0:0|0:0,0:0:0:0:
496,364,217176,2,0,L|504:244,1,96,6|2,0:0|0:0,0:0:0:0:
488,212,217685,1,8,0:0:0:0:
436,188,217854,2,0,P|392:200|320:192,1,96,6|8,0:0|0:0,0:0:0:0:
284,184,218363,1,0,0:0:0:0:
225,84,218702,1,6,0:0:0:0:
322,23,219041,1,6,0:0:0:0:
385,119,219380,1,6,0:0:0:0:
214,198,219888,6,0,L|202:146,1,48,2|8,0:0|0:0,0:0:0:0:
265,53,220397,2,0,L|213:41,1,48,0|2,0:0|0:0,0:0:0:0:
168,28,220736,2,0,P|121:40|74:38,1,96
4,128,221413,2,0,B|-4:164|-4:164|12:240,1,96,8|0,0:0|0:0,0:0:0:0:
112,272,222091,2,0,B|120:236|120:236|104:160,1,96,6|0,0:0|0:0,0:0:0:0:
4,128,222769,1,8,0:0:0:0:
107,178,223108,6,0,L|176:164,1,48,8|2,0:0|0:0,0:0:0:0:
204,200,223447,2,0,P|252:216|308:200,1,96,0|0,0:0|0:0,0:0:0:0:
396,260,224125,2,0,P|412:212|396:156,1,96,8|0,0:0|0:0,0:0:0:0:
308,104,224803,6,0,P|234:26|307:23,1,240,6|8,0:0|0:0,0:0:0:0:
414,109,226837,2,0,L|402:169,1,60,2|8,0:0|0:0,0:0:0:0:
460,232,227515,5,6,0:0:0:0:
444,264,228532,1,0,0:0:0:0:
444,264,228702,2,0,L|320:252,1,107.999996704102,6|8,0:0|0:0,0:0:0:0:
264,304,229549,6,0,B|224:324|192:308|192:308|152:288|116:312,1,143.999995605469,2|6,0:0|0:0,0:0:0:0:
96,320,231244,1,0,0:0:0:0:
96,320,231413,6,0,P|80:264|88:208,1,107.999996704102,6|8,0:0|0:0,0:0:0:0:
140,144,232261,2,0,L|132:60,1,71.9999978027344,2|8,0:0|0:0,0:0:0:0:
156,32,232769,1,6,0:0:0:0:
256,192,232854,12,8,234973,0:0:0:0:
156,32,235651,6,0,L|260:28,1,90.0000034332277,6|8,0:0|0:0,0:0:0:0:
344,72,236329,2,0,P|388:75|430:60,1,90.0000034332277,2|8,0:0|0:0,0:0:0:0:
476,88,236837,2,0,B|460:132|460:132|472:236,1,135.000005149841,6|8,0:0|0:0,0:0:0:0:
416,316,237685,1,2,0:0:0:0:
504,380,238024,1,8,0:0:0:0:
416,316,238363,6,0,P|372:300|312:312,1,90.0000034332277,6|8,0:0|0:0,0:0:0:0:
228,340,239041,2,0,P|192:356|132:344,1,90.0000034332277,2|8,0:0|0:0,0:0:0:0:
88,352,239549,1,6,0:0:0:0:
88,352,239719,2,0,L|72:252,1,90.0000034332277,0|8,0:0|0:0,0:0:0:0:
36,224,240227,2,0,P|52:176|40:120,1,90.0000034332277,8|2,0:3|0:0,0:0:0:0:
32,84,240736,1,8,0:0:0:0:
124,24,241075,6,0,L|240:36,1,90.0000034332277,6|8,0:0|0:0,0:0:0:0:
296,92,241752,2,0,L|416:80,1,90.0000034332277,2|8,0:0|0:0,0:0:0:0:
436,64,242261,2,0,B|427:118|427:118|456:184|456:184|448:240,1,180.000006866455,6|8,0:0|0:0,0:0:0:0:
416,280,243108,1,8,0:0:0:0:
260,320,243617,1,12,0:0:0:0:
256,192,243702,12,0,249210,0:0:0:0:
