osu file format v14

[General]
AudioFilename: Yasashisa no Riyuu.mp3
AudioLeadIn: 0
PreviewTime: 178532
Countdown: 0
SampleSet: Soft
StackLeniency: 0.4
Mode: 0
LetterboxInBreaks: 0
EpilepsyWarning: 1
WidescreenStoryboard: 1

[Editor]
DistanceSpacing: 1.2
BeatDivisor: 4
GridSize: 4
TimelineZoom: 2

[Metadata]
Title:Yasashisa no Riyuu
TitleUnicode:優しさの理由
Artist:ChouCho
ArtistUnicode:ChouCho
Creator:Time Capsule
Version:Insane Desu
Source:氷菓
Tags:Hyouka Opening 1 Saori Kodama Makoto Miyazaki eclipselotus Akitoshi MugiwaraSekai Irohas Shiratoi Fii -wwwww Vanillas Moena
BeatmapID:1010826
BeatmapSetID:473056

[Difficulty]
HPDrainRate:6
CircleSize:4
OverallDifficulty:8
ApproachRate:9
SliderMultiplier:2
SliderTickRate:1

[Events]
//Background and Video events
0,0,"3.jpg",0,0
//Break Periods
2,178901,185390
//Storyboard Layer 0 (Background)
//Storyboard Layer 1 (Fail)
//Storyboard Layer 2 (Pass)
//Storyboard Layer 3 (Foreground)
Sprite,Foreground,Centre,"sb\staff\Time Capsule.png",320,240 M,0,20058,,320,350 F,0,20058,,1 S,0,20058,25481,0.95,0.9 F,0,21413,,0 F,0,22769,,1 F,0,24125,25481,1,0
//Storyboard Sound Samples

[TimingPoints]
1075,338.983050847458,4,2,2,60,1,0
1752,-100,4,2,2,50,0,0
2430,-100,4,2,2,40,0,0
3108,-100,4,2,2,30,0,0
3786,-125,4,2,1,45,0,0
11922,-125,4,2,2,55,0,0
12600,-166.666666666667,4,2,2,35,0,0
14634,-100,4,2,1,60,0,0
15820,-125,4,2,1,60,0,0
16329,-100,4,2,1,60,0,0
24295,-100,4,3,1,60,0,0
25481,-125,4,2,1,50,0,0
35481,-125,4,3,1,40,0,0
36329,-111.111111111111,4,2,1,60,0,0
46498,-111.111111111111,4,3,1,60,0,0
46837,-111.111111111111,4,2,1,60,0,0
48871,-111.111111111111,4,2,1,60,0,0
49210,-125,4,2,1,60,0,0
49549,-125,4,2,1,60,0,0
58702,-125,4,3,1,60,0,0
58871,-125,4,2,1,60,0,0
59380,-166.666666666667,4,2,2,70,0,0
60058,-166.666666666667,4,2,2,60,0,0
62091,-100,4,2,1,70,0,1
67515,-200,4,2,1,70,0,1
67854,-100,4,2,1,70,0,1
72685,-100,4,2,2,70,0,1
72939,-100,4,2,1,70,0,1
77515,-100,4,3,1,70,0,1
78363,-100,4,2,1,70,0,1
79888,-100,4,3,1,70,0,1
80397,-125,4,2,1,70,0,1
83786,-125,4,2,1,60,0,1
84464,-125,4,2,1,50,0,1
85142,-125,4,2,1,40,0,1
85820,-125,4,2,1,30,0,1
86498,-125,4,2,1,50,0,0
96159,-125,4,2,1,40,0,0
97346,-125,4,2,1,55,0,0
107007,-125,4,3,1,45,0,0
108193,-111.111111111111,4,2,1,65,0,0
118024,-111.111111111111,4,3,1,65,0,0
118702,-111.111111111111,4,2,1,65,0,0
119549,-111.111111111111,4,3,1,65,0,0
119719,-111.111111111111,4,2,1,65,0,0
120397,-125,4,2,1,65,0,0
129041,-117.647058823529,4,2,1,65,0,0
129549,-111.111111111111,4,2,1,65,0,0
129719,-111.111111111111,4,3,1,65,0,0
130058,-111.111111111111,4,2,1,65,0,0
131244,-166.666666666667,4,2,2,75,0,0
131922,-166.666666666667,4,2,2,65,0,0
133956,-100,4,2,1,75,0,1
142091,-100,4,2,1,75,0,1
143278,-100,4,3,1,75,0,1
143447,-100,4,2,1,75,0,1
144549,-100,4,2,2,75,0,1
144803,-100,4,2,1,75,0,1
149719,-100,4,3,1,75,0,1
150227,-100,4,2,1,75,0,1
151752,-100,4,3,1,75,0,1
152261,-125,4,2,1,75,0,1
155651,-117.647058823529,4,2,1,65,0,1
156837,-117.647058823529,4,3,1,65,0,1
157007,-117.647058823529,4,2,1,70,0,1
158193,-111.111111111111,4,2,1,75,0,0
159888,-111.111111111111,4,3,1,75,0,0
160905,-111.111111111111,4,2,1,75,0,0
162261,-111.111111111111,4,2,2,55,0,0
163447,-111.111111111111,4,2,1,55,0,0
163617,-111.111111111111,4,2,1,70,0,0
175990,-111.111111111111,4,2,1,60,0,0
176668,-111.111111111111,4,2,1,40,0,0
177346,-111.111111111111,4,2,1,10,0,0
177854,-111.111111111111,4,2,1,60,0,0
185990,-125,4,2,1,75,0,0
186159,-125,4,2,1,30,0,0
186329,-125,4,2,1,75,0,0
189549,-125,4,2,1,55,0,0
192261,-125,4,2,1,65,0,0
194973,-125,4,2,1,75,0,0
196837,-125,4,3,1,75,0,0
197685,-125,4,2,1,75,0,0
200397,-125,4,3,1,55,0,0
200736,-95.2380952380952,4,2,1,85,0,1
218193,-95.2380952380952,4,3,1,85,0,1
218702,-111.111111111111,4,2,1,75,0,1
219380,-111.111111111111,4,2,1,75,0,0
227515,-166.666666666667,4,2,2,65,0,0
232939,-166.666666666667,4,2,2,75,0,0
233617,-166.666666666667,4,2,2,65,0,0
234295,-166.666666666667,4,2,2,55,0,0
234973,-166.666666666667,4,2,1,45,0,0
235651,-111.111111111111,4,2,1,60,0,0
242600,-111.111111111111,4,3,1,60,0,0
243617,-111.111111111111,4,2,1,60,0,0
243786,-111.111111111111,4,2,1,50,0,0
245142,-111.111111111111,4,2,1,40,0,0
246498,-111.111111111111,4,2,1,30,0,0
247854,-111.111111111111,4,2,1,15,0,0
249210,-111.111111111111,4,2,1,5,0,0

[Colours]
Combo1 : 255,0,128
Combo2 : 255,255,0
Combo3 : 255,128,0
Combo4 : 255,255,113
Combo5 : 255,128,128
Combo6 : 255,0,0

[HitObjects]
256,192,1075,12,0,3447,0:0:0:0:
328,256,3786,6,0,P|272:244|220:260,1,80,2|0,0:0|0:0,0:0:0:0:
109,298,4125,1,0,0:0:0:0:
250,247,4295,1,0,0:0:0:0:
184,344,4464,2,0,P|132:256|156:180,1,160,8|0,0:0|0:0,0:0:0:0:
233,131,4973,1,2,0:0:0:0:
233,131,5312,5,0,0:0:0:0:
338,176,5481,2,0,L|327:255,1,80,2|0,0:0|0:0,0:0:0:0:
184,344,5820,2,0,L|173:265,1,80,8|0,0:0|0:0,0:0:0:0:
319,292,6159,1,0,0:0:0:0:
235,171,6329,1,0,0:0:0:0:
319,292,6498,6,0,P|239:252|147:280,1,160,2|0,0:0|0:0,0:0:0:0:
20,287,7007,1,0,0:0:0:0:
96,224,7176,2,0,L|139:19,1,160,8|0,0:0|0:0,0:0:0:0:
216,160,7685,5,2,0:0:0:0:
128,67,7854,1,0,0:0:0:0:
220,136,8024,1,2,0:0:0:0:
96,224,8193,1,2,0:0:0:0:
96,224,8532,5,8,0:0:0:0:
224,112,8702,1,0,0:0:0:0:
180,283,8871,1,2,0:0:0:0:
44,132,9041,1,0,0:0:0:0:
180,283,9210,6,0,L|260:273,1,80,2|0,0:0|0:0,0:0:0:0:
269,352,9549,2,0,L|259:272,1,80
363,171,9888,2,0,P|437:194|464:266,1,160,8|0,0:0|0:0,0:0:0:0:
375,260,10397,2,0,P|363:216|388:97,1,160,2|0,0:0|0:0,0:0:0:0:
459,24,10905,1,2,0:0:0:0:
383,105,11075,1,0,0:0:0:0:
351,2,11244,1,8,0:0:0:0:
383,105,11583,5,0,0:0:0:0:
279,149,11752,1,0,0:0:0:0:
203,65,11922,1,6,0:0:0:0:
203,65,12600,6,0,L|175:196,1,119.999996337891,8|0,0:0|0:0,0:0:0:0:
195,281,13108,1,0,0:0:0:0:
332,249,13278,2,0,L|275:233,1,59.9999981689454,8|0,0:0|0:0,0:0:0:0:
288,360,13617,1,0,0:0:0:0:
384,316,13786,2,0,P|416:267|408:209,1,119.999996337891,8|0,0:0|0:0,0:0:0:0:
274,232,14295,1,6,0:0:0:0:
288,104,14634,6,0,P|254:75|162:86,1,100,6|0,0:0|0:0,0:0:0:0:
72,176,14973,1,8,0:0:0:0:
212,156,15142,1,0,0:0:0:0:
123,45,15312,1,2,0:0:0:0:
212,156,15481,1,0,0:0:0:0:
272,28,15651,1,8,0:0:0:0:
129,124,15820,6,0,P|137:204|213:244,1,160,6|0,0:0|0:0,0:0:0:0:
375,260,16329,1,8,0:0:0:0:
216,328,16498,1,0,0:0:0:0:
318,184,16668,1,2,0:0:0:0:
315,331,16837,1,0,0:0:0:0:
212,156,17007,1,8,0:0:0:0:
315,331,17176,1,0,0:0:0:0:
510,209,17346,6,0,P|522:162|511:114,1,100,6|0,0:0|0:0,0:0:0:0:
318,184,17685,2,0,L|430:168,1,100,8|0,0:0|0:0,0:0:0:0:
497,90,18024,1,2,0:0:0:0:
433,246,18193,1,0,0:0:0:0:
352,96,18363,1,8,0:0:0:0:
433,246,18532,6,0,P|389:314|261:262,1,200,6|0,0:0|0:0,0:0:0:0:
224,112,19041,1,8,0:0:0:0:
345,234,19210,2,0,L|117:198,1,200,6|0,0:0|0:0,0:0:0:0:
16,184,19719,1,8,0:0:0:0:
105,315,19888,1,0,0:0:0:0:
16,184,20058,6,0,P|5:103|137:61,1,200,6|8,0:0|0:0,0:0:0:0:
246,220,20566,2,0,B|148:203,1,100,0|2,0:0|0:0,0:0:0:0:
16,280,20905,1,0,0:0:0:0:
88,133,21075,1,8,0:0:0:0:
283,303,21244,6,0,P|338:226|296:142,1,200,6|0,0:0|0:0,0:0:0:0:
48,221,21752,2,0,B|155:200,1,100,8|0,0:0|0:0,0:0:0:0:
246,220,22091,1,2,0:0:0:0:
129,124,22261,1,0,0:0:0:0:
195,281,22430,1,8,0:0:0:0:
288,104,22600,1,0,0:0:0:0:
288,104,22685,1,0,0:0:0:0:
288,104,22769,5,6,0:0:0:0:
256,192,22854,12,0,24125,0:0:0:0:
412,140,24295,5,8,0:0:0:0:
412,140,24464,2,0,L|428:24,1,100
294,140,24803,1,4,0:0:0:0:
412,140,24973,1,0,0:0:0:0:
281,41,25142,2,0,L|294:140,1,100
195,281,25481,6,0,P|184:241|189:192,1,80,6|0,0:0|0:0,0:0:0:0:
302,291,25820,1,0,0:0:0:0:
239,365,25990,1,0,0:0:0:0:
239,365,26159,2,0,P|151:365|103:301,1,160,8|0,0:0|0:0,0:0:0:0:
16,280,26668,6,0,L|38:122,1,160,2|0,0:0|0:0,0:0:0:0:
200,68,27176,1,2,0:0:0:0:
106,314,27515,1,8,0:0:0:0:
209,159,27854,1,0,0:0:0:0:
129,211,28024,1,0,0:0:0:0:
195,281,28193,6,0,L|353:259,1,160,2|0,0:0|0:0,0:0:0:0:
432,340,28702,1,0,0:0:0:0:
432,340,28871,2,0,P|464:288|424:172,1,160,8|0,0:0|0:0,0:0:0:0:
288,175,29380,1,2,0:0:0:0:
288,175,29549,5,0,0:0:0:0:
381,153,29719,1,2,0:0:0:0:
408,63,29888,1,2,0:0:0:0:
353,258,30227,1,8,0:0:0:0:
451,219,30397,1,0,0:0:0:0:
446,115,30566,1,2,0:0:0:0:
345,88,30736,1,0,0:0:0:0:
288,175,30905,6,0,L|192:156,1,80,2|0,0:0|0:0,0:0:0:0:
123,45,31244,1,0,0:0:0:0:
132,208,31413,1,0,0:0:0:0:
38,121,31583,1,8,0:0:0:0:
225,318,31922,1,0,0:0:0:0:
225,318,32091,6,0,L|209:158,1,160,2|0,0:0|0:0,0:0:0:0:
408,63,32600,2,0,P|341:104|266:84,1,160,2|8,0:0|0:0,0:0:0:0:
68,136,33278,1,0,0:0:0:0:
123,45,33447,1,0,0:0:0:0:
164,136,33617,6,0,L|323:128,1,160,2|0,0:0|0:0,0:0:0:0:
448,187,34125,1,0,0:0:0:0:
332,278,34295,2,0,P|304:205|323:128,1,160,8|0,0:0|0:0,0:0:0:0:
439,37,34803,1,2,0:0:0:0:
475,198,34973,2,0,P|402:226|412:155,1,160,2|0,0:0|0:0,0:0:0:0:
350,300,35481,5,8,0:0:0:0:
350,300,35566,1,0,0:0:0:0:
350,300,35651,1,8,0:0:0:0:
245,258,35820,2,0,L|234:174,1,80,8|8,0:0|0:0,0:0:0:0:
132,208,36159,1,8,0:0:0:0:
206,99,36329,6,0,L|218:10,1,89.9999972534181,6|0,0:0|0:0,0:0:0:0:
59,197,36668,2,0,P|113:178|152:184,1,89.9999972534181,2|0,0:0|0:0,0:0:0:0:
272,313,37007,2,0,P|227:315|186:297,1,89.9999972534181,2|0,0:0|0:0,0:0:0:0:
206,99,37346,1,8,0:0:0:0:
244,212,37515,1,0,0:0:0:0:
324,128,37685,6,0,L|413:116,1,89.9999972534181,2|0,0:0|0:0,0:0:0:0:
416,244,38024,2,0,L|327:232,1,89.9999972534181,2|0,0:0|0:0,0:0:0:0:
492,68,38363,2,0,P|504:111|497:155,1,89.9999972534181
326,231,38702,1,8,0:0:0:0:
413,115,38871,1,0,0:0:0:0:
441,333,39041,6,0,P|357:311|326:231,1,179.999994506836,2|2,0:0|0:0,0:0:0:0:
416,244,39549,1,0,0:0:0:0:
298,352,39719,2,0,L|120:321,1,179.999994506836,2|8,0:0|0:0,0:0:0:0:
40,144,40227,6,0,L|28:84,2,44.999998626709,0|0|2,0:0|0:0|0:0,0:0:0:0:
60,272,40566,1,0,0:0:0:0:
157,112,40736,5,8,0:0:0:0:
4,216,40905,1,0,0:0:0:0:
121,322,41075,5,2,0:0:0:0:
153,138,41244,1,0,0:0:0:0:
268,368,41413,5,8,0:0:0:0:
227,212,41583,1,0,0:0:0:0:
298,290,41752,6,0,L|417:280,1,89.9999972534181,6|0,0:0|0:0,0:0:0:0:
504,212,42091,1,2,0:0:0:0:
496,348,42261,1,0,0:0:0:0:
387,282,42430,2,0,P|336:204|368:108,1,179.999994506836,2|8,0:0|0:0,0:0:0:0:
440,188,42939,1,0,0:0:0:0:
296,336,43108,6,0,L|206:327,1,89.9999972534181,2|0,0:0|0:0,0:0:0:0:
144,181,43447,2,0,L|233:190,1,89.9999972534181,2|0,0:0|0:0,0:0:0:0:
206,327,43786,2,0,L|116:318,1,89.9999972534181,2|0,0:0|0:0,0:0:0:0:
12,368,44125,1,8,0:0:0:0:
144,181,44295,1,0,0:0:0:0:
116,318,44464,6,0,P|36:282|8:200,1,179.999994506836,2|2,0:0|0:0,0:0:0:0:
144,181,44973,2,0,P|110:237|113:172,1,179.999994506836
279,147,45481,1,8,0:0:0:0:
192,292,45651,1,0,0:0:0:0:
108,144,45820,6,0,P|97:100|107:57,1,89.9999972534181,6|0,0:0|0:0,0:0:0:0:
278,110,46159,2,0,L|189:99,1,89.9999972534181,8|0,0:0|0:0,0:0:0:0:
298,290,46498,1,8,0:0:0:0:
391,191,46668,1,0,0:0:0:0:
391,191,46752,1,0,0:0:0:0:
391,191,46837,2,0,L|411:91,1,89.9999972534181,8|2,0:0|0:0,0:0:0:0:
512,44,47176,1,2,0:0:0:0:
390,192,47346,6,0,P|306:169|278:88,1,179.999994506836,6|2,0:0|0:0,0:0:0:0:
373,102,47854,2,0,P|328:176|242:180,1,179.999994506836,6|2,0:0|0:0,0:0:0:0:
273,34,48363,1,2,0:0:0:0:
389,13,48532,6,0,L|373:102,1,89.9999972534181,6|0,0:0|0:0,0:0:0:0:
177,99,48871,2,0,L|161:10,1,89.9999972534181,2|0,0:0|0:0,0:0:0:0:
273,34,49210,2,0,L|273:114,1,80,8|0,0:0|0:0,0:0:0:0:
123,267,49549,2,0,P|106:210|119:153,1,120
177,99,49888,5,2,0:0:0:0:
288,175,50058,1,8,0:0:0:0:
202,281,50227,2,0,L|105:265,1,80,2|0,0:0|0:0,0:0:0:0:
296,336,50566,2,0,L|374:322,1,80,8|0,0:0|0:0,0:0:0:0:
390,192,50905,1,0,0:0:0:0:
287,298,51075,1,0,0:0:0:0:
457,269,51244,6,0,P|497:201|465:121,1,160,2|2,0:0|0:0,0:0:0:0:
343,110,51752,1,0,0:0:0:0:
311,199,51922,2,0,P|353:200|389:191,1,80,8|0,0:0|0:0,0:0:0:0:
376,21,52261,2,0,P|333:18|296:27,1,80
144,181,52600,5,2,0:0:0:0:
106,57,52769,1,8,0:0:0:0:
278,88,52939,5,2,0:0:0:0:
242,249,53108,1,2,0:0:0:0:
128,102,53278,6,0,L|144:180,1,80,8|0,0:0|0:0,0:0:0:0:
296,336,53617,2,0,L|311:257,1,80,8|0,0:0|0:0,0:0:0:0:
459,126,53956,6,0,L|475:286,2,160,6|2|8,0:0|0:0|0:0,0:0:0:0:
448,28,54803,1,0,0:0:0:0:
325,121,54973,1,0,0:0:0:0:
391,191,55142,1,0,0:0:0:0:
164,52,55312,6,0,P|120:52|56:76,1,80,2|8,0:0|0:0,0:0:0:0:
244,80,55651,2,0,P|244:36|220:-28,1,80,2|0,0:0|0:0,0:0:0:0:
132,128,55990,2,0,P|132:172|156:236,1,80,8|2,0:3|0:0,0:0:0:0:
318,281,56329,1,8,0:0:0:0:
141,206,56498,1,2,0:0:0:0:
157,214,56583,1,2,0:0:0:0:
172,220,56668,6,0,P|221:227|285:205,1,80,6|0,0:0|0:0,0:0:0:0:
341,155,57007,1,8,0:0:0:0:
262,335,57176,6,0,P|295:313|319:281,1,80,6|0,0:0|0:0,0:0:0:0:
341,155,57515,1,8,0:0:0:0:
417,355,57685,6,0,P|424:315|420:277,1,80,6|0,0:0|0:0,0:0:0:0:
341,155,58024,1,8,0:0:0:0:
262,335,58193,5,6,0:0:0:0:
436,180,58363,1,2,0:0:0:0:
419,276,58532,5,2,0:0:0:0:
341,155,58702,1,4,0:0:0:0:
229,248,58871,5,2,0:0:0:0:
324,266,59041,1,6,0:0:0:0:
241,125,59210,1,8,0:0:0:0:
262,335,59380,6,0,P|156:302|160:190,1,239.999992675781,6|0,0:0|0:0,0:0:0:0:
429,217,60566,2,0,L|418:276,1,59.9999981689454,0|6,0:0|0:0,0:0:0:0:
229,248,61075,1,12,0:0:0:0:
324,120,61244,1,0,0:0:0:0:
404,176,62091,6,0,P|420:128|404:68,1,100,6|0,0:0|0:0,0:0:0:0:
272,33,62430,1,8,0:0:0:0:
156,132,62600,2,0,L|56:118,1,100,0|2,0:0|0:0,0:0:0:0:
129,261,62939,2,0,L|228:247,1,100,2|8,0:0|0:0,0:0:0:0:
186,54,63278,1,0,0:0:0:0:
48,220,63447,6,0,P|40:276|76:332,2,100,2|0|8,0:0|0:0|0:0,0:0:0:0:
324,120,63956,2,0,P|333:169|318:216,1,100,0|2,0:0|0:0,0:0:0:0:
232,340,64295,1,2,0:0:0:0:
172,172,64464,1,8,0:0:0:0:
318,216,64634,1,0,0:0:0:0:
129,261,64803,6,0,L|29:247,1,100,2|0,0:0|0:0,0:0:0:0:
193,91,65142,1,8,0:0:0:0:
229,248,65312,1,0,0:0:0:0:
56,118,65481,1,2,0:0:0:0:
232,160,65651,1,2,0:0:0:0:
129,261,65820,1,8,0:0:0:0:
173,49,65990,1,0,0:0:0:0:
229,248,66159,6,0,P|200:336|84:348,1,200,2|8,0:0|0:0,0:0:0:0:
0,241,66668,1,2,0:0:0:0:
152,148,66837,1,2,0:0:0:0:
129,261,67007,1,2,0:0:0:0:
20,120,67176,1,8,0:0:0:0:
232,160,67346,5,2,0:0:0:0:
232,160,67430,1,2,0:0:0:0:
232,160,67515,2,0,P|255:151|280:147,1,50,2|0,0:0|0:0,0:0:0:0:
435,324,67854,6,0,L|459:120,1,200,12|2,0:0|0:0,0:0:0:0:
272,33,68363,1,0,0:0:0:0:
318,216,68532,1,8,0:0:0:0:
164,52,68702,6,0,L|56:36,1,100,6|0,0:0|0:0,0:0:0:0:
4,216,69041,2,0,L|103:208,1,100,2|8,0:0|0:0,0:0:0:0:
318,216,69380,1,0,0:0:0:0:
248,80,69549,1,2,0:0:0:0:
170,275,69719,1,0,0:0:0:0:
284,148,69888,1,8,0:0:0:0:
107,57,70058,1,0,0:0:0:0:
103,207,70227,6,0,P|127:249|169:275,1,100,6|2,0:0|0:0,0:0:0:0:
265,112,70566,1,8,0:0:0:0:
71,293,70736,2,0,L|183:273,1,100,6|2,0:0|0:0,0:0:0:0:
296,336,71075,1,8,0:0:0:0:
204,176,71244,1,2,0:0:0:0:
394,369,71413,6,0,P|426:313|362:169,1,200,2|8,0:0|0:0,0:0:0:0:
169,275,71922,1,2,0:0:0:0:
296,336,72091,1,2,0:0:0:0:
296,336,72176,1,0,0:0:0:0:
296,336,72261,1,12,0:0:0:0:
265,112,72430,1,2,0:0:0:0:
103,207,72600,5,14,0:0:0:0:
82,237,72684,1,8,0:0:0:0:
74,274,72769,1,8,0:0:0:0:
81,310,72854,1,8,0:0:0:0:
102,341,72939,6,0,L|217:316,1,100,6|0,0:0|0:0,0:0:0:0:
390,189,73278,1,8,0:0:0:0:
252,204,73447,1,0,0:0:0:0:
366,281,73617,2,0,P|389:238|389:188,1,100,2|2,0:0|0:0,0:0:0:0:
272,72,73956,1,8,0:0:0:0:
284,212,74125,1,0,0:0:0:0:
193,91,74295,6,0,L|85:75,1,100,2|0,0:0|0:0,0:0:0:0:
92,216,74634,1,8,0:0:0:0:
194,55,74803,1,0,0:0:0:0:
12,134,74973,1,2,0:0:0:0:
204,176,75142,1,2,0:0:0:0:
65,37,75312,1,8,0:0:0:0:
169,275,75481,1,0,0:0:0:0:
169,275,75566,1,0,0:0:0:0:
169,275,75651,6,0,P|236:276|291:240,1,100,6|0,0:0|0:0,0:0:0:0:
102,341,75990,2,0,P|55:324|5:328,1,100,8|0,0:0|0:0,0:0:0:0:
240,384,76329,1,2,0:0:0:0:
265,262,76498,2,0,L|284:163,1,100,2|8,0:0|0:0,0:0:0:0:
99,207,76837,6,0,P|168:273|264:262,1,200,2|2,0:0|0:0,0:0:0:0:
373,102,77346,1,8,0:0:0:0:
204,168,77515,1,0,0:0:0:0:
368,260,77685,1,8,0:0:0:0:
272,72,77854,1,0,0:0:0:0:
272,72,77939,1,0,0:0:0:0:
272,72,78024,1,8,0:0:0:0:
185,215,78193,1,0,0:0:0:0:
144,219,78278,1,0,0:0:0:0:
103,207,78363,6,0,P|56:180|24:125,1,100,12|0,0:0|0:0,0:0:0:0:
160,72,78702,1,2,0:0:0:0:
36,239,78871,2,0,P|21:186|38:126,1,100,12|0,0:0|0:0,0:0:0:0:
160,72,79210,1,2,0:0:0:0:
169,275,79380,1,2,0:0:0:0:
283,163,79549,2,0,P|369:118|457:157,1,200,12|0,0:0|0:0,0:0:0:0:
496,348,80058,1,8,0:0:0:0:
371,230,80227,1,0,0:0:0:0:
468,104,80397,5,6,0:0:0:0:
283,163,80736,5,6,0:0:0:0:
184,16,81075,6,0,B|183:43|172:70|172:70|184:110|184:110|172:129|172:170,1,160,6|0,0:0|0:0,0:0:0:0:
236,272,81583,1,2,0:0:0:0:
368,260,81752,2,0,P|400:229|414:166,1,80,8|0,0:0|0:0,0:0:0:0:
468,104,82091,2,0,P|426:93|364:96,1,80,0|2,0:0|0:0,0:0:0:0:
304,168,82430,1,0,0:0:0:0:
204,112,82600,2,0,P|162:123|100:120,2,80,8|0|2,0:0|0:0|0:0,0:0:0:0:
304,64,83108,5,8,0:0:0:0:
304,168,83278,1,0,0:0:0:0:
280,260,83447,1,2,0:0:0:0:
204,308,83617,1,0,0:0:0:0:
68,284,83786,5,6,0:0:0:0:
256,192,83871,12,0,86159,0:0:0:0:
256,192,86498,5,6,0:0:0:0:
72,164,86837,2,0,P|40:264|76:324,1,160,8|2,0:0|0:0,0:0:0:0:
208,316,87346,1,0,0:0:0:0:
128,376,87515,1,8,0:0:0:0:
208,316,87685,6,0,P|268:300|360:328,1,160,6|0,0:0|0:0,0:0:0:0:
482,305,88193,2,0,L|468:384,1,80,8|0,0:0|0:0,0:0:0:0:
385,245,88532,2,0,L|372:156,1,80,2|0,0:0|0:0,0:0:0:0:
482,305,88871,1,8,0:0:0:0:
376,356,89041,1,0,0:0:0:0:
476,208,89210,6,0,L|496:40,1,160,6|8,0:0|0:0,0:0:0:0:
494,49,89888,1,2,0:0:0:0:
389,92,90058,2,0,L|300:79,1,80,0|8,0:0|0:0,0:0:0:0:
156,204,90397,6,0,B|116:164|111:102|111:102|170:138,1,160,4|0,0:0|0:0,0:0:0:0:
256,192,90905,1,8,0:0:0:0:
218,286,91075,2,0,P|142:305|74:268,1,160,6|0,0:0|0:0,0:0:0:0:
156,204,91583,1,8,0:0:0:0:
296,336,91752,1,0,0:0:0:0:
300,312,91837,1,0,0:0:0:0:
311,286,91922,6,0,P|380:248|456:268,1,160,6|8,0:0|0:0,0:0:0:0:
392,352,92430,1,0,0:0:0:0:
256,192,92600,1,2,0:0:0:0:
373,165,92769,1,0,0:0:0:0:
311,286,92939,1,8,0:0:0:0:
156,204,93108,6,0,L|137:45,1,160,6|0,0:0|0:0,0:0:0:0:
248,80,93617,1,8,0:0:0:0:
78,197,93786,2,0,P|38:195|-1:185,1,80,0|2,0:0|0:0,0:0:0:0:
98,346,94125,2,0,L|108:267,1,80,0|8,0:0|0:0,0:0:0:0:
256,192,94464,1,0,0:0:0:0:
256,192,94549,1,0,0:0:0:0:
256,192,94634,1,6,0:0:0:0:
256,192,94719,12,0,95990,0:0:0:0:
256,192,96160,5,2,0:0:0:0:
214,108,96329,1,8,0:0:0:0:
380,96,96498,1,2,0:0:0:0:
377,130,96583,1,0,0:0:0:0:
373,165,96668,1,2,0:0:0:0:
272,33,96837,1,2,0:0:0:0:
432,16,97007,1,8,0:0:0:0:
373,165,97176,1,2,0:0:0:0:
253,108,97346,6,0,P|254:68|272:33,1,80,2|0,0:0|0:0,0:0:0:0:
380,96,97685,1,0,0:0:0:0:
244,216,97854,1,2,0:0:0:0:
244,216,98024,2,0,L|85:197,1,160,8|0,0:0|0:0,0:0:0:0:
102,340,98532,1,2,0:0:0:0:
98,308,98617,1,0,0:0:0:0:
94,276,98702,6,0,L|84:194,2,80,0|0|2,0:0|0:0|0:0,0:0:0:0:
0,368,99210,1,0,0:0:0:0:
94,276,99380,2,0,P|144:256|196:252,1,80,8|0,0:0|0:0,0:0:0:0:
275,341,99719,2,0,L|265:262,1,80,0|0,0:0|0:0,0:0:0:0:
409,280,100058,6,0,P|333:299|265:262,1,160,2|0,0:0|0:0,0:0:0:0:
427,121,100566,1,2,0:0:0:0:
427,121,100736,2,0,L|408:280,1,160,8|0,0:0|0:0,0:0:0:0:
274,298,101244,1,2,0:0:0:0:
242,163,101413,5,0,0:0:0:0:
336,192,101583,1,2,0:0:0:0:
264,261,101752,1,2,0:0:0:0:
294,96,102091,1,8,0:0:0:0:
336,192,102261,1,0,0:0:0:0:
264,261,102430,1,2,0:0:0:0:
168,210,102600,1,0,0:0:0:0:
168,210,102685,1,0,0:0:0:0:
168,210,102769,6,0,L|178:131,1,80,2|0,0:0|0:0,0:0:0:0:
65,37,103108,1,0,0:0:0:0:
29,142,103278,1,2,0:0:0:0:
144,60,103447,2,0,B|184:44|220:64|220:64|256:84|298:66,1,160,8|0,0:0|0:0,0:0:0:0:
404,8,103956,1,2,0:0:0:0:
414,87,104125,6,0,L|402:0,1,80
508,88,104464,1,2,0:0:0:0:
432,264,104633,1,0,0:0:0:0:
311,147,104803,1,8,0:0:0:0:
468,176,104972,1,0,0:0:0:0:
342,286,105142,1,0,0:0:0:0:
414,87,105312,1,0,0:0:0:0:
342,286,105481,6,0,P|314:326|182:246,1,240,2|2,0:0|0:0,0:0:0:0:
264,261,106159,2,0,P|242:310|98:254,1,240,8|2,0:0|0:0,0:0:0:0:
212,103,106837,1,0,0:0:0:0:
180,254,107007,5,8,0:0:0:0:
180,254,107091,1,0,0:0:0:0:
180,254,107176,1,8,0:0:0:0:
24,195,107346,1,0,0:0:0:0:
61,308,107515,1,8,0:0:0:0:
125,123,107685,1,0,0:0:0:0:
180,254,107854,1,8,0:0:0:0:
24,195,108024,1,0,0:0:0:0:
308,302,108193,6,0,P|319:258|312:214,1,89.9999972534181,6|0,0:0|0:0,0:0:0:0:
212,103,108532,2,0,L|125:122,1,89.9999972534181,2|0,0:0|0:0,0:0:0:0:
92,273,108871,2,0,L|200:249,1,89.9999972534181,2|0,0:0|0:0,0:0:0:0:
20,164,109210,1,8,0:0:0:0:
79,362,109380,1,0,0:0:0:0:
79,362,109464,1,0,0:0:0:0:
79,362,109549,6,0,L|91:273,1,89.9999972534181,2|0,0:0|0:0,0:0:0:0:
178,292,109888,2,0,L|91:273,1,89.9999972534181,2|0,0:0|0:0,0:0:0:0:
29,142,110227,2,0,P|71:129|115:137,1,89.9999972534181,2|0,0:0|0:0,0:0:0:0:
244,216,110566,1,8,0:0:0:0:
192,56,110736,1,0,0:0:0:0:
309,146,110905,6,0,P|336:229|288:300,1,179.999994506836,2|2,0:0|0:0,0:0:0:0:
121,322,111413,1,0,0:0:0:0:
244,216,111583,2,0,P|324:268|260:300,1,179.999994506836,2|8,0:0|0:0,0:0:0:0:
121,322,112091,1,0,0:0:0:0:
280,184,112261,5,2,0:0:0:0:
143,347,112430,1,0,0:0:0:0:
156,204,112600,5,8,0:0:0:0:
287,301,112769,1,0,0:0:0:0:
287,301,112854,1,0,0:0:0:0:
287,301,112939,2,0,L|391:285,1,89.9999972534181,2|0,0:0|0:0,0:0:0:0:
502,175,113278,1,8,0:0:0:0:
467,343,113447,1,0,0:0:0:0:
408,192,113617,6,0,P|416:132|448:96,1,89.9999972534181,6|0,0:0|0:0,0:0:0:0:
465,300,113956,2,0,L|376:287,1,89.9999972534181,2|0,0:0|0:0,0:0:0:0:
275,341,114295,2,0,L|262:252,1,89.9999972534181,2|0,0:0|0:0,0:0:0:0:
408,192,114634,2,0,P|348:184|312:152,1,89.9999972534181,8|0,0:0|0:0,0:0:0:0:
212,103,114973,6,0,L|199:192,1,89.9999972534181,2|0,0:0|0:0,0:0:0:0:
121,322,115312,1,2,0:0:0:0:
72,164,115481,1,0,0:0:0:0:
72,164,115566,1,0,0:0:0:0:
72,164,115651,1,2,0:0:0:0:
12,271,115820,1,0,0:0:0:0:
198,192,115989,1,8,0:0:0:0:
24,248,116159,1,0,0:0:0:0:
171,370,116329,6,0,L|199:186,1,179.999994506836,2|2,0:0|0:0,0:0:0:0:
216,68,116837,1,0,0:0:0:0:
260,250,117007,2,0,P|175:275|112:208,1,179.999994506836,2|8,0:0|0:0,0:0:0:0:
212,102,117515,1,0,0:0:0:0:
199,192,117685,6,0,L|212:103,1,89.9999972534181,6|0,0:0|0:0,0:0:0:0:
380,286,118024,1,8,0:0:0:0:
138,300,118193,1,0,0:0:0:0:
116,262,118277,1,0,0:0:0:0:
114,217,118362,1,8,0:0:0:0:
294,96,118532,1,0,0:0:0:0:
308,302,118702,1,8,0:0:0:0:
216,232,118871,1,0,0:0:0:0:
324,188,119041,1,2,0:0:0:0:
400,372,119210,6,0,L|216:344,1,179.999994506836,6|8,0:0|0:0,0:0:0:0:
124,368,119719,1,6,0:0:0:0:
260,250,120058,1,2,0:0:0:0:
222,344,120227,1,0,0:0:0:0:
34,319,120397,6,0,L|43:229,1,80,6|0,0:0|0:0,0:0:0:0:
199,192,120736,2,0,P|154:194|112:180,1,80,2|0,0:0|0:0,0:0:0:0:
70,36,121075,2,0,P|65:76|24:152,1,120,8|0,0:0|0:0,0:0:0:0:
41,239,121413,1,0,0:0:0:0:
142,73,121583,1,0,0:0:0:0:
199,192,121752,2,0,P|213:155|219:115,1,80,2|0,0:0|0:0,0:0:0:0:
128,295,122091,5,2,0:0:0:0:
199,192,122261,1,0,0:0:0:0:
41,239,122430,1,8,0:0:0:0:
211,339,122600,1,0,0:0:0:0:
109,170,122769,1,0,0:0:0:0:
33,348,122938,1,0,0:0:0:0:
112,270,123108,6,0,P|190:239|269:252,1,160,2|2,0:0|0:0,0:0:0:0:
407,334,123617,1,0,0:0:0:0:
263,249,123786,2,0,L|272:159,1,89.9999972534181,8|0,0:0|0:0,0:0:0:0:
416,244,124125,2,0,L|406:333,1,89.9999972534181
253,330,124465,5,2,0:0:0:0:
373,165,124634,1,8,0:0:0:0:
338,294,124803,5,2,0:0:0:0:
171,170,124973,1,2,0:0:0:0:
182,291,125142,6,0,P|209:264|250:252,1,80,8|0,0:0|0:0,0:0:0:0:
405,333,125481,2,0,P|368:323|337:292,1,80,8|0,0:0|0:0,0:0:0:0:
271,159,125821,6,0,L|287:-1,2,160,6|2|8,0:0|0:0|0:0,0:0:0:0:
253,330,126668,1,0,0:0:0:0:
153,224,126837,1,0,0:0:0:0:
162,303,127007,6,0,P|153:264|153:225,1,80,2|0,0:0|0:0,0:0:0:0:
326,242,127346,2,0,P|287:251|248:252,1,80,8|8,0:0|0:3,0:0:0:0:
262,81,127685,2,0,P|271:120|272:159,1,80,0|2,0:0|0:0,0:0:0:0:
179,128,128024,1,2,0:0:0:0:
179,128,128108,1,0,0:0:0:0:
179,128,128193,2,0,P|120:133|67:161,1,120,8|0,0:0|0:0,0:0:0:0:
51,342,128533,6,0,P|79:302|87:234,1,80,6|0,0:0|0:0,0:0:0:0:
67,162,128872,1,8,0:0:0:0:
194,312,129041,6,0,P|189:273|167:230,1,85.0000016212464,6|0,0:0|0:0,0:0:0:0:
67,162,129380,1,8,0:0:0:0:
280,182,129550,6,0,P|248:158|196:145,1,89.9999972534181,6|8,0:0|0:0,0:0:0:0:
201,145,129803,1,0,0:0:0:0:
201,145,129888,1,8,0:0:0:0:
51,342,130058,5,12,0:0:0:0:
168,232,130227,1,2,0:0:0:0:
50,112,130397,5,2,0:0:0:0:
87,272,130567,1,12,0:0:0:0:
272,160,130736,5,2,0:0:0:0:
168,232,130905,1,12,0:0:0:0:
384,256,131075,1,2,0:0:0:0:
298,65,131245,6,0,P|196:100|208:232,1,239.999992675781,6|0,0:0|0:0,0:0:0:0:
377,316,132091,2,0,L|387:241,1,59.9999981689454,0|0,0:0|0:0,0:0:0:0:
272,160,132430,1,8,0:0:0:0:
384,256,132600,5,6,0:0:0:0:
492,68,132769,1,0,0:0:0:0:
492,68,132854,1,0,0:0:0:0:
492,68,132938,1,0,0:0:0:0:
298,65,133108,2,0,L|220:46,1,59.9999981689454,12|0,0:0|0:0,0:0:0:0:
359,207,133447,5,8,0:0:0:0:
370,179,133532,1,8,0:0:0:0:
371,149,133617,1,8,0:0:0:0:
364,121,133701,1,8,0:0:0:0:
348,95,133786,1,8,0:0:0:0:
325,76,133871,1,8,0:0:0:0:
298,65,133956,6,0,P|276:112|272:168,1,100,6|0,0:0|0:0,0:0:0:0:
308,302,134295,1,8,0:0:0:0:
476,208,134465,2,0,L|492:92,1,100,0|2,0:0|0:0,0:0:0:0:
271,159,134804,2,0,L|287:275,1,100,2|8,0:0|0:0,0:0:0:0:
436,312,135143,1,2,0:0:0:0:
368,166,135312,6,0,P|320:154|271:159,1,100,0|2,0:0|0:0,0:0:0:0:
104,344,135651,2,0,P|153:349|201:337,1,100,8|0,0:0|0:0,0:0:0:0:
266,128,135990,1,2,0:0:0:0:
148,256,136160,1,2,0:0:0:0:
311,271,136329,1,8,0:0:0:0:
165,155,136499,1,0,0:0:0:0:
272,358,136668,6,0,L|388:342,1,100,2|0,0:0|0:0,0:0:0:0:
408,192,137007,1,8,0:0:0:0:
200,280,137177,1,0,0:0:0:0:
168,372,137346,2,0,P|174:322|200:280,1,100,2|2,0:0|0:0,0:0:0:0:
408,192,137685,2,0,L|292:176,1,100,8|2,0:0|0:0,0:0:0:0:
432,109,138024,6,0,P|488:160|408:276,1,200,0|8,0:0|0:0,0:0:0:0:
308,302,138532,1,0,0:0:0:0:
262,109,138702,1,2,0:0:0:0:
408,192,138871,1,8,0:0:0:0:
408,192,138956,1,8,0:0:0:0:
408,192,139041,5,2,0:0:0:0:
199,280,139210,1,8,0:0:0:0:
199,280,139295,1,2,0:0:0:0:
199,280,139380,5,6,0:0:0:0:
337,151,139549,1,0,0:0:0:0:
371,344,139718,1,8,0:0:0:0:
198,192,139888,2,0,L|186:92,1,100,0|2,0:0|0:0,0:0:0:0:
419,92,140227,2,0,L|407:195,1,100,2|8,0:0|0:0,0:0:0:0:
199,280,140566,6,0,P|116:224|148:120,1,200,6|2,0:0|0:0,0:0:0:0:
239,50,141075,1,8,0:0:0:0:
297,203,141244,2,0,L|197:191,1,100,0|2,0:0|0:0,0:0:0:0:
116,101,141583,1,2,0:0:0:0:
199,280,141752,1,8,0:0:0:0:
314,119,141922,1,2,0:0:0:0:
450,264,142092,6,0,P|466:204|442:156,1,100,6|2,0:0|0:0,0:0:0:0:
294,96,142430,1,8,0:0:0:0:
501,106,142600,2,0,P|441:90|393:114,1,100,6|2,0:0|0:0,0:0:0:0:
342,286,142939,1,8,0:0:0:0:
453,170,143108,1,2,0:0:0:0:
264,230,143278,1,8,0:0:0:0:
264,230,143363,1,0,0:0:0:0:
264,230,143447,6,0,L|252:330,1,100,0|2,0:0|0:0,0:0:0:0:
342,286,143787,1,0,0:0:0:0:
197,191,143956,1,2,0:0:0:0:
197,191,144041,1,0,0:0:0:0:
197,191,144126,1,12,0:0:0:0:
61,308,144295,1,0,0:0:0:0:
146,116,144465,1,12,0:0:0:0:
168,104,144549,1,8,0:0:0:0:
192,100,144634,1,8,0:0:0:0:
217,102,144719,1,8,0:0:0:0:
240,110,144803,6,0,P|286:94|333:107,1,100,6|0,0:0|0:0,0:0:0:0:
432,248,145143,1,8,0:0:0:0:
287,175,145312,1,0,0:0:0:0:
494,49,145481,2,0,L|482:148,1,100,2|2,0:0|0:0,0:0:0:0:
348,236,145820,1,8,0:0:0:0:
360,40,145990,1,2,0:0:0:0:
482,148,146159,6,0,P|435:164|388:151,1,100,0|2,0:0|0:0,0:0:0:0:
272,48,146498,1,8,0:0:0:0:
348,236,146668,1,0,0:0:0:0:
432,84,146837,1,2,0:0:0:0:
197,191,147007,2,0,P|152:169|102:169,1,100,2|8,0:0|0:0,0:0:0:0:
20,332,147346,1,0,0:0:0:0:
20,332,147430,1,0,0:0:0:0:
20,332,147515,6,0,P|64:310|114:310,1,100,6|0,0:0|0:0,0:0:0:0:
292,356,147854,2,0,L|303:256,1,100,8|0,0:0|0:0,0:0:0:0:
146,116,148193,1,2,0:0:0:0:
199,280,148363,1,2,0:0:0:0:
312,140,148532,1,8,0:0:0:0:
199,280,148702,6,0,P|264:356|360:344,1,200,2|2,0:0|0:0,0:0:0:0:
408,192,149210,1,8,0:0:0:0:
303,256,149380,1,2,0:0:0:0:
471,342,149549,1,8,0:0:0:0:
420,167,149719,1,8,0:0:0:0:
420,167,149803,1,0,0:0:0:0:
420,167,149888,1,0,0:0:0:0:
303,256,150057,1,0,0:0:0:0:
252,249,150142,1,8,0:0:0:0:
211,222,150227,6,0,L|223:121,1,100,6|2,0:0|0:0,0:0:0:0:
450,264,150566,1,8,0:0:0:0:
355,346,150736,2,0,L|343:246,1,100,6|2,0:0|0:0,0:0:0:0:
328,112,151075,1,8,0:0:0:0:
251,249,151244,1,2,0:0:0:0:
432,188,151414,2,0,P|449:68|372:-8,1,200,6|8,0:0|0:0,0:0:0:0:
216,68,151923,1,0,0:0:0:0:
328,112,152092,1,0,0:0:0:0:
308,0,152261,5,6,0:0:0:0:
198,192,152600,5,6,0:0:0:0:
308,302,152939,6,0,P|382:273|466:317,1,160,6|0,0:0|0:0,0:0:0:0:
382,373,153447,1,2,0:0:0:0:
309,265,153617,2,0,L|313:161,1,80,8|0,0:0|0:0,0:0:0:0:
512,164,153956,1,0,0:0:0:0:
512,164,154125,6,0,L|509:260,1,80,2|0,0:0|0:0,0:0:0:0:
390,197,154464,1,2,0:0:0:0:
475,80,154634,1,0,0:0:0:0:
390,197,154803,2,0,P|340:197|296:174,1,80,2|8,0:0|0:0,0:0:0:0:
272,48,155142,1,0,0:0:0:0:
227,185,155312,1,2,0:0:0:0:
361,113,155481,1,0,0:0:0:0:
243,40,155651,6,0,L|67:56,1,170.000003242493,6|0,0:0|0:0,0:0:0:0:
59,270,156159,1,2,0:0:0:0:
156,176,156329,1,8,0:0:0:0:
22,194,156498,2,0,P|35:234|58:270,1,85.0000016212464,2|0,0:0|0:0,0:0:0:0:
192,296,156837,5,8,0:0:0:0:
76,368,157007,1,2,0:0:0:0:
272,322,157176,2,0,L|176:290,1,85.0000016212464,8|8,0:3|0:0,0:0:0:0:
310,220,157515,1,8,0:3:0:0:
310,220,157600,1,0,0:0:0:0:
310,220,157685,2,0,P|378:196|426:204,1,85.0000016212464,4|8,0:0|0:3,0:0:0:0:
488,308,158024,1,8,0:0:0:0:
389,196,158193,6,0,P|361:152|426:41,1,179.999994506836,6|2,0:0|0:0,0:0:0:0:
442,128,158702,1,8,0:0:0:0:
310,220,158871,2,0,P|238:221|186:129,1,179.999994506836,6|2,0:0|0:0,0:0:0:0:
272,142,159380,1,8,0:0:0:0:
432,248,159549,6,0,L|420:344,1,89.9999972534181,6|0,0:0|0:0,0:0:0:0:
210,369,159888,2,0,L|198:279,1,89.9999972534181,8|0,0:0|0:0,0:0:0:0:
272,142,160227,1,8,0:0:0:0:
272,142,160312,1,0,0:0:0:0:
272,142,160397,1,0,0:0:0:0:
355,297,160566,1,8,0:0:0:0:
198,279,160736,1,0,0:0:0:0:
364,148,160905,6,0,P|400:200|340:304,1,179.999994506836,6|2,0:0|0:0,0:0:0:0:
185,136,161413,1,8,0:0:0:0:
132,240,161583,2,0,L|312:221,1,179.999994506836,6|0,0:0|0:0,0:0:0:0:
416,368,162091,1,8,0:0:0:0:
474,222,162261,1,2,0:0:0:0:
477,192,162600,1,12,0:0:0:0:
481,162,162939,1,12,0:0:0:0:
486,133,163278,2,0,L|500:20,1,89.9999972534181,12|12,0:0|0:0,0:0:0:0:
497,43,163617,6,0,B|431:61|431:61|307:37,1,179.999994506836,6|2,0:0|0:0,0:0:0:0:
160,16,164125,1,8,0:0:0:0:
272,142,164295,1,0,0:0:0:0:
272,142,164380,1,0,0:0:0:0:
272,142,164464,1,2,0:0:0:0:
148,105,164634,2,0,L|162:-8,1,89.9999972534181,0|8,0:0|0:0,0:0:0:0:
198,192,164973,6,0,P|96:192|48:120,1,179.999994506836,6|2,0:0|0:0,0:0:0:0:
243,40,165481,1,8,0:0:0:0:
321,130,165651,2,0,L|309:219,1,89.9999972534181,0|2,0:0|0:0,0:0:0:0:
260,308,165990,1,2,0:0:0:0:
389,196,166159,1,8,0:0:0:0:
355,346,166329,1,0,0:0:0:0:
162,274,166498,6,0,P|222:211|309:219,1,179.999994506836,6|8,0:0|0:0,0:0:0:0:
382,373,167007,1,0,0:0:0:0:
382,373,167091,1,0,0:0:0:0:
382,373,167176,1,2,0:0:0:0:
260,308,167346,2,0,L|248:218,1,89.9999972534181,2|8,0:0|0:0,0:0:0:0:
137,96,167685,6,0,L|161:274,1,179.999994506836,6|2,0:0|0:0,0:0:0:0:
28,360,168193,1,8,0:0:0:0:
161,274,168363,1,2,0:0:0:0:
128,376,168532,1,2,0:0:0:0:
41,239,168702,1,8,0:0:0:0:
41,239,168786,1,0,0:0:0:0:
41,239,168871,5,2,0:0:0:0:
276,308,169041,1,8,0:0:0:0:
276,308,169125,1,0,0:0:0:0:
276,308,169210,6,0,P|320:309|364:296,1,89.9999972534181,6|0,0:0|0:0,0:0:0:0:
340,132,169549,2,0,P|295:130|252:144,1,89.9999972534181,8|0,0:0|0:0,0:0:0:0:
161,274,169888,1,0,0:0:0:0:
306,220,170058,1,2,0:0:0:0:
156,176,170227,1,8,0:0:0:0:
276,308,170397,1,0,0:0:0:0:
396,207,170566,6,0,L|408:117,1,89.9999972534181,2|2,0:0|0:0,0:0:0:0:
243,40,170905,1,8,0:0:0:0:
306,220,171075,1,2,0:0:0:0:
306,220,171159,1,0,0:0:0:0:
306,220,171244,1,0,0:0:0:0:
407,117,171413,1,2,0:0:0:0:
221,206,171583,1,8,0:0:0:0:
432,248,171752,1,8,0:0:0:0:
252,288,171922,6,0,P|223:235|228:176,1,89.9999972534181,6|2,0:0|0:0,0:0:0:0:
340,64,172261,1,8,0:0:0:0:
306,220,172430,1,2,0:0:0:0:
146,116,172600,1,0,0:0:0:0:
268,136,172769,1,2,0:0:0:0:
132,240,172939,1,8,0:0:0:0:
243,40,173108,1,0,0:0:0:0:
243,40,173193,1,0,0:0:0:0:
243,40,173278,5,2,0:0:0:0:
306,220,173447,1,2,0:0:0:0:
102,168,173617,2,0,L|90:78,1,89.9999972534181,8|2,0:0|0:0,0:0:0:0:
221,206,173956,1,0,0:0:0:0:
87,272,174125,1,2,0:0:0:0:
228,108,174295,1,8,0:0:0:0:
338,307,174464,1,8,0:0:0:0:
338,307,174548,1,0,0:0:0:0:
338,307,174633,6,0,P|293:304|251:287,1,89.9999972534181,6|2,0:0|0:0,0:0:0:0:
372,112,174973,1,8,0:0:0:0:
452,272,175142,2,0,P|453:316|440:360,2,89.9999972534181,6|2|8,0:0|0:0|0:0,0:0:0:0:
146,116,175651,5,6,0:0:0:0:
251,287,175820,1,0,0:0:0:0:
409,73,175990,1,12,0:0:0:0:
256,192,176075,12,0,177685,0:0:0:0:
409,72,177854,5,0,3:0:0:0:
409,72,177939,1,0,3:0:0:0:
409,72,178024,1,0,3:0:0:0:
297,48,178193,1,8,0:0:0:0:
389,196,178363,6,0,B|409:72|409:72|365:120,1,179.999994506836,2|4,0:0|0:0,0:0:0:0:
302,251,185990,6,0,L|400:240,1,80,2|2,0:0|0:0,0:0:0:0:
452,302,186329,1,8,0:0:0:0:
512,136,186498,1,2,0:0:0:0:
440,328,186668,5,2,0:0:0:0:
325,76,186837,1,8,0:0:0:0:
325,76,188871,5,12,0:0:0:0:
325,76,189210,5,12,0:0:0:0:
325,76,189549,6,0,P|314:126|317:172,1,80,6|2,0:0|0:0,0:0:0:0:
390,306,189888,2,0,P|399:267|401:228,1,80,2|2,0:0|0:0,0:0:0:0:
241,224,190227,2,0,P|291:234|337:232,1,80,2|2,0:0|0:0,0:0:0:0:
471,158,190566,2,0,P|432:148|392:147,1,80,2|2,0:0|0:0,0:0:0:0:
319,234,190905,5,2,0:0:0:0:
497,140,191075,1,2,0:0:0:0:
314,154,191244,5,2,0:0:0:0:
397,336,191413,1,2,0:0:0:0:
392,146,191583,5,0,0:0:0:0:
201,206,191752,1,12,0:0:0:0:
319,234,191922,5,2,0:0:0:0:
243,40,192091,1,8,0:0:0:0:
319,234,192261,6,0,P|416:260|488:208,1,160,6|2,0:0|0:0,0:0:0:0:
440,64,192769,1,2,0:0:0:0:
298,276,192939,1,2,0:0:0:0:
298,276,193108,5,2,0:0:0:0:
145,66,193278,1,2,0:0:0:0:
145,66,193447,1,2,0:0:0:0:
392,146,193617,1,2,0:0:0:0:
392,146,193786,1,2,0:0:0:0:
145,226,193956,1,2,0:0:0:0:
145,226,194125,5,2,0:0:0:0:
298,17,194295,1,2,0:0:0:0:
298,276,194464,1,12,0:0:0:0:
145,226,194634,1,2,0:0:0:0:
280,128,194803,1,8,0:0:0:0:
145,226,194973,6,0,P|104:159|116:81,1,160,6|8,0:0|0:0,0:0:0:0:
302,195,195481,2,0,L|145:226,1,160,6|2,0:0|0:0,0:0:0:0:
76,320,195990,1,8,0:0:0:0:
116,81,196159,1,6,0:0:0:0:
252,288,196498,5,2,0:0:0:0:
204,140,196668,1,8,0:0:0:0:
302,195,196837,1,8,0:0:0:0:
302,195,196922,1,8,0:0:0:0:
302,195,197007,1,8,0:0:0:0:
204,140,197176,1,2,0:0:0:0:
308,76,197346,1,8,0:0:0:0:
216,232,197515,1,2,0:0:0:0:
116,81,197685,6,0,P|107:38|108:-3,1,80,6|2,0:0|0:0,0:0:0:0:
298,17,198024,1,10,0:0:0:0:
204,140,198193,2,0,L|46:109,1,160,6|2,0:0|0:0,0:0:0:0:
108,236,198702,1,8,0:0:0:0:
283,120,198871,2,0,B|289:139|281:171|281:171|297:215|297:215|288:239|297:275,1,160,6|2,0:0|0:0,0:0:0:0:
452,302,199380,1,10,0:0:0:0:
471,158,199549,1,2,0:0:0:0:
471,158,199634,1,0,0:0:0:0:
471,158,199719,5,2,0:0:0:0:
292,356,199888,1,8,0:0:0:0:
504,356,200397,5,6,0:0:0:0:
404,199,200736,6,0,P|340:187|280:203,1,104.999996795654,6|0,0:0|0:0,0:0:0:0:
178,324,201075,1,2,0:0:0:0:
203,139,201244,2,0,P|238:100|285:77,1,104.999996795654,2|8,0:0|0:0,0:0:0:0:
178,324,201583,6,0,P|126:331|76:320,1,104.999996795654,6|0,0:0|0:0,0:0:0:0:
16,136,201922,1,2,0:0:0:0:
132,216,202091,1,8,0:0:0:0:
0,264,202261,1,0,2:2:0:0:
137,96,202430,1,2,2:2:0:0:
295,266,202600,2,0,L|190:254,1,104.999996795654,2|8,0:0|0:0,0:0:0:0:
285,76,202939,1,0,0:0:0:0:
418,235,203108,6,0,P|416:287|396:335,1,104.999996795654,6|0,0:0|0:0,0:0:0:0:
190,254,203447,2,0,P|169:206|167:153,1,104.999996795654,8|0,0:0|0:0,0:0:0:0:
219,18,203786,1,2,0:0:0:0:
284,180,203956,1,2,0:0:0:0:
90,78,204125,1,8,0:0:0:0:
84,289,204295,6,0,B|240:269|240:269|152:241,1,209.999993591309,6|2,0:0|0:0,0:0:0:0:
36,208,204803,1,8,0:0:0:0:
136,356,204973,1,2,0:0:0:0:
156,168,205142,1,2,0:0:0:0:
50,308,205312,1,8,0:0:0:0:
225,243,205481,1,2,0:0:0:0:
68,120,205651,1,8,0:0:0:0:
68,120,205736,1,0,0:0:0:0:
68,120,205820,6,0,P|47:72|45:19,1,104.999996795654,6|0,0:0|0:0,0:0:0:0:
255,144,206159,1,8,0:0:0:0:
156,168,206329,2,0,P|203:147|256:145,1,104.999996795654,0|2,0:0|0:0,0:0:0:0:
328,280,206667,1,2,0:0:0:0:
156,168,206837,1,8,0:0:0:0:
260,49,207007,6,0,P|332:85|320:213,1,209.999993591309,6|2,0:0|0:0,0:0:0:0:
216,332,207515,1,8,0:0:0:0:
256,145,207685,1,2,0:0:0:0:
412,272,207854,2,0,L|396:396,1,104.999996795654,0|2,0:0|0:0,0:0:0:0:
216,332,208193,2,0,L|203:227,1,104.999996795654,8|0,0:0|0:0,0:0:0:0:
484,53,208532,6,0,L|468:177,1,104.999996795654,6|0,0:0|0:0,0:0:0:0:
295,266,208871,1,8,0:0:0:0:
328,100,209041,1,0,0:0:0:0:
416,236,209210,1,2,0:0:0:0:
204,140,209380,1,2,0:0:0:0:
204,140,209464,1,0,0:0:0:0:
204,140,209549,1,8,0:0:0:0:
128,294,209719,6,0,P|220:332|295:266,1,209.999993591309,6|2,0:0|0:0,0:0:0:0:
204,140,210227,1,8,0:0:0:0:
395,265,210397,2,0,P|379:215|343:177,1,104.999996795654,2|2,0:0|0:0,0:0:0:0:
85,290,210736,1,12,0:0:0:0:
85,290,210821,1,0,0:0:0:0:
85,290,210905,5,2,0:0:0:0:
269,364,211075,1,8,0:0:0:0:
269,364,211160,1,0,0:0:0:0:
269,364,211244,6,0,P|293:317|294:265,1,104.999996795654,4|0,0:0|0:0,0:0:0:0:
224,112,211583,1,8,0:0:0:0:
119,124,211752,2,0,L|224:111,1,104.999996795654,0|2,0:0|0:0,0:0:0:0:
40,196,212091,2,0,P|15:149|14:97,1,104.999996795654,2|8,0:0|0:0,0:0:0:0:
204,240,212430,1,2,0:0:0:0:
191,344,212600,6,0,L|204:239,1,104.999996795654,0|2,0:0|0:0,0:0:0:0:
344,52,212939,1,8,0:0:0:0:
320,224,213108,1,0,0:0:0:0:
252,80,213278,1,2,0:0:0:0:
427,168,213447,1,2,0:0:0:0:
243,167,213617,1,8,0:0:0:0:
440,64,213786,1,4,0:0:0:0:
440,64,213871,1,0,0:0:0:0:
440,64,213956,6,0,L|427:169,1,104.999996795654,2|0,0:0|0:0,0:0:0:0:
296,268,214295,1,8,0:0:0:0:
252,80,214464,1,0,0:0:0:0:
343,177,214634,1,2,0:0:0:0:
119,230,214803,1,2,0:0:0:0:
252,80,214973,1,8,0:0:0:0:
119,230,215142,6,0,P|79:140|144:66,1,209.999993591309,2|0,0:0|0:0,0:0:0:0:
280,164,215651,1,8,0:0:0:0:
208,256,215820,1,2,0:0:0:0:
192,141,215990,1,8,0:0:0:0:
316,272,216159,1,2,0:0:0:0:
168,154,216329,1,8,0:0:0:0:
352,60,216498,1,2,0:0:0:0:
352,60,216583,1,0,0:0:0:0:
352,60,216668,6,0,P|355:138|309:74,1,209.999993591309,6|8,0:0|0:0,0:0:0:0:
468,64,217176,2,0,P|460:164|352:236,1,209.999993591309,6|2,0:0|0:0,0:0:0:0:
280,164,217685,1,8,0:0:0:0:
324,312,217854,2,0,L|96:284,1,209.999993591309,6|8,0:0|0:0,0:0:0:0:
76,160,218363,1,0,0:0:0:0:
0,264,218532,1,0,0:0:0:0:
201,206,218702,5,6,0:0:0:0:
136,356,219041,5,6,0:0:0:0:
324,312,219380,6,0,B|362:318|395:301|395:301|420:302|439:310|439:310|472:293|523:299,1,179.999994506836,6|0,0:0|0:0,0:0:0:0:
260,380,219888,2,0,P|237:341|233:297,1,89.9999972534181,2|8,0:0|0:0,0:0:0:0:
340,192,220227,1,0,0:0:0:0:
324,312,220397,1,0,0:0:0:0:
179,243,220566,6,0,L|167:147,1,89.9999972534181,2|0,0:0|0:0,0:0:0:0:
340,192,220905,1,2,0:0:0:0:
190,332,221075,2,0,L|178:236,1,89.9999972534181,0|2,0:0|0:0,0:0:0:0:
13,207,221413,1,8,0:0:0:0:
96,270,221583,2,0,P|140:266|178:243,1,89.9999972534181
223,111,221922,1,0,0:0:0:0:
41,198,222091,6,0,P|9:290|65:354,1,179.999994506836,6|0,0:0|0:0,0:0:0:0:
189,331,222600,1,2,0:0:0:0:
272,358,222769,2,0,P|233:335|189:331,1,89.9999972534181,8|0,0:0|0:0,0:0:0:0:
96,270,223108,2,0,P|140:266|178:243,1,89.9999972534181,8|2,0:0|0:0,0:0:0:0:
223,111,223447,1,0,0:0:0:0:
331,222,223617,6,0,L|323:318,2,89.9999972534181,8|0|2,0:0|0:0|0:0,0:0:0:0:
494,124,224125,2,0,P|445:128|405:116,1,89.9999972534181,8|0,0:0|0:0,0:0:0:0:
282,25,224464,1,0,0:0:0:0:
169,152,224634,1,0,0:0:0:0:
169,152,224803,6,0,P|68:108|161:49,1,269.999991760254,6|2,0:0|0:0,0:0:0:0:
314,154,225481,1,8,0:0:0:0:
182,260,225651,2,0,P|139:272|94:267,1,89.9999972534181,0|0,0:0|0:0,0:0:0:0:
13,98,225990,5,2,0:0:0:0:
95,268,226159,1,8,0:0:0:0:
223,111,226329,2,0,L|235:15,1,89.9999972534181,2|2,0:0|0:0,0:0:0:0:
364,20,226668,5,8,0:0:0:0:
343,177,226837,1,2,0:0:0:0:
468,64,227007,5,2,0:0:0:0:
447,221,227176,1,8,0:0:0:0:
385,102,227346,1,0,0:0:0:0:
296,257,227515,6,0,B|240:292|180:260|180:260|116:228|52:272,1,239.999992675781,6|0,0:0|0:0,0:0:0:0:
124,340,228532,1,0,0:0:0:0:
236,184,228702,2,0,L|248:100,1,59.9999981689454,6|0,0:0|0:0,0:0:0:0:
41,198,229210,1,8,0:0:0:0:
189,330,229549,1,2,0:0:0:0:
296,257,229719,2,0,P|328:248|368:248,1,59.9999981689454,0|8,0:0|0:0,0:0:0:0:
427,168,230058,1,0,0:0:0:0:
376,268,230227,6,0,P|464:292|440:180,1,239.999992675781,6|0,0:0|0:0,0:0:0:0:
305,342,231244,1,0,0:0:0:0:
305,342,231413,2,0,P|247:324|169:338,1,119.999996337891,6|0,0:0|0:0,0:0:0:0:
88,380,231922,1,8,0:0:0:0:
40,196,232261,1,2,0:0:0:0:
0,312,232600,5,8,0:0:0:0:
178,242,232769,1,6,0:0:0:0:
256,192,232854,12,0,234803,0:0:0:0:
90,78,234973,5,8,0:0:0:0:
192,204,235142,1,2,0:0:0:0:
284,27,235312,1,8,0:0:0:0:
192,204,235651,6,0,P|240:216|300:196,1,89.9999972534181,6|0,0:0|0:0,0:0:0:0:
356,108,235990,1,8,0:0:0:0:
237,126,236159,1,0,0:0:0:0:
344,208,236329,1,2,0:0:0:0:
237,126,236498,1,0,0:0:0:0:
228,280,236668,1,8,0:0:0:0:
328,128,236837,6,0,P|306:63|176:60,1,179.999994506836,6|0,0:0|0:0,0:0:0:0:
102,168,237346,1,8,0:0:0:0:
237,126,237515,1,0,0:0:0:0:
90,78,237685,1,2,0:0:0:0:
196,240,237854,1,2,0:0:0:0:
205,39,238024,1,8,0:0:0:0:
102,168,238193,1,0,0:0:0:0:
102,168,238278,1,0,0:0:0:0:
102,168,238363,6,0,P|54:156|-6:176,1,89.9999972534181,6|0,0:0|0:0,0:0:0:0:
128,320,238702,2,0,L|228:308,1,89.9999972534181,8|0,0:0|0:0,0:0:0:0:
340,204,239041,1,2,0:0:0:0:
308,364,239210,1,2,0:0:0:0:
232,212,239380,1,8,0:0:0:0:
388,296,239549,1,2,0:0:0:0:
232,212,239719,6,0,P|224:168|236:125,1,89.9999972534181,0|2,0:0|0:0,0:0:0:0:
284,27,240058,1,8,0:0:0:0:
134,86,240227,2,0,P|196:23|283:26,1,179.999994506836,8|2,0:3|0:0,0:0:0:0:
429,141,240736,1,8,0:0:0:0:
340,204,240905,1,0,0:0:0:0:
340,204,240990,1,2,0:0:0:0:
340,204,241075,6,0,P|324:118|376:48,1,179.999994506836,6|8,0:0|0:0,0:0:0:0:
429,141,241583,1,0,0:0:0:0:
332,234,241752,2,0,B|226:219,1,89.9999972534181,2|2,0:0|0:0,0:0:0:0:
128,320,242092,1,8,0:0:0:0:
160,152,242261,6,0,P|238:114|320:146,1,179.999994506836,6|8,0:0|0:0,0:0:0:0:
248,309,242769,6,0,P|237:265|242:221,1,89.9999972534181,0|8,0:0|0:0,0:0:0:0:
241,221,243023,1,8,0:0:0:0:
241,221,243108,1,0,0:0:0:0:
429,141,243278,5,8,0:0:0:0:
348,260,243447,1,8,0:0:0:0:
200,48,243617,5,12,0:0:0:0:
256,192,243702,12,0,249210,0:0:0:0:
