osu file format v14

[General]
AudioFilename: audio.mp3
AudioLeadIn: 0
PreviewTime: 59255
Countdown: 0
SampleSet: Normal
StackLeniency: 0.5
Mode: 0
LetterboxInBreaks: 0
WidescreenStoryboard: 0

[Editor]
DistanceSpacing: 1.5
BeatDivisor: 4
GridSize: 8
TimelineZoom: 5.299997

[Metadata]
Title:Yasashisa no Riyuu (TV Size)
TitleUnicode:Yasashisa no Riyuu (TV Size)
Artist:ChouCho
ArtistUnicode:ChouCho
Creator:TaliNation
Version:Satoshi-Hard
Source:Hyouka
Tags:hyouka talination anime japanese vocal choucho opening
BeatmapID:1265611
BeatmapSetID:598734

[Difficulty]
HPDrainRate:5
CircleSize:4.5
OverallDifficulty:4
ApproachRate:9.1
SliderMultiplier:1.4
SliderTickRate:1

[Events]
//Background and Video events
0,0,"8ca98e76505abb65ccdc34b6de9ef7e6.jpg",0,0
//Break Periods
//Storyboard Layer 0 (Background)
//Storyboard Layer 1 (Fail)
//Storyboard Layer 2 (Pass)
//Storyboard Layer 3 (Foreground)
//Storyboard Sound Samples

[TimingPoints]
1130,338.983050847458,4,2,0,20,1,0
4880,-200,4,2,0,20,0,0
5197,-100,4,2,0,20,0,0
7909,-200,4,2,0,20,0,0
8248,-117.647058823529,4,2,0,20,0,0
9265,-100,4,3,0,30,0,0
11977,-83.3333333333333,4,1,0,50,0,0
15706,-100,4,1,0,50,0,0
17401,-83.3333333333333,4,1,0,50,0,0
18587,-100,4,1,0,50,0,0
19774,-100,4,1,0,50,0,0
22824,-83.3333333333333,4,2,0,40,0,0
25536,-166.666666666667,4,2,0,40,0,0
28757,-100,4,2,0,40,0,0
30960,-100,4,2,0,40,0,0
31638,-90.9090909090909,4,2,0,40,0,0
32316,-83.3333333333333,4,2,0,40,0,0
32994,-125,4,2,0,40,0,0
33672,-200,4,1,0,50,0,0
34350,-100,4,1,0,50,0,0
35536,-83.3333333333333,4,1,0,50,0,0
38418,-142.857142857143,4,1,0,50,0,0
39096,-100,4,1,0,50,0,0
41807,-125,4,1,0,50,0,0
44519,-125,4,3,0,50,0,0
44689,-83.3333333333333,4,1,0,50,0,0
45536,-100,4,2,0,45,0,0
48248,-125,4,2,0,45,0,0
49604,-100,4,2,0,45,0,0
50960,-200,4,2,0,45,0,0
51299,-100,4,2,0,45,0,0
54011,-100,4,1,0,55,0,0
58079,-100,4,3,0,55,0,0
59435,-71.4285714285714,4,1,0,70,0,1
61977,-100,4,1,0,70,0,1
62316,-83.3333333333333,4,1,0,70,0,1
64689,-71.4285714285714,4,1,0,70,0,1
65197,-125,4,1,0,70,0,1
67570,-71.4285714285714,4,1,0,70,0,1
69265,-66.6666666666667,4,1,0,70,0,1
69943,-100,4,1,0,70,0,1
70282,-66.6666666666667,4,1,0,70,0,1
74096,-200,4,1,0,70,0,1
75706,-100,4,3,0,60,0,0
77231,-125,4,1,0,60,0,0
78926,-76.9230769230769,4,3,0,60,0,0
81130,-83.3333333333333,4,2,0,60,0,0
82316,-100,4,2,0,60,0,0
83502,-100,4,1,0,70,0,0
86214,-200,4,3,0,70,0,0

[Colours]
Combo1 : 69,219,245
Combo2 : 251,198,74
Combo3 : 194,247,87
Combo4 : 244,241,104

[HitObjects]
112,104,1130,6,0,P|96:152|128:184,1,70
144,224,1468,1,0,0:0:0:0:
192,280,1638,1,0,0:0:0:0:
288,248,1807,6,0,P|328:240|368:208,1,70
352,224,2146,1,0,0:0:0:0:
384,152,2316,2,0,P|376:96|344:80,1,70
368,89,2655,1,0,0:0:0:0:
264,80,2824,2,0,P|264:160|216:176,1,140
96,144,3502,5,0,0:0:0:0:
56,240,3672,1,0,0:0:0:0:
159,263,3841,2,0,P|199:316|263:300,1,140
304,200,4350,2,0,P|256:152|184:168,1,140
96,144,4858,2,0,P|100:177|96:224,1,70
60,312,5197,6,0,P|98:287|145:273,1,70
200,337,5536,2,0,P|248:321|280:281,1,70
234,193,5875,2,0,P|267:171|313:162,1,70
369,238,6214,1,0,0:0:0:0:
400,96,6553,6,0,L|416:168,2,70
344,56,7062,1,0,0:0:0:0:
344,56,7231,2,0,P|288:40|256:56,1,70
248,112,7570,2,0,P|216:152|168:152,1,70
128,88,7909,2,0,L|80:80,1,35
128,88,8248,2,0,P|96:176|112:240,1,140
200,320,8926,5,0,0:0:0:0:
296,272,9095,1,0,0:0:0:0:
200,320,9265,2,0,P|120:328|160:232,1,210
248,232,9943,2,0,P|296:272|360:232,1,140
392,136,10452,5,0,0:0:0:0:
416,56,10621,1,0,0:0:0:0:
248,56,10960,5,0,0:0:0:0:
272,136,11129,1,0,0:0:0:0:
237,245,11468,5,0,0:0:0:0:
160,160,11807,5,0,0:0:0:0:
88,96,11977,2,0,P|64:176|104:248,1,167.999994873047
88,96,12656,1,0,0:0:0:0:
102,246,12994,1,0,0:0:0:0:
102,246,13163,2,0,L|120:288,2,41.9999987182618
336,56,13673,5,0,0:0:0:0:
336,56,13842,2,0,P|403:120|400:216,1,167.999994873047
368,280,14351,1,0,0:0:0:0:
264,256,14689,6,0,P|312:224|226:179,1,167.999994873047
88,240,15368,1,0,0:0:0:0:
260,252,15706,1,0,0:0:0:0:
264,256,15875,2,0,P|304:200|256:152,1,140
264,256,16384,1,0,0:0:0:0:
312,320,16553,1,0,0:0:0:0:
312,320,16723,2,0,P|356:338|394:335,2,70
272,224,17231,1,0,0:0:0:0:
272,224,17401,6,0,L|272:56,1,167.999994873047
480,56,18079,2,0,L|480:248,1,167.999994873047
430,317,18587,1,0,0:0:0:0:
430,317,18757,2,0,L|401:369,2,35
312,328,19265,1,0,0:0:0:0:
264,256,19435,1,0,0:0:0:0:
160,152,19774,5,0,0:0:0:0:
160,152,19943,1,0,0:0:0:0:
160,152,20113,2,0,P|288:104|432:168,1,280
252,284,21130,5,0,0:0:0:0:
148,304,21299,1,0,0:0:0:0:
181,204,21468,1,0,0:0:0:0:
252,284,21638,2,0,P|282:310|309:351,1,70
148,304,21977,2,0,P|116:318|72:320,1,70
181,203,22316,2,0,P|187:165|204:124,1,70
416,176,22824,6,0,L|432:264,1,83.9999974365235
320,224,23163,2,0,L|304:320,1,83.9999974365235
184,208,23502,2,0,L|200:304,1,83.9999974365235
184,208,23841,1,0,0:0:0:0:
160,96,24011,2,0,L|144:8,1,83.9999974365235
160,96,24350,1,0,0:0:0:0:
184,208,24519,2,0,B|192:240|192:240|248:280|232:336|176:344|144:288|144:288,1,167.999994873047
416,296,25197,6,0,P|408:224|424:200,1,83.9999974365235
416,296,25536,2,0,P|432:256|408:216,1,83.9999974365235
416,88,26045,2,0,P|432:128|408:168,1,83.9999974365235
360,192,26554,1,0,0:0:0:0:
304,221,26723,2,0,P|280:272|334:277,1,125.999996154785
457,279,27570,1,0,0:0:0:0:
459,153,27909,1,0,0:0:0:0:
368,80,28248,5,0,0:0:0:0:
304,56,28418,1,0,0:0:0:0:
312,136,28587,1,0,0:0:0:0:
370,63,28757,6,0,B|304:56|304:56|312:136|312:136|374:115,1,210
188,68,29435,2,0,B|250:102|250:102|187:148,1,140
88,141,29943,2,0,P|95:217|163:247,1,140
355,240,30621,5,0,0:0:0:0:
442,298,30791,1,0,0:0:0:0:
348,344,30960,2,0,B|237:344|237:344|160:266,1,210
167,273,31638,2,0,B|241:345|241:345|375:344,1,231.000007049561
369,344,32316,2,0,B|238:344|238:344|149:255,1,251.999992309571
152,258,32994,2,0,L|199:306,2,56
152,256,33672,5,0,0:0:0:0:
200,136,33841,1,0,0:0:0:0:
280,240,34011,1,0,0:0:0:0:
280,240,34180,1,0,0:0:0:0:
331,119,34350,2,0,L|379:183,1,70
280,240,34689,2,0,L|217:159,1,70
176,120,35028,2,0,L|144:200,1,70
280,240,35367,2,0,L|322:295,1,70
184,296,36045,5,0,0:0:0:0:
120,352,36214,1,0,0:0:0:0:
88,280,36384,2,0,L|40:168,1,83.9999974365235
24,136,36723,1,0,0:0:0:0:
80,80,36892,2,0,B|130:43|192:48|192:48|184:110,1,167.999994873047
224,160,37401,1,0,0:0:0:0:
216,232,37570,2,0,B|184:296|120:368|120:368|88:280,1,251.999992309571
88,184,38418,6,0,P|88:160|96:136,2,48.9999985046387
176,304,39096,5,0,0:0:0:0:
264,359,39265,1,0,0:0:0:0:
358,313,39435,1,0,0:0:0:0:
176,304,39604,1,0,0:0:0:0:
117,216,39774,2,0,P|93:160|101:120,1,70
93,152,40113,1,0,0:0:0:0:
222,52,40282,5,0,0:0:0:0:
222,52,40452,2,0,P|256:58|285:76,1,70,0|0,0:2|0:2,0:2:0:0:
338,167,40791,1,0,0:2:0:0:
144,232,41468,5,0,0:0:0:0:
144,136,41638,1,0,0:0:0:0:
144,232,41807,2,0,L|144:304,1,56
144,136,42146,1,0,0:0:0:0:
184,224,42316,2,0,P|192:280|224:328,1,112
144,136,42824,1,0,0:0:0:0:
224,216,42994,2,0,P|272:280|320:296,1,112
384,288,43502,5,0,0:0:0:0:
448,128,43841,1,0,0:0:0:0:
304,40,44180,1,0,0:0:0:0:
144,96,44519,5,0,0:0:0:0:
144,96,44689,2,0,P|144:160|160:200,1,83.9999974365235
224,96,45028,1,0,0:0:0:0:
224,96,45198,2,0,P|224:160|240:200,1,83.9999974365235
320,96,45536,5,0,0:0:0:0:
456,120,45875,2,0,P|448:184|368:216,1,140
320,96,46553,1,0,0:0:0:0:
176,104,46892,2,0,P|184:40|264:8,1,140
432,104,47570,5,0,0:0:0:0:
432,104,47909,1,0,0:0:0:0:
432,104,48248,2,0,P|416:168|376:216,1,112
240,282,48926,6,0,L|178:314,1,56
395,211,49265,5,0,0:0:0:0:
395,211,49435,1,0,0:0:0:0:
396,211,49604,2,0,P|358:262|322:266,1,70
250,223,49943,2,0,P|248:181|235:151,1,70
373,107,50282,2,0,P|339:98|311:79,1,70
206,64,50621,1,0,0:0:0:0:
120,64,50960,6,0,L|96:104,1,35
144,96,51299,2,0,B|168:168|168:168|144:240,1,140
96,304,51977,1,0,0:0:0:0:
168,352,52316,2,0,B|248:336|248:336|336:352,1,140
456,320,52994,5,0,0:0:0:0:
344,200,53333,1,0,0:0:0:0:
304,368,53672,1,0,0:0:0:0:
456,288,54011,2,0,P|472:248|464:224,1,70
432,144,54350,1,0,0:0:0:0:
368,288,54519,2,0,P|384:248|376:224,1,70
344,144,54858,1,0,0:0:0:0:
280,288,55028,2,0,P|296:248|288:224,1,70
256,144,55367,1,0,0:0:0:0:
200,288,55536,2,0,P|216:248|168:144,1,140
144,104,56045,1,0,0:0:0:0:
88,64,56384,1,0,0:0:0:0:
112,288,56723,2,0,P|128:248|120:224,1,70
272,248,58079,6,0,L|288:208,3,23.3333333333333
352,288,59435,6,0,P|304:304|240:272,1,97.9999970092774
184,232,59774,1,0,0:0:0:0:
152,136,59943,2,0,P|168:64|192:64,1,97.9999970092774
323,56,60282,2,0,L|419:80,1,97.9999970092774
332,199,60621,2,0,L|236:175,1,97.9999970092774
323,56,60960,2,0,L|227:32,1,97.9999970092774
88,40,61299,6,0,B|74:88|74:88|104:152,1,97.9999970092774
182,242,61638,2,0,L|246:157,1,97.9999970092774
323,56,61977,2,0,L|403:88,1,70
323,112,62316,2,0,P|346:168|344:215,1,83.9999974365235
317,313,62655,2,0,P|358:297|413:300,1,83.9999974365235
487,329,62994,2,0,P|448:343|399:345,1,83.9999974365235
316,315,63333,2,0,P|244:286|298:269,1,167.999994873047
320,160,64011,5,0,0:0:0:0:
400,112,64180,1,0,0:0:0:0:
320,160,64350,5,0,0:0:0:0:
400,112,64519,1,0,0:0:0:0:
400,112,64689,2,0,P|424:216|376:288,1,195.999994018555
378,286,65197,1,0,0:0:0:0:
256,304,65367,2,0,L|184:304,1,56
378,286,65875,5,0,0:0:0:0:
256,304,66045,2,0,B|168:304|168:304|144:288|128:312,1,112
136,184,66723,5,0,0:0:0:0:
240,168,66892,1,0,0:0:0:0:
136,184,67062,1,0,0:0:0:0:
192,96,67231,1,0,0:0:0:0:
192,96,67401,1,0,0:0:0:0:
266,53,67570,2,0,P|338:29|370:37,1,97.9999970092774
192,96,67909,1,0,0:0:0:0:
280,112,68079,2,0,P|344:112|400:144,1,97.9999970092774
192,96,68418,1,0,0:0:0:0:
252,165,68587,2,0,P|308:189|348:221,1,97.9999970092774
360,240,68926,1,0,0:0:0:0:
360,296,69096,5,0,0:0:0:0:
360,352,69265,1,0,0:0:0:0:
360,240,69435,2,0,L|360:120,1,105.000004005432
280,176,69943,1,0,0:0:0:0:
259,203,70027,1,0,0:0:0:0:
228,218,70112,1,0,0:0:0:0:
193,222,70197,1,0,0:0:0:0:
160,216,70282,6,0,P|104:192|48:208,1,105.000004005432
62,199,70621,5,0,0:0:0:0:
62,199,70791,1,0,0:0:0:0:
160,216,70960,1,0,0:0:0:0:
160,216,71130,2,0,P|240:208|288:168,1,105.000004005432
320,80,71468,2,0,P|352:128|360:176,1,105.000004005432
336,192,71807,2,0,P|336:272|368:312,1,105.000004005432
408,296,72146,2,0,P|376:368|328:376,1,105.000004005432
356,375,72485,6,0,P|365:324|407:295,1,105.000004005432
347,291,72824,2,0,P|354:239|335:191,1,105.000004005432
360,176,73163,2,0,P|330:133|319:82,1,105.000004005432
319,82,73502,1,0,0:0:0:0:
336,192,73841,1,0,0:0:0:0:
353,302,74180,2,0,P|312:328|280:328,1,70
208,288,74858,5,0,0:0:0:0:
208,168,75028,1,0,0:0:0:0:
329,231,75197,1,0,0:0:0:0:
208,232,75367,1,0,0:0:0:0:
208,112,75536,1,0,0:0:0:0:
328,171,75706,2,0,L|327:30,1,140
328,31,76214,6,0,L|328:192,1,140
334,178,76723,1,0,0:0:0:0:
334,178,76892,2,0,L|335:270,1,70
240,320,77231,6,0,L|192:352,2,56
208,192,77740,1,0,0:0:0:0:
320,64,78079,1,0,0:0:0:0:
440,176,78418,1,0,0:0:0:0:
440,176,78926,6,0,L|376:224,2,45.4999979171754
440,176,79435,5,0,0:0:0:0:
320,248,79604,2,0,L|232:304,1,90.9999958343508
208,192,80113,1,0,0:0:0:0:
320,64,80452,1,0,0:0:0:0:
440,176,80791,1,0,0:0:0:0:
328,312,81130,2,0,B|314:323|314:323|233:214|233:214|200:208|205:229|330:132|330:132|328:64|256:56|248:112,1,419.999987182618
176,64,82146,1,0,0:0:0:0:
176,64,82316,2,0,B|176:302|176:302|152:320|152:320|120:288|80:328,1,335.999989746094
88,96,83502,5,0,0:0:0:0:
88,96,83672,1,0,0:0:0:0:
88,96,83841,2,0,P|64:176|97:237,1,140
88,96,84519,1,0,0:0:0:0:
102,246,84858,1,0,0:0:0:0:
102,246,85028,2,0,L|118:278,2,20.9999993591309
336,56,85367,6,0,L|264:56,1,70
192,56,85706,2,0,L|272:56,1,70
336,56,86045,1,0,0:0:0:0:
308,132,86214,1,0,0:0:0:0:
280,208,86384,6,0,B|390:162|381:304|286:329|202:350|202:350|159:283|92:207|197:84|239:201,1,577.5
