osu file format v14

[General]
AudioFilename: audio.mp3
AudioLeadIn: 0
PreviewTime: 59255
Countdown: 0
SampleSet: Soft
StackLeniency: 0.4
Mode: 0
LetterboxInBreaks: 0
WidescreenStoryboard: 0

[Editor]
Bookmarks: 83502
DistanceSpacing: 1.5
BeatDivisor: 4
GridSize: 8
TimelineZoom: 2.6

[Metadata]
Title:Yasashisa no Riyuu (TV Size)
TitleUnicode:Yasashisa no Riyuu (TV Size)
Artist:ChouCho
ArtistUnicode:ChouCho
Creator:TaliNation
Version:Eru-Insane
Source:Hyouka
Tags:hyouka talination anime japanese vocal choucho opening
BeatmapID:1270946
BeatmapSetID:598734

[Difficulty]
HPDrainRate:6
CircleSize:4
OverallDifficulty:7
ApproachRate:9.3
SliderMultiplier:1.7
SliderTickRate:1

[Events]
//Background and Video events
0,0,"8ca98e76505abb65ccdc34b6de9ef7e6.jpg",0,0
//Break Periods
//Storyboard Layer 0 (Background)
//Storyboard Layer 1 (Fail)
//Storyboard Layer 2 (Pass)
//Storyboard Layer 3 (Foreground)
//Storyboard Sound Samples

[TimingPoints]
1130,338.983050847458,4,2,0,20,1,0
2824,-133.333333333333,4,2,0,20,0,0
3841,-100,4,2,0,20,0,0
5028,-133.333333333333,4,2,0,20,0,0
6553,-100,4,2,0,20,0,0
9265,-100,4,3,0,30,0,0
9943,-133.333333333333,4,3,0,30,0,0
11977,-80,4,1,0,50,0,0
15875,-74.0740740740741,4,1,0,50,0,0
18587,-100,4,1,0,50,0,0
19096,-80,4,1,0,50,0,0
20113,-100,4,1,0,50,0,0
21468,-100,4,3,0,50,0,0
22824,-100,4,2,0,30,0,0
23502,-83.3333333333333,4,2,0,30,0,0
24519,-100,4,2,0,30,0,0
28926,-133.333333333333,4,2,0,30,0,0
29943,-200,4,2,0,30,0,0
30621,-100,4,2,0,30,0,0
33672,-100,4,1,0,50,0,0
36892,-117.647058823529,4,1,0,50,0,0
37570,-142.857142857143,4,1,0,50,0,0
38418,-100,4,1,0,50,0,0
40791,-133.333333333333,4,1,0,50,0,0
41468,-100,4,1,0,50,0,0
43163,-100,4,3,0,50,0,0
44519,-100,4,1,0,50,0,0
45536,-166.666666666667,4,2,0,45,0,0
45875,-125,4,2,0,45,0,0
54011,-100,4,2,0,45,0,0
58079,-200,4,2,0,45,0,0
59435,-83.3333333333333,4,1,0,70,0,1
64858,-125,4,1,0,70,0,1
66723,-100,4,1,0,70,0,1
74180,-76.9230769230769,4,1,0,70,0,1
75706,-142.857142857143,4,3,0,60,0,0
76892,-200,4,3,0,60,0,0
77740,-133.333333333333,4,3,0,60,0,0
78926,-100,4,2,0,60,0,0
83502,-100,4,1,0,70,0,0
85028,-200,4,1,0,70,0,0
85875,-100,4,1,0,70,0,0
86384,-100,4,3,0,100,0,0
86553,-100,4,2,0,70,0,0

[Colours]
Combo1 : 138,84,205
Combo2 : 199,121,227
Combo3 : 183,112,214
Combo4 : 172,84,205
Combo5 : 148,71,199

[HitObjects]
88,296,1130,6,0,P|128:280|160:240,1,85
208,152,1468,1,0,0:0:0:0:
200,40,1638,1,0,0:0:0:0:
304,80,1807,2,0,P|344:96|400:96,1,85
488,48,2146,1,0,0:0:0:0:
496,160,2316,2,0,P|504:208|488:256,1,85
424,328,2655,1,0,0:0:0:0:
328,304,2824,2,0,P|264:296|200:312,1,127.500004863739
80,160,3502,5,0,0:0:0:0:
48,72,3672,1,0,0:0:0:0:
80,160,3841,2,0,P|112:176|184:176,1,85
256,96,4180,1,0,0:0:0:0:
272,224,4350,2,0,B|272:272|256:304|256:304|312:320|328:352,1,170
455,344,4858,2,0,L|463:248,1,85
448,168,5197,6,0,P|432:136|400:112,1,63.7500024318696
320,168,5536,2,0,P|288:144|248:128,1,63.7500024318696
200,200,5875,2,0,P|168:176|120:168,1,63.7500024318696
120,264,6214,2,0,P|88:256|56:256,1,63.7500024318696
16,344,6553,5,0,0:0:0:0:
144,376,6723,1,0,0:0:0:0:
256,312,6892,1,0,0:0:0:0:
344,216,7062,1,0,0:0:0:0:
344,216,7231,2,0,P|378:171|386:140,1,85
300,48,7570,1,0,0:0:0:0:
300,48,7740,2,0,P|272:80|258:119,1,85
256,312,8079,1,0,0:0:0:0:
344,216,8248,2,0,P|376:176|400:136,1,85
216,144,8926,5,0,0:0:0:0:
176,40,9096,1,0,0:0:0:0:
216,144,9265,6,0,L|240:192,2,42.5
176,288,9943,2,0,P|224:320|312:320,1,127.500004863739
376,280,10452,1,0,0:0:0:0:
376,280,10621,1,0,0:0:0:0:
376,104,10960,1,0,0:0:0:0:
376,104,11129,1,0,0:0:0:0:
312,176,11468,2,0,P|280:184|224:192,1,63.7500024318696
112,144,11977,6,0,P|208:104|240:104,1,106.25
208,103,12316,1,0,0:0:0:0:
400,192,12655,6,0,P|354:219|303:232,1,106.25,0|0,3:0|0:0,0:0:0:0:
200,216,12994,1,0,0:0:0:0:
304,232,13163,2,0,P|297:283|288:344,1,106.25
288,336,13672,5,0,0:0:0:0:
304,232,13841,1,0,0:0:0:0:
304,232,14011,2,0,P|304:160|320:96,1,106.25
360,32,14350,2,0,P|384:88|392:136,1,106.25
376,264,14689,6,0,B|360:272|336:272|336:272|288:304|248:256,1,106.25
274,278,15028,1,0,0:0:0:0:
120,136,15367,2,0,B|136:128|160:128|160:128|208:96|248:144,1,106.25
221,121,15706,1,0,0:0:0:0:
221,121,15875,2,0,P|282:111|219:138,1,191.250000729561,0|0,0:0|0:0,0:3:0:0:
136,88,16384,5,0,0:0:0:0:
80,176,16553,1,0,0:0:0:0:
48,72,16723,2,0,B|16:160|16:160|-8:296,1,212.5
208,304,17401,6,0,B|256:320|256:320|320:304,1,106.25
309,306,17740,1,0,0:0:0:0:
400,112,18079,6,0,B|352:96|352:96|288:112,1,106.25
298,109,18418,1,0,0:0:0:0:
200,64,18587,2,0,P|128:72|37:25,1,170
23,137,19096,2,0,P|15:185|23:249,2,106.25
232,40,19774,5,0,0:0:0:0:
312,112,19943,1,0,0:0:0:0:
232,40,20113,2,0,B|224:104|224:104|232:152|232:152|224:240,1,170
208,280,20791,5,0,0:0:0:0:
200,296,21130,5,0,0:0:0:0:
192,312,21468,5,0,0:0:0:0:
64,200,21638,1,0,0:0:0:0:
232,224,21807,1,0,0:0:0:0:
328,80,21977,1,0,0:0:0:0:
352,264,22146,2,0,P|392:224|448:200,1,85
416,210,22485,1,0,0:0:0:0:
328,120,22824,6,0,P|288:112|224:112,1,85
256,240,23163,2,0,P|216:232|152:232,1,85
48,256,23502,2,0,B|0:232|0:232|-8:264|8:296,1,101.999996887207
112,352,23841,1,0,0:0:0:0:
256,304,24011,2,0,B|280:272|312:264|312:264|288:224,1,101.999996887207
256,80,24350,1,0,0:0:0:0:
320,168,24519,2,0,B|376:216|424:120|504:168,1,170
296,256,25197,5,0,0:0:0:0:
240,384,25367,1,0,0:0:0:0:
168,272,25536,2,0,P|176:224|160:168,1,85
88,80,25875,1,0,0:0:0:0:
224,112,26045,2,0,B|272:120|342:89|342:89|384:96|352:152,1,170
296,240,26553,1,0,0:0:0:0:
424,288,26723,2,0,B|464:272|512:280|512:280|520:248|504:192,1,170
488,72,27231,5,0,0:0:0:0:
488,72,27570,1,0,0:0:0:0:
416,128,27909,1,0,0:0:0:0:
250,220,28248,5,0,0:0:0:0:
294,100,28418,1,0,0:0:0:0:
409,46,28587,1,0,0:0:0:0:
365,166,28757,5,0,0:0:0:0:
400,280,28926,2,0,L|435:339,1,63.7500024318696
432,334,29265,1,0,0:0:0:0:
304,336,29435,2,0,P|270:339|224:336,1,63.7500024318696
160,344,29943,6,0,P|126:348|80:344,1,63.7500024318696
240,224,30621,1,0,0:0:0:0:
232,80,30791,1,0,0:0:0:0:
240,224,30960,2,0,B|240:288|280:352|280:352|328:304|400:304,1,255
480,208,31638,2,0,B|416:184|400:136|400:136|440:104|456:61|456:61|435:43|400:32,1,255
304,120,32316,2,0,B|264:144|216:128|216:128|168:112|104:144,1,170
64,248,32824,1,0,0:0:0:0:
64,248,32994,2,0,P|112:312|128:232,1,170
240,144,33672,5,0,0:0:0:0:
352,64,33841,1,0,0:0:0:0:
416,184,34011,1,0,0:0:0:0:
432,272,34180,1,0,0:0:0:0:
296,280,34350,2,0,P|248:256|208:248,1,85
80,272,34689,1,0,0:0:0:0:
184,360,34858,2,0,P|232:352|272:336,1,85
320,216,35197,1,0,0:0:0:0:
256,96,35367,2,0,B|232:56|186:56|186:56|164:98|189:139,1,170
128,296,36045,5,0,0:0:0:0:
248,352,36214,1,0,0:0:0:0:
384,352,36384,2,0,P|433:348|472:336,1,85
360,256,36723,5,0,0:0:0:0:
360,256,36892,2,0,B|424:232|459:198|459:198|440:189|424:176,1,144.500002756119
312,176,37401,5,0,0:0:0:0:
312,176,37570,2,0,B|359:130|384:80|384:80|353:84|320:80,1,178.499994552612
128,120,38418,5,0,0:0:0:0:
72,224,38587,1,0,0:0:0:0:
191,224,38757,1,0,0:0:0:0:
392,272,39096,6,0,P|424:296|472:320,2,85
392,272,39604,1,0,0:0:0:0:
296,192,39774,2,0,P|262:159|232:120,1,85
136,56,40113,1,0,0:0:0:0:
136,56,40282,2,0,P|120:96|104:176,1,85
184,240,40621,1,0,0:0:0:0:
184,240,40791,2,0,B|181:282|181:282|189:305|189:305|182:328|182:328|184:368,1,127.500004863739
352,264,41468,5,0,0:0:0:0:
424,160,41638,1,0,0:0:0:0:
296,144,41807,2,0,P|264:128|224:88,1,85
120,32,42146,1,0,0:0:0:0:
64,144,42316,2,0,B|64:192|45:250|45:250|80:280|112:320,1,170
264,320,42824,1,0,0:0:0:0:
200,256,42994,1,0,0:0:0:0:
88,192,43163,5,0,0:0:0:0:
256,23,43502,1,0,0:0:0:0:
424,191,43841,1,0,0:0:0:0:
255,359,44180,1,0,0:0:0:0:
80,192,44519,5,0,0:0:0:0:
80,192,44689,2,0,L|64:280,1,85
208,224,45028,1,0,0:0:0:0:
208,224,45197,2,0,L|240:312,1,85
352,312,45536,6,0,L|360:376,1,50.9999984436036
448,288,45875,2,0,P|456:248|456:208,1,68
400,120,46214,1,0,0:0:0:0:
472,32,46553,1,0,0:0:0:0:
472,32,46892,2,0,L|459:197,1,136
376,264,47570,6,0,P|341:259|280:264,1,68
224,328,47909,2,0,P|188:333|152:328,1,68
48,272,48248,2,0,B|61:206|48:125|48:125|40:136|112:112,1,204
200,72,48926,1,0,0:0:0:0:
408,136,49265,5,0,0:0:0:0:
485,213,49435,1,0,0:0:0:0:
384,240,49604,1,0,0:0:0:0:
176,296,49943,2,0,P|169:329|168:368,1,68
256,232,50282,2,0,P|262:265|264:304,1,68
160,192,50621,2,0,P|153:225|152:264,1,68
64,104,50960,5,0,0:0:0:0:
256,232,51299,6,0,P|304:218|352:216,1,68
432,224,51638,2,0,P|432:264|440:320,1,68
368,376,51977,2,0,P|334:368|272:368,1,68
192,352,52316,1,0,0:0:0:0:
168,56,52994,6,0,P|152:112|152:192,2,136
336,0,54011,5,0,0:0:0:0:
472,216,54350,5,0,0:0:0:0:
472,216,54519,2,0,L|456:312,1,85
336,328,54858,5,0,0:0:0:0:
336,328,55028,2,0,L|296:224,1,85
216,152,55367,5,0,0:0:0:0:
216,152,55536,2,0,L|128:208,2,85
328,80,56045,5,0,0:0:0:0:
448,288,56384,1,0,0:0:0:0:
224,376,56723,2,0,B|183:288|122:221|122:221|119:252|151:223|183:158|194:94|194:94|232:120|216:160,1,425
224,160,57909,5,0,0:0:0:0:
224,160,58079,2,0,L|216:208,1,42.5
296,216,58418,1,0,0:0:0:0:
296,216,58587,2,0,L|312:304,1,85
120,232,59435,5,0,0:0:0:0:
232,216,59774,1,0,0:0:0:0:
232,216,59943,2,0,P|288:208|336:192,1,101.999996887207
408,72,60282,2,0,P|432:120|440:216,1,101.999996887207
328,256,60621,2,0,P|320:296|336:360,1,101.999996887207
464,368,60960,1,0,0:0:0:0:
441,167,61299,1,0,0:0:0:0:
224,32,61638,2,0,P|208:72|208:152,1,101.999996887207
72,184,61977,2,0,P|104:216|176:248,1,101.999996887207
296,240,62316,2,0,P|341:217|377:181,1,101.999996887207
456,64,62655,1,0,0:0:0:0:
416,232,62994,2,0,P|379:267|334:290,1,101.999996887207
112,288,63333,1,0,0:0:0:0:
208,176,64011,5,0,0:0:0:0:
272,48,64180,1,0,0:0:0:0:
350,167,64350,1,0,0:0:0:0:
184,88,64519,1,0,0:0:0:0:
232,264,64689,5,0,0:0:0:0:
232,264,64858,2,0,L|264:336,1,68
376,248,65197,1,0,0:0:0:0:
376,248,65367,2,0,L|480:344,1,136
480,176,65875,5,0,0:0:0:0:
480,176,66045,2,0,L|368:256,1,136
168,288,66723,5,0,0:0:0:0:
40,328,66892,1,0,0:0:0:0:
69,197,67062,1,0,0:0:0:0:
197,157,67231,1,0,0:0:0:0:
98,66,67401,1,0,0:0:0:0:
197,157,67570,6,0,B|208:200|208:200|240:256,1,85
288,336,67909,1,0,0:0:0:0:
392,280,68079,2,0,B|424:248|424:248|448:208,1,85
504,104,68418,1,0,0:0:0:0:
444,213,68587,2,0,P|415:264|367:195,1,170,0|0,0:0|0:0,0:3:0:0:
364,200,69096,1,0,0:0:0:0:
295,95,69435,1,0,0:0:0:0:
295,95,69604,1,0,0:0:0:0:
248,176,69943,5,0,0:0:0:0:
224,210,70027,1,0,0:0:0:0:
190,235,70112,1,0,0:0:0:0:
149,248,70197,1,0,0:0:0:0:
107,245,70281,1,0,0:0:0:0:
24,72,70621,5,0,0:0:0:0:
88,168,70791,2,0,L|144:240,1,85
64,328,71130,2,0,P|106:342|168:344,1,85
224,240,71468,2,0,P|249:270|280:336,1,85
352,200,71807,2,0,P|372:162|399:129,1,85
456,48,72146,1,0,0:0:0:0:
472,24,72485,1,0,0:0:0:0:
352,200,72824,2,0,P|330:240|304:288,1,85
176,328,73163,2,0,P|136:288|96:272,1,85
88,120,73502,2,0,P|136:104|168:64,1,85
320,96,73841,2,0,P|324:136|349:187,1,85
400,320,74180,2,0,P|488:328|416:288,1,220.999989883423
304,96,74858,5,0,0:0:0:0:
152,200,75028,1,0,0:0:0:0:
315,281,75197,1,0,0:3:0:0:
304,96,75367,1,0,0:0:0:0:
228,148,75536,1,0,0:0:0:0:
152,200,75706,2,0,P|96:224|40:200,1,118.999996368408
44,204,76214,2,0,P|72:256|72:320,1,118.999996368408
73,315,76723,1,0,0:0:0:0:
80,320,76892,2,0,L|159:349,1,85
360,280,77740,6,0,P|406:226|426:156,2,127.500004863739
360,280,78926,5,0,0:0:0:0:
208,304,79096,1,0,0:0:0:0:
104,192,79435,5,0,0:0:0:0:
104,192,79604,2,0,P|120:104|96:16,1,170
232,104,80113,1,0,0:0:0:0:
248,120,80452,1,0,0:0:0:0:
264,136,80791,1,0,0:0:0:0:
384,256,81130,1,0,0:0:0:0:
155,208,82146,6,0,P|176:171|200:136,2,85
59,352,82824,1,0,0:0:0:0:
155,208,83163,1,0,0:0:0:0:
59,64,83502,1,0,0:0:0:0:
59,64,83672,1,0,0:0:0:0:
54,59,83841,2,0,P|127:23|167:23,1,85
129,22,84180,1,0,0:0:0:0:
343,108,84519,6,0,P|297:135|248:144,1,85
162,126,84858,1,0,0:0:0:0:
266,142,85028,2,0,P|259:193|250:254,1,85
254,226,85536,1,0,0:0:0:0:
256,352,85706,1,0,0:0:0:0:
256,352,85875,1,0,0:0:0:0:
352,264,86045,1,0,0:0:0:0:
287,122,86214,1,0,0:0:0:0:
143,255,86384,1,0,0:0:0:0:
256,192,86553,12,0,89265,0:0:0:0:
