osu file format v14

[General]
AudioFilename: audio.mp3
AudioLeadIn: 0
PreviewTime: 59201
Countdown: 0
SampleSet: Soft
StackLeniency: 0.7
Mode: 3
LetterboxInBreaks: 0
SpecialStyle: 0
WidescreenStoryboard: 1

[Editor]
DistanceSpacing: 0.8
BeatDivisor: 4
GridSize: 4
TimelineZoom: 4.499999

[Metadata]
Title:Yasashisa no Riyuu (TV Size)
TitleUnicode:優しさの理由 (TV Size)
Artist:ChouCho
ArtistUnicode:ChouCho
Creator:Scotty
Version:Easy
Source:氷菓
Tags:hyouka anime japanese opening op jpop j-pop pop chitanda eru kyoto animation kyoani davidminh0111 roger ][ -gh- ][ shima rin tofu1222 keppsado
BeatmapID:2543869
BeatmapSetID:1222992

[Difficulty]
HPDrainRate:7
CircleSize:4
OverallDifficulty:7
ApproachRate:5
SliderMultiplier:1.4
SliderTickRate:1

[Events]
//Background and Video events
0,0,"a.jpg",0,0
//Break Periods
//Storyboard Layer 0 (Background)
//Storyboard Layer 1 (Fail)
//Storyboard Layer 2 (Pass)
//Storyboard Layer 3 (Foreground)
//Storyboard Layer 4 (Overlay)
//Storyboard Sound Samples

[TimingPoints]
982,338.983050847458,4,2,1,50,1,0
45727,338.983050847458,4,2,1,50,1,0
59286,338.983050847458,4,2,1,50,1,1
69794,-100,4,2,1,50,0,0
70133,-100,4,2,1,50,0,1
80980,-100,4,2,1,50,0,0

[HitObjects]
320,192,982,5,0,0:0:0:0:
192,192,1659,1,0,0:0:0:60:soft snare.wav
64,192,2337,1,0,0:0:0:0:
320,192,3015,1,0,0:0:0:60:soft snare.wav
448,192,3693,1,0,0:0:0:0:
192,192,3863,1,0,0:0:0:60:soft snare.wav
192,192,4371,1,0,0:0:0:60:soft snare.wav
448,192,5049,128,0,5388:0:0:0:0:
64,192,5388,128,0,5727:0:0:0:0:
320,192,5727,128,0,6066:0:0:0:60:soft snare.wav
64,192,6066,128,0,6405:0:0:0:0:
448,192,6405,1,0,0:0:0:0:
192,192,7083,1,0,0:0:0:60:soft snare.wav
64,192,7761,1,0,0:0:0:0:
320,192,8439,1,0,0:0:0:60:soft snare.wav
448,192,9117,128,0,10473:0:0:0:0:
64,192,11829,1,2,0:0:0:0:
192,192,11829,1,4,0:0:0:0:
320,192,12168,1,2,0:0:0:0:
192,192,12507,1,2,0:0:0:0:
320,192,12846,1,2,0:0:0:0:
64,192,13015,1,4,0:0:0:0:
448,192,13185,1,2,0:0:0:0:
192,192,13524,1,2,0:0:0:0:
448,192,13863,1,2,0:0:0:0:
192,192,14202,1,2,0:0:0:0:
64,192,14541,1,2,0:0:0:0:
448,192,14541,1,4,0:0:0:0:
320,192,14880,1,2,0:0:0:0:
64,192,15219,1,2,0:0:0:0:
320,192,15558,1,2,0:0:0:0:
192,192,15727,1,4,0:0:0:0:
448,192,15897,1,2,0:0:0:0:
192,192,16236,1,2,0:0:0:0:
320,192,16405,1,4,0:0:0:0:
64,192,16575,1,2,0:0:0:0:
448,192,16914,1,2,0:0:0:0:
320,192,17083,1,4,0:0:0:0:
192,192,17253,1,4,0:0:0:0:
64,192,17253,1,2,0:0:0:0:
448,192,17592,1,2,0:0:0:0:
64,192,17931,1,2,0:0:0:0:
448,192,18270,1,2,0:0:0:0:
64,192,18439,1,4,0:0:0:0:
320,192,18609,1,2,0:0:0:0:
192,192,18948,1,2,0:0:0:0:
320,192,19287,1,2,0:0:0:0:
192,192,19626,1,2,0:0:0:0:
448,192,19965,1,2,0:0:0:0:
64,192,19965,128,4,21320:0:0:0:0:
320,192,21320,1,2,0:0:0:0:
448,192,21659,1,2,0:0:0:0:
192,192,21829,128,2,22168:0:0:0:0:
64,192,22168,128,2,22676:0:0:0:0:
320,192,22676,1,2,0:0:0:0:
192,192,23354,1,0,0:0:0:60:soft snare.wav
64,192,24032,1,0,0:0:0:0:
320,192,24710,1,0,0:0:0:60:soft snare.wav
192,192,25388,1,0,0:0:0:0:
320,192,25558,1,0,0:0:0:60:soft snare.wav
320,192,26066,1,0,0:0:0:60:soft snare.wav
448,192,26744,128,0,27083:0:0:0:0:
64,192,27083,128,0,27422:0:0:0:0:
320,192,27422,128,0,27761:0:0:0:60:soft snare.wav
64,192,27761,128,0,28100:0:0:0:0:
448,192,28100,1,0,0:0:0:0:
192,192,28778,1,0,0:0:0:60:soft snare.wav
64,192,29456,1,0,0:0:0:0:
320,192,30134,1,0,0:0:0:60:soft snare.wav
448,192,30812,1,0,0:0:0:0:
64,192,31490,1,0,0:0:0:60:soft snare.wav
320,192,32168,1,0,0:0:0:0:
192,192,32507,128,0,32846:0:0:0:0:
448,192,32846,1,2,0:0:0:0:
64,192,33015,1,2,0:0:0:0:
320,192,33185,1,2,0:0:0:0:
192,192,33354,1,2,0:0:0:0:
448,192,33524,1,2,0:0:0:0:
64,192,33524,128,4,33863:0:0:0:0:
320,192,33863,1,2,0:0:0:0:
192,192,34202,1,2,0:0:0:0:
320,192,34541,1,2,0:0:0:0:
448,192,34880,128,2,35219:0:0:0:0:
64,192,35219,1,2,0:0:0:0:
320,192,35558,1,2,0:0:0:0:
64,192,35897,1,2,0:0:0:0:
192,192,36236,128,2,36575:0:0:0:0:
448,192,36575,1,2,0:0:0:0:
64,192,36914,1,2,0:0:0:0:
448,192,37253,1,2,0:0:0:0:
192,192,37592,128,2,37931:0:0:0:0:
320,192,37931,128,2,38270:0:0:0:0:
448,192,38270,128,2,38609:0:0:0:0:
192,192,38609,1,2,0:0:0:0:
64,192,38948,128,2,39287:0:0:0:0:
320,192,39287,1,2,0:0:0:0:
192,192,39626,1,2,0:0:0:0:
320,192,39965,1,2,0:0:0:0:
448,192,40304,128,2,40643:0:0:0:0:
192,192,40643,1,2,0:0:0:0:
448,192,40982,1,2,0:0:0:0:
192,192,41320,1,2,0:0:0:0:
320,192,41659,128,2,41998:0:0:0:0:
64,192,41998,1,2,0:0:0:0:
448,192,42337,1,2,0:0:0:0:
320,192,42676,1,2,0:0:0:0:
64,192,43015,1,2,0:0:0:0:
192,192,43354,1,2,0:0:0:0:
320,192,43693,1,8,0:0:0:0:
448,192,44032,1,2,0:0:0:0:
64,192,44371,1,2,0:0:0:0:
448,192,44541,128,12,44880:0:0:0:0:
192,192,44880,1,2,0:0:0:0:
64,192,45049,128,12,45388:0:0:0:0:
448,192,45388,1,8,0:0:0:0:
320,192,45558,1,2,0:0:0:0:
192,192,45727,1,2,0:0:0:0:
64,192,45727,1,4,0:0:0:0:
448,192,46065,1,0,0:0:0:0:
320,192,46404,1,8,0:0:0:0:
192,192,46743,1,0,0:0:0:0:
448,192,47082,1,2,0:0:0:0:
64,192,47252,1,8,0:0:0:0:
320,192,47421,1,2,0:0:0:0:
192,192,47591,1,2,0:0:0:0:
448,192,47760,1,8,0:0:0:0:
64,192,48099,1,0,0:0:0:0:
192,192,48269,1,2,0:0:0:0:
320,192,48438,1,2,0:0:0:0:
448,192,48777,1,0,0:0:0:0:
192,192,48947,1,2,0:0:0:0:
64,192,49116,1,8,0:0:0:0:
320,192,49455,1,0,0:0:0:0:
192,192,49794,1,2,0:0:0:0:
64,192,49964,1,8,0:0:0:0:
448,192,50133,1,2,0:0:0:0:
320,192,50303,1,2,0:0:0:0:
64,192,50472,1,8,0:0:0:0:
192,192,50472,1,4,0:0:0:0:
320,192,50811,1,0,0:0:0:0:
448,192,51150,1,2,0:0:0:0:
64,192,51489,1,0,0:0:0:0:
448,192,51659,1,2,0:0:0:0:
192,192,51828,1,8,0:0:0:0:
320,192,52167,1,0,0:0:0:0:
448,192,52506,1,2,0:0:0:0:
64,192,52676,1,8,0:0:0:0:
320,192,52845,1,2,0:0:0:0:
192,192,53015,1,2,0:0:0:0:
448,192,53184,128,8,53523:0:0:0:0:
64,192,53523,1,0,0:0:0:0:
192,192,53693,1,2,0:0:0:0:
320,192,53862,1,2,0:0:0:0:
448,192,53862,1,4,0:0:0:0:
192,192,54201,1,8,0:0:0:0:
448,192,54371,1,4,0:0:0:0:
64,192,54371,1,2,0:0:0:0:
320,192,54710,1,2,0:0:0:0:
192,192,54879,1,2,0:0:0:0:
64,192,55218,1,2,0:0:0:0:
448,192,55388,1,8,0:0:0:0:
192,192,55388,1,4,0:0:0:0:
64,192,55727,1,2,0:0:0:0:
320,192,55896,1,8,0:0:0:0:
320,192,56235,1,8,0:0:0:0:
192,192,56574,1,4,0:0:0:0:
64,192,56574,1,0,0:0:0:0:
320,192,57930,128,0,58608:0:0:0:0:
448,192,59286,1,2,0:0:0:0:
64,192,59286,1,4,0:0:0:0:
320,192,59624,1,8,0:0:0:0:
192,192,59963,1,2,0:0:0:0:
448,192,60133,1,2,0:0:0:0:
64,192,60302,1,8,0:0:0:0:
320,192,60641,1,2,0:0:0:0:
192,192,60980,1,8,0:0:0:0:
448,192,61319,1,2,0:0:0:0:
64,192,61489,1,2,0:0:0:0:
320,192,61658,1,8,0:0:0:0:
192,192,61997,1,2,0:0:0:0:
448,192,62336,1,8,0:0:0:0:
320,192,62675,1,2,0:0:0:0:
64,192,62845,1,2,0:0:0:0:
192,192,63014,1,8,0:0:0:0:
448,192,63353,1,2,0:0:0:0:
64,192,63692,1,8,0:0:0:0:
320,192,64031,1,2,0:0:0:0:
192,192,64201,1,2,0:0:0:0:
448,192,64370,1,8,0:0:0:0:
320,192,64540,1,8,0:0:0:0:
192,192,64709,1,8,0:0:0:0:
64,192,65048,1,8,0:0:0:0:
448,192,65048,128,4,65726:0:0:0:0:
192,192,65726,1,8,0:0:0:0:
320,192,65896,1,2,0:0:0:0:
64,192,65896,128,4,66235:0:0:0:0:
448,192,66235,1,2,0:0:0:0:
192,192,66404,1,8,0:0:0:0:
64,192,66743,1,2,0:0:0:0:
192,192,66913,1,2,0:0:0:0:
448,192,67082,1,8,0:0:0:0:
320,192,67252,1,2,0:0:0:0:
64,192,67421,128,2,67760:0:0:0:0:
192,192,67421,1,4,0:0:0:0:
448,192,67930,128,8,68269:0:0:0:0:
192,192,68438,128,2,68777:0:0:0:0:
320,192,68438,1,4,0:0:0:0:
320,192,68947,128,8,69286:0:0:0:0:
64,192,69455,128,8,69794:0:0:0:0:
448,192,69794,128,8,70133:0:0:0:0:
320,192,69794,1,4,0:0:0:0:
192,192,70133,1,4,0:0:0:0:
64,192,70133,1,2,0:0:0:0:
320,192,70472,1,8,0:0:0:0:
448,192,70811,1,2,0:0:0:0:
192,192,70980,1,2,0:0:0:0:
64,192,71150,1,8,0:0:0:0:
320,192,71489,1,2,0:0:0:0:
192,192,71828,1,8,0:0:0:0:
64,192,72167,1,2,0:0:0:0:
320,192,72336,1,2,0:0:0:0:
448,192,72506,1,8,0:0:0:0:
192,192,72845,1,2,0:0:0:0:
320,192,73184,1,8,0:0:0:0:
64,192,73523,1,2,0:0:0:0:
448,192,73692,1,2,0:0:0:0:
192,192,73862,1,8,0:0:0:0:
320,192,74201,1,2,0:0:0:0:
64,192,74540,1,8,0:0:0:0:
192,192,74879,1,8,0:0:0:0:
320,192,75048,1,2,0:0:0:0:
64,192,75218,1,2,0:0:0:0:
192,192,75387,1,2,0:0:0:0:
320,192,75557,1,2,0:0:0:0:
448,192,75557,1,4,0:0:0:0:
320,192,75896,1,8,0:0:0:0:
64,192,76065,1,4,0:0:0:0:
192,192,76065,1,2,0:0:0:0:
192,192,76404,1,2,0:0:0:0:
320,192,76574,1,8,0:0:0:0:
64,192,76743,1,2,0:0:0:0:
448,192,76743,1,4,0:0:0:0:
192,192,77082,1,8,0:0:0:0:
320,192,77252,1,2,0:0:0:0:
64,192,77421,1,2,0:0:0:0:
448,192,77591,128,2,77930:0:0:0:0:
192,192,77930,128,2,78269:0:0:0:0:
64,192,78269,128,4,78777:0:0:0:0:
448,192,78269,1,2,0:0:0:0:
320,192,78777,1,2,0:0:0:0:
192,192,78947,1,8,0:0:0:0:
448,192,79286,1,0,0:0:0:0:
64,192,79624,1,2,0:0:0:0:
320,192,79794,1,8,0:0:0:0:
192,192,79963,1,2,0:0:0:0:
64,192,80133,1,2,0:0:0:0:
448,192,80302,1,8,0:0:0:0:
192,192,80641,1,0,0:0:0:0:
320,192,80811,1,2,0:0:0:0:
64,192,80980,1,4,0:0:0:0:
448,192,80980,128,2,83014:0:0:0:0:
64,192,83014,128,0,83353:0:0:0:0:
320,192,83353,1,0,0:0:0:0:
192,192,83523,1,0,0:0:0:0:
64,192,83692,1,2,0:0:0:0:
448,192,83692,1,4,0:0:0:0:
320,192,84031,1,2,0:0:0:0:
64,192,84370,1,2,0:0:0:0:
320,192,84709,1,2,0:0:0:0:
192,192,84879,1,12,0:0:0:0:
448,192,85048,1,2,0:0:0:0:
64,192,85387,1,2,0:0:0:0:
320,192,85726,1,2,0:0:0:0:
192,192,85896,1,2,0:0:0:0:
64,192,86065,1,2,0:0:0:0:
320,192,86235,1,2,0:0:0:0:
448,192,86235,128,4,89116:0:0:0:0:
