osu file format v14

[General]
AudioFilename: audio.mp3
AudioLeadIn: 0
PreviewTime: 200312
Countdown: 0
SampleSet: Soft
StackLeniency: 0.4
Mode: 0
LetterboxInBreaks: 0
EpilepsyWarning: 1
WidescreenStoryboard: 1

[Editor]
DistanceSpacing: 1.8
BeatDivisor: 4
GridSize: 4
TimelineZoom: 2

[Metadata]
Title:Yasashisa no Riyuu
TitleUnicode:優しさの理由
Artist:ChouCho
ArtistUnicode:ChouCho
Creator:Chihara Minori
Version:Insane
Source:氷菓
Tags:Hyouka Opening 1 Saori Kodama Makoto Miyazaki Anime Japanese Jpop eclipselotus Time Capsule Akitoshi MugiwaraSekai Irohas Shiratoi Vanillas Moena Hikawa Hina Spkz
BeatmapID:1935232
BeatmapSetID:926482

[Difficulty]
HPDrainRate:6
CircleSize:4
OverallDifficulty:8
ApproachRate:9
SliderMultiplier:2
SliderTickRate:1

[Events]
//Background and Video events
0,0,"2.jpg",0,0
//Break Periods
2,178902,185390
//Storyboard Layer 0 (Background)
//Storyboard Layer 1 (Fail)
//Storyboard Layer 2 (Pass)
//Storyboard Layer 3 (Foreground)
Sprite,Foreground,Centre,"sb\staff\Time Capsule.png",320,240 M,0,14634,25481,320,350,320,337 S,0,14634,25481,0.9,0.75 F,0,19719,20058,0,1 F,0,21075,21413,1,0 F,0,22430,22769,0,1 F,0,24125,25481,1,0
//Storyboard Layer 4 (Overlay)
//Storyboard Sound Samples

[TimingPoints]
1075,338.983050847458,4,2,2,60,1,0
1752,-100,4,2,2,50,0,0
2430,-100,4,2,2,40,0,0
3108,-100,4,2,2,30,0,0
3786,-125,4,2,1,45,0,0
7007,-125,4,2,2,50,0,0
7176,-125,4,2,1,50,0,0
10905,-125,4,2,2,50,0,0
11075,-125,4,2,1,50,0,0
11922,-125,4,2,2,60,0,0
12600,-166.666666666667,4,2,2,50,0,0
14634,-100,4,2,1,60,0,0
15820,-125,4,2,1,60,0,0
16329,-100,4,2,1,60,0,0
24295,-100,4,2,1,60,0,0
25481,-125,4,2,1,50,0,0
36329,-111.111111111111,4,2,1,60,0,0
48871,-111.111111111111,4,2,1,60,0,0
49210,-125,4,2,1,60,0,0
49549,-125,4,2,1,60,0,0
59380,-166.666666666667,4,2,2,70,0,0
60058,-166.666666666667,4,2,2,60,0,0
61075,-166.666666666667,4,2,2,40,0,0
62091,-100,4,2,1,70,0,1
67515,-200,4,2,1,70,0,1
67854,-100,4,2,1,70,0,1
72685,-100,4,2,2,70,0,1
72939,-100,4,2,1,70,0,1
80397,-125,4,2,1,70,0,1
83786,-125,4,2,1,60,0,1
84464,-125,4,2,1,50,0,1
85142,-125,4,2,1,40,0,1
85820,-125,4,2,1,30,0,1
86498,-125,4,2,1,50,0,0
96159,-125,4,2,1,40,0,0
97346,-125,4,2,1,55,0,0
108193,-111.111111111111,4,2,1,65,0,0
120397,-125,4,2,1,65,0,0
129041,-117.647058823529,4,2,1,65,0,0
129549,-111.111111111111,4,2,1,65,0,0
131244,-166.666666666667,4,2,2,75,0,0
131922,-166.666666666667,4,2,2,65,0,0
133956,-100,4,2,1,75,0,1
142091,-100,4,2,1,75,0,1
144549,-100,4,2,2,75,0,1
144803,-100,4,2,1,75,0,1
152261,-125,4,2,1,75,0,1
155651,-117.647058823529,4,2,1,65,0,1
157007,-117.647058823529,4,2,1,70,0,1
158193,-111.111111111111,4,2,1,75,0,0
162261,-111.111111111111,4,2,2,55,0,0
163447,-111.111111111111,4,2,1,55,0,0
163617,-111.111111111111,4,2,1,70,0,0
175990,-111.111111111111,4,2,1,60,0,0
176668,-111.111111111111,4,2,1,40,0,0
177346,-111.111111111111,4,2,1,10,0,0
185990,-125,4,2,1,75,0,0
186159,-125,4,2,1,30,0,0
186329,-125,4,2,1,75,0,0
189549,-125,4,2,1,55,0,0
192261,-125,4,2,1,65,0,0
194973,-125,4,2,1,75,0,0
200736,-95.2380952380952,4,2,1,85,0,1
218702,-125,4,2,1,75,0,1
219380,-125,4,2,1,75,0,0
227515,-166.666666666667,4,2,2,65,0,0
232939,-166.666666666667,4,2,2,75,0,0
233617,-166.666666666667,4,2,2,65,0,0
234295,-166.666666666667,4,2,2,55,0,0
234973,-166.666666666667,4,2,1,45,0,0
235651,-111.111111111111,4,2,1,60,0,0
243786,-111.111111111111,4,2,1,50,0,0
245142,-111.111111111111,4,2,1,40,0,0
246498,-111.111111111111,4,2,1,30,0,0
247854,-111.111111111111,4,2,1,15,0,0
249210,-111.111111111111,4,2,1,5,0,0

[Colours]
Combo1 : 255,0,128
Combo2 : 255,255,0
Combo3 : 255,128,0
Combo4 : 255,255,113
Combo5 : 255,128,128
Combo6 : 255,0,0

[HitObjects]
256,192,1075,12,2,3447,0:0:0:0:
328,256,3786,6,0,P|272:244|220:260,1,80,2|0,0:0|0:0,0:0:0:0:
113,310,4125,1,0,0:0:0:0:
250,247,4295,1,0,0:0:0:0:
184,344,4464,2,0,P|132:256|156:180,1,160,2|0,0:0|0:0,0:0:0:0:
233,131,4973,1,2,0:0:0:0:
233,131,5312,5,0,0:0:0:0:
338,176,5481,2,0,L|327:255,1,80
184,344,5820,2,0,L|173:265,1,80,2|0,0:0|0:0,0:0:0:0:
319,292,6159,1,0,0:0:0:0:
248,158,6329,1,0,0:0:0:0:
319,292,6498,6,0,P|239:252|147:280,1,160,2|0,0:0|0:0,0:0:0:0:
36,305,7007,1,2,0:0:0:0:
86,223,7176,2,0,L|129:18,1,160,2|0,0:0|0:0,0:0:0:0:
233,171,7685,1,0,0:0:0:0:
118,66,7854,5,2,0:0:0:0:
237,147,8024,1,0,0:0:0:0:
86,223,8193,1,0,0:0:0:0:
86,223,8532,5,2,0:0:0:0:
241,123,8702,1,0,0:0:0:0:
180,283,8871,1,0,0:0:0:0:
72,134,9041,1,0,0:0:0:0:
180,283,9210,6,0,L|260:273,1,80,2|0,0:0|0:0,0:0:0:0:
269,352,9549,2,0,L|259:272,1,80,0|0,0:0|0:0,0:0:0:0:
363,171,9888,2,0,P|437:194|464:266,1,160,2|0,0:0|0:0,0:0:0:0:
375,260,10397,2,0,P|363:216|388:97,1,160,2|0,0:0|0:0,0:0:0:0:
459,24,10905,1,2,0:0:0:0:
492,131,11075,1,0,0:0:0:0:
383,105,11244,1,2,0:0:0:0:
383,105,11583,5,0,0:0:0:0:
279,149,11752,1,0,0:0:0:0:
203,65,11922,1,2,0:0:0:0:
203,65,12600,6,0,L|175:196,1,119.999996337891
195,281,13108,1,0,0:0:0:0:
332,249,13278,2,0,L|275:233,1,59.9999981689454,8|0,0:0|0:0,0:0:0:0:
288,360,13617,1,0,0:0:0:0:
384,316,13786,2,0,P|416:267|408:209,1,119.999996337891,8|8,0:0|0:0,0:0:0:0:
212,156,14464,1,2,0:0:0:0:
288,104,14634,6,0,P|254:75|162:86,1,100,6|0,0:0|0:0,0:0:0:0:
87,174,14973,1,8,0:0:0:0:
212,156,15142,1,0,0:0:0:0:
123,45,15312,1,2,0:0:0:0:
212,156,15481,1,0,0:0:0:0:
275,16,15651,1,8,0:0:0:0:
129,124,15820,6,0,P|137:204|213:244,1,160,4|0,0:0|0:0,0:0:0:0:
390,264,16329,1,8,0:0:0:0:
230,334,16498,1,0,0:0:0:0:
319,184,16668,1,0,0:0:0:0:
336,357,16837,1,0,0:0:0:0:
220,227,17007,1,8,0:0:0:0:
336,357,17176,1,0,0:0:0:0:
510,209,17346,6,0,P|522:162|511:114,1,100,6|0,0:0|0:0,0:0:0:0:
318,184,17685,2,0,L|430:168,1,100,8|0,0:0|0:0,0:0:0:0:
342,102,18024,1,2,0:0:0:0:
433,246,18193,1,0,0:0:0:0:
493,90,18363,1,8,0:0:0:0:
433,246,18532,6,0,P|374:299|253:243,1,200,4|0,0:0|0:0,0:0:0:0:
342,102,19041,2,0,P|354:149|343:197,1,100,8|4,0:0|0:0,0:0:0:0:
180,261,19380,2,0,B|200:121|200:121|230:177,1,200,0|8,0:0|0:0,0:0:0:0:
79,263,19888,1,0,0:0:0:0:
16,184,20058,6,0,P|5:103|137:61,1,200,6|8,0:0|0:0,0:0:0:0:
298,236,20566,2,0,B|200:219,1,100,0|2,0:0|0:0,0:0:0:0:
79,263,20905,1,0,0:0:0:0:
104,139,21075,1,8,0:0:0:0:
335,319,21244,6,0,P|390:242|348:158,1,200,4|0,0:0|0:0,0:0:0:0:
79,263,21752,2,0,B|186:242,1,100,8|0,0:0|0:0,0:0:0:0:
298,236,22091,1,0,0:0:0:0:
155,154,22261,1,0,0:0:0:0:
242,322,22430,1,8,0:0:0:0:
322,135,22600,1,0,0:0:0:0:
322,135,22685,1,0,0:0:0:0:
322,135,22769,5,6,0:0:0:0:
256,192,22854,12,0,24125,0:0:0:0:
412,140,24295,5,8,0:3:0:0:
412,140,24380,1,0,0:0:0:0:
412,140,24464,2,0,L|428:24,1,100
294,140,24803,1,8,0:3:0:0:
412,140,24973,1,0,0:0:0:0:
281,41,25142,2,0,L|294:140,1,100,8|0,3:0|0:0,0:0:0:0:
195,281,25481,6,0,P|184:241|189:192,1,80,2|0,0:0|0:0,0:0:0:0:
302,291,25820,1,0,0:0:0:0:
239,365,25990,1,0,0:0:0:0:
239,365,26159,2,0,P|151:365|103:301,1,160,8|0,0:0|0:0,0:0:0:0:
16,280,26668,6,0,L|38:122,1,160,2|0,0:0|0:0,0:0:0:0:
200,68,27176,1,2,0:0:0:0:
24,28,27515,1,8,0:0:0:0:
209,159,27854,1,0,0:0:0:0:
129,211,28024,1,0,0:0:0:0:
195,281,28193,6,0,L|353:259,1,160,2|0,0:0|0:0,0:0:0:0:
432,340,28702,1,2,0:0:0:0:
432,340,28871,2,0,P|464:288|424:172,1,160,8|0,0:0|0:0,0:0:0:0:
288,175,29380,1,2,0:0:0:0:
288,175,29549,5,0,0:0:0:0:
381,153,29719,1,8,0:0:0:0:
408,63,29888,1,0,0:0:0:0:
353,258,30227,5,8,0:0:0:0:
451,219,30397,1,0,0:0:0:0:
446,115,30566,1,8,0:0:0:0:
345,88,30736,1,0,0:0:0:0:
288,175,30905,6,0,L|192:156,1,80,2|0,0:0|0:0,0:0:0:0:
68,136,31244,1,0,0:0:0:0:
129,211,31413,1,0,0:0:0:0:
246,65,31583,1,8,0:0:0:0:
225,318,31922,1,0,0:0:0:0:
225,318,32091,6,0,L|209:158,1,160,2|0,0:0|0:0,0:0:0:0:
408,63,32600,2,0,P|341:104|266:84,1,160,2|8,0:0|0:0,0:0:0:0:
139,14,33278,1,0,0:0:0:0:
81,82,33447,1,0,0:0:0:0:
164,136,33617,6,0,L|323:128,1,160,2|0,0:0|0:0,0:0:0:0:
475,198,34125,1,2,0:0:0:0:
332,278,34295,2,0,P|304:205|323:128,1,160,8|0,0:0|0:0,0:0:0:0:
439,37,34803,1,2,0:0:0:0:
475,198,34973,2,0,P|402:226|412:155,1,160,0|2,0:0|0:0,0:0:0:0:
350,300,35481,5,8,0:3:0:0:
350,300,35566,1,0,0:3:0:0:
350,300,35651,1,8,0:3:0:0:
245,258,35820,2,0,L|234:174,1,80,0|8,0:3|0:3,0:3:0:0:
132,208,36159,1,0,0:3:0:0:
218,10,36329,6,0,L|206:99,1,89.9999972534181,2|0,0:0|0:0,0:0:0:0:
59,197,36668,2,0,P|113:178|152:184,1,89.9999972534181
272,313,37007,2,0,P|227:315|186:297,1,89.9999972534181,2|0,0:0|0:0,0:0:0:0:
206,99,37346,1,0,0:0:0:0:
244,212,37515,1,0,0:0:0:0:
324,128,37685,6,0,L|413:116,1,89.9999972534181,2|0,0:0|0:0,0:0:0:0:
415,242,38024,2,0,L|326:230,1,89.9999972534181
492,68,38363,2,0,P|504:111|497:155,1,89.9999972534181,2|0,0:0|0:0,0:0:0:0:
326,230,38702,1,8,0:0:0:0:
413,115,38871,1,0,0:0:0:0:
441,333,39041,6,0,P|357:311|326:231,1,179.999994506836,2|0,0:0|0:0,0:0:0:0:
416,244,39549,1,0,0:0:0:0:
298,352,39719,2,0,B|232:348|232:348|179:325|179:325|120:321,1,179.999994506836,2|0,0:0|0:0,0:0:0:0:
40,144,40227,6,0,L|28:84,2,44.999998626709,0|0|2,0:0|0:0|0:0,0:0:0:0:
60,272,40566,1,0,0:0:0:0:
150,164,40736,5,8,0:0:0:0:
4,216,40905,1,0,0:0:0:0:
123,321,41075,5,2,0:0:0:0:
153,138,41244,1,0,0:0:0:0:
199,384,41413,5,8,0:0:0:0:
229,201,41583,1,0,0:0:0:0:
298,290,41752,6,0,L|417:280,1,89.9999972534181,2|0,0:0|0:0,0:0:0:0:
512,253,42091,1,0,0:0:0:0:
470,345,42261,1,0,0:0:0:0:
387,282,42430,2,0,P|336:204|368:108,1,179.999994506836,2|0,0:0|0:0,0:0:0:0:
440,188,42939,1,0,0:0:0:0:
302,325,43108,6,0,L|212:316,1,89.9999972534181,2|0,0:0|0:0,0:0:0:0:
98,341,43447,1,0,0:0:0:0:
159,214,43617,1,0,0:0:0:0:
159,214,43702,1,0,0:0:0:0:
159,214,43786,2,0,L|249:223,1,89.9999972534181,2|0,0:0|0:0,0:0:0:0:
116,318,44125,1,8,0:0:0:0:
216,138,44295,1,0,0:0:0:0:
116,318,44464,6,0,P|36:282|8:200,1,179.999994506836,2|0,0:0|0:0,0:0:0:0:
144,181,44973,2,0,P|110:237|113:172,1,179.999994506836,0|0,3:0|0:0,0:0:0:0:
278,110,45481,1,8,0:0:0:0:
235,256,45651,1,0,0:0:0:0:
108,144,45820,6,0,P|97:100|107:57,1,89.9999972534181,4|0,0:0|0:0,0:0:0:0:
278,110,46159,2,0,L|189:99,1,89.9999972534181,8|0,0:0|0:0,0:0:0:0:
391,191,46498,1,8,0:3:0:0:
298,290,46668,1,0,3:0:0:0:
391,191,46837,2,0,L|411:91,1,89.9999972534181,2|0,3:0|3:0,0:0:0:0:
512,44,47176,1,0,0:0:0:0:
390,192,47346,6,0,P|306:169|278:88,1,179.999994506836,8|0,0:0|0:0,0:0:0:0:
373,102,47854,2,0,P|328:176|242:180,1,179.999994506836,8|0,0:0|3:0,0:0:0:0:
273,34,48363,1,0,0:0:0:0:
389,13,48532,6,0,L|373:102,1,89.9999972534181,6|0,0:0|0:0,0:0:0:0:
177,99,48871,2,0,L|161:10,1,89.9999972534181,0|0,0:0|0:0,0:0:0:0:
273,34,49210,2,0,L|273:114,1,80,8|0,0:0|0:0,0:0:0:0:
123,267,49549,2,0,P|106:210|119:153,1,120,0|0,0:0|0:0,0:0:0:0:
177,99,49888,5,2,0:0:0:0:
288,175,50058,1,8,0:0:0:0:
202,281,50227,2,0,L|105:265,1,80
296,336,50566,2,0,L|374:322,1,80,8|0,0:0|0:0,0:0:0:0:
390,192,50905,1,0,3:0:0:0:
287,304,51075,1,0,0:0:0:0:
457,269,51244,6,0,P|497:201|465:121,1,160,2|0,0:0|0:0,0:0:0:0:
343,110,51752,1,0,0:0:0:0:
311,199,51922,2,0,P|353:200|389:191,1,80,8|0,0:0|0:0,0:0:0:0:
376,21,52261,2,0,P|333:18|296:27,1,80,0|0,0:0|0:0,0:0:0:0:
144,181,52600,5,2,0:0:0:0:
106,57,52769,1,8,0:0:0:0:
273,114,52939,5,0,0:0:0:0:
237,275,53108,1,0,0:0:0:0:
56,222,53278,6,0,L|40:144,1,80,12|0,0:0|0:0,0:0:0:0:
251,196,53617,2,0,L|236:275,1,80,8|0,0:0|0:0,0:0:0:0:
459,126,53956,6,0,L|475:286,2,160,6|0|8,0:0|0:0|0:0,0:0:0:0:
448,28,54803,1,0,0:0:0:0:
325,121,54973,1,0,0:0:0:0:
391,191,55142,1,0,0:0:0:0:
164,52,55312,6,0,P|120:52|56:76,1,80,2|8,0:0|0:0,0:0:0:0:
244,80,55651,2,0,P|244:36|220:-28,1,80
132,128,55990,2,0,P|132:172|156:236,1,80,8|0,0:0|0:0,0:0:0:0:
318,281,56329,1,8,0:3:0:0:
141,206,56498,1,0,0:0:0:0:
157,214,56583,1,0,0:0:0:0:
172,220,56668,6,0,P|221:227|285:205,1,80,6|0,0:0|0:0,0:0:0:0:
341,155,57007,1,0,0:0:0:0:
262,335,57176,6,0,P|295:313|319:281,1,80,6|0,0:0|0:0,0:0:0:0:
325,121,57515,1,0,0:0:0:0:
417,355,57685,6,0,P|424:315|420:277,1,80,6|0,0:0|0:0,0:0:0:0:
301,153,58024,1,0,0:0:0:0:
262,335,58193,5,6,0:0:0:0:
436,180,58363,1,0,0:0:0:0:
419,276,58532,1,0,0:0:0:0:
341,155,58702,5,8,0:3:0:0:
229,248,58871,1,0,0:0:0:0:
324,266,59041,5,2,0:0:0:0:
241,125,59210,1,0,0:0:0:0:
262,335,59380,6,0,P|156:302|160:190,1,239.999992675781,6|0,0:0|0:0,0:0:0:0:
325,90,60566,1,0,0:0:0:0:
436,180,60736,2,0,B|400:182|376:168|376:168|349:184|306:177,1,119.999996337891,2|0,0:0|0:0,0:0:0:0:
229,248,61244,1,6,0:0:0:0:
436,180,62091,6,0,P|452:132|436:72,1,100,6|0,0:0|0:0,0:0:0:0:
280,25,62430,1,8,0:0:0:0:
156,132,62600,2,0,L|56:118,1,100,2|0,0:0|0:0,0:0:0:0:
129,261,62939,2,0,L|228:247,1,100,2|8,0:0|0:0,0:0:0:0:
193,46,63278,1,0,3:0:0:0:
48,220,63447,6,0,P|40:276|76:332,2,100,2|0|8,0:0|0:0|0:0,0:0:0:0:
324,120,63956,2,0,P|333:169|318:216,1,100,2|0,0:0|0:0,0:0:0:0:
232,340,64295,1,2,0:0:0:0:
172,172,64464,1,8,0:0:0:0:
318,216,64634,1,0,0:0:0:0:
129,261,64803,6,0,L|29:247,1,100,2|0,0:0|0:0,0:0:0:0:
193,91,65142,1,8,0:0:0:0:
229,248,65312,1,2,0:0:0:0:
106,114,65481,1,0,0:0:0:0:
239,163,65651,1,2,0:0:0:0:
129,261,65820,1,8,0:0:0:0:
204,63,65990,1,0,3:0:0:0:
229,248,66159,6,0,P|200:336|84:348,1,200,2|8,0:0|0:0,0:0:0:0:
0,241,66668,1,2,0:0:0:0:
152,148,66837,1,0,0:0:0:0:
129,261,67007,1,8,0:0:0:0:
20,120,67176,1,0,3:0:0:0:
239,163,67346,5,8,0:3:0:0:
239,163,67430,1,0,0:0:0:0:
239,163,67515,2,0,P|262:154|287:150,1,50,2|0,0:0|0:0,0:0:0:0:
435,324,67854,6,0,L|459:120,1,200,12|2,0:0|0:0,0:0:0:0:
272,33,68363,1,0,3:0:0:0:
318,216,68532,1,8,0:0:0:0:
164,52,68702,6,0,L|56:36,1,100,6|0,0:0|0:0,0:0:0:0:
4,216,69041,2,0,L|103:208,1,100,2|8,0:0|0:0,0:0:0:0:
318,216,69380,1,0,0:0:0:0:
248,80,69549,1,2,0:0:0:0:
170,275,69719,1,0,3:0:0:0:
299,190,69888,1,8,0:0:0:0:
140,68,70058,1,0,0:0:0:0:
103,207,70227,6,0,P|127:249|169:275,1,100,6|0,0:0|0:0,0:0:0:0:
265,112,70566,1,0,0:3:0:0:
71,293,70736,2,0,L|183:273,1,100,6|0,0:0|0:0,0:0:0:0:
262,342,71075,1,0,0:3:0:0:
204,176,71244,1,6,0:0:0:0:
394,369,71413,6,0,P|426:313|362:169,1,200,0|8,0:0|0:0,0:0:0:0:
169,275,71922,1,0,0:0:0:0:
296,336,72091,1,8,0:3:0:0:
296,336,72176,1,0,0:0:0:0:
296,336,72261,1,10,0:0:0:0:
299,99,72430,1,0,0:0:0:0:
103,207,72600,5,12,0:0:0:0:
82,237,72684,1,0,0:0:0:0:
74,274,72769,1,0,0:0:0:0:
81,310,72854,1,0,0:0:0:0:
102,341,72939,6,0,L|217:316,1,100,6|0,0:0|0:0,0:0:0:0:
390,189,73278,1,8,0:0:0:0:
204,176,73447,1,2,0:0:0:0:
366,281,73617,2,0,P|389:238|389:188,1,100,0|2,0:0|0:0,0:0:0:0:
272,72,73956,1,8,0:0:0:0:
289,213,74125,1,0,3:0:0:0:
370,86,74295,6,0,L|262:70,1,100,2|0,0:0|0:0,0:0:0:0:
92,216,74634,1,8,0:0:0:0:
65,37,74803,1,2,0:0:0:0:
204,176,74973,1,0,0:0:0:0:
12,134,75142,1,2,0:0:0:0:
194,55,75312,1,8,0:0:0:0:
265,262,75481,5,0,0:0:0:0:
265,262,75566,1,0,0:0:0:0:
265,262,75651,2,0,P|219:283|170:283,1,100,2|0,0:0|0:0,0:0:0:0:
5,327,75990,2,0,P|55:328|100:349,1,100,8|2,0:0|0:0,0:0:0:0:
265,262,76329,1,0,0:0:0:0:
240,384,76498,1,2,0:0:0:0:
265,262,76668,2,0,L|284:163,1,100,8|0,0:0|3:0,0:0:0:0:
99,207,77007,6,0,P|168:273|264:262,1,200,2|8,0:0|0:0,0:0:0:0:
373,102,77516,1,2,0:3:0:0:
204,168,77685,1,8,0:3:0:0:
367,222,77855,1,2,0:3:0:0:
272,72,78024,1,8,0:3:0:0:
152,216,78193,1,0,0:3:0:0:
127,214,78278,1,0,0:3:0:0:
103,207,78363,6,0,P|56:180|24:125,1,100,6|0,0:0|0:0,0:0:0:0:
160,72,78702,1,8,0:0:0:0:
36,239,78871,2,0,P|21:186|38:126,1,100,6|0,0:0|0:0,0:0:0:0:
185,215,79210,1,0,0:0:0:0:
197,318,79380,1,8,0:0:0:0:
283,163,79549,2,0,P|369:118|457:157,1,200,6|8,0:0|3:3,0:0:0:0:
481,263,80058,1,0,3:0:0:0:
371,230,80227,1,0,3:0:0:0:
457,157,80397,5,8,0:3:0:0:
283,163,80736,5,8,0:0:0:0:
184,16,81075,6,0,B|183:43|172:70|172:70|184:110|184:110|172:129|172:170,1,160,6|0,0:0|0:0,0:0:0:0:
236,272,81583,1,0,0:0:0:0:
368,260,81752,2,0,P|400:229|414:166,1,80,8|0,0:0|0:0,0:0:0:0:
468,104,82091,2,0,P|426:93|364:96,1,80,0|2,0:0|0:0,0:0:0:0:
304,168,82430,1,0,0:0:0:0:
204,112,82600,2,0,P|162:123|100:120,2,80
304,64,83108,5,8,0:0:0:0:
304,168,83278,1,0,0:0:0:0:
280,260,83447,1,0,0:0:0:0:
204,308,83617,1,0,0:0:0:0:
68,284,83786,5,4,0:0:0:0:
256,192,83871,12,4,86498,0:0:0:0:
45,61,86837,6,0,P|13:161|49:221,1,160,8|2,0:0|0:0,0:0:0:0:
155,173,87346,1,0,0:0:0:0:
80,300,87515,1,8,0:0:0:0:
186,269,87685,6,0,L|351:282,1,160,4|0,0:0|0:0,0:0:0:0:
485,249,88193,2,0,L|471:328,1,80,8|0,0:0|0:0,0:0:0:0:
357,360,88532,2,0,L|344:271,1,80,2|0,0:0|0:0,0:0:0:0:
335,166,88871,1,8,0:0:0:0:
485,249,89041,1,0,0:0:0:0:
485,249,89125,1,0,0:0:0:0:
485,249,89210,6,0,L|505:81,1,160,4|8,0:0|0:0,0:0:0:0:
503,90,89888,1,2,0:0:0:0:
391,152,90058,2,0,L|302:139,1,80,0|8,0:0|0:0,0:0:0:0:
148,230,90397,6,0,B|124:124|124:124|167:156,1,160,4|0,0:0|0:0,0:0:0:0:
210,312,90905,1,8,0:0:0:0:
248,218,91075,1,4,0:0:0:0:
210,312,91244,2,0,P|134:331|66:294,1,160,2|8,0:0|0:0,0:0:0:0:
296,336,91752,1,0,0:0:0:0:
300,312,91837,1,0,0:0:0:0:
311,286,91922,6,0,P|380:248|456:268,1,160,4|8,0:0|0:0,0:0:0:0:
392,352,92430,1,0,0:0:0:0:
271,195,92600,1,2,0:0:0:0:
370,202,92769,1,0,0:0:0:0:
311,286,92939,1,8,0:0:0:0:
196,269,93108,6,0,L|177:110,1,160,4|0,0:0|0:0,0:0:0:0:
270,52,93617,1,8,0:0:0:0:
177,110,93786,2,0,P|137:108|98:98,1,80,0|2,0:0|0:0,0:0:0:0:
14,47,94125,2,0,L|4:126,1,80,0|8,0:0|0:0,0:0:0:0:
78,270,94464,1,0,0:0:0:0:
78,270,94549,1,0,0:0:0:0:
78,270,94634,5,4,0:0:0:0:
256,192,94719,12,0,95990,0:0:0:0:
256,192,96160,5,8,0:3:0:0:
214,108,96329,1,8,0:0:0:0:
380,96,96498,1,2,0:0:0:0:
377,130,96583,1,0,0:3:0:0:
373,165,96668,1,8,0:3:0:0:
272,33,96837,1,0,0:0:0:0:
432,16,97007,1,8,0:0:0:0:
373,165,97176,1,0,0:0:0:0:
253,108,97346,6,0,P|254:68|272:33,1,80,0|0,3:0|0:0,0:0:0:0:
380,96,97685,1,0,3:0:0:0:
244,216,97854,1,0,0:0:0:0:
244,216,98024,2,0,L|85:197,1,160,8|0,0:0|0:0,0:0:0:0:
102,340,98532,1,0,3:0:0:0:
98,308,98617,1,0,3:0:0:0:
94,276,98702,6,0,L|84:194,2,80,0|0|0,3:0|0:0|0:0,0:0:0:0:
0,368,99210,1,0,0:0:0:0:
94,276,99380,2,0,P|144:256|196:252,1,80,8|0,0:0|0:0,0:0:0:0:
275,341,99719,2,0,L|265:262,1,80,0|0,0:0|0:0,0:0:0:0:
409,280,100058,6,0,P|333:299|265:262,1,160,0|0,3:0|0:0,0:0:0:0:
427,121,100566,1,0,0:0:0:0:
427,121,100736,2,0,L|408:280,1,160,8|0,0:0|0:0,0:0:0:0:
274,298,101244,1,0,0:0:0:0:
242,163,101413,5,0,3:0:0:0:
336,192,101583,1,8,0:0:0:0:
264,261,101752,1,0,0:0:0:0:
294,96,102091,5,8,0:0:0:0:
336,192,102261,1,0,0:0:0:0:
264,261,102430,1,0,3:0:0:0:
168,210,102600,1,0,3:0:0:0:
168,210,102685,1,0,3:0:0:0:
168,210,102769,6,0,L|178:131,1,80,0|0,3:0|0:0,0:0:0:0:
65,37,103108,1,0,0:0:0:0:
29,142,103278,1,0,0:0:0:0:
144,60,103447,2,0,B|184:44|220:64|220:64|256:84|298:66,1,160,8|0,0:0|0:0,0:0:0:0:
404,8,103956,1,0,3:0:0:0:
414,87,104125,6,0,L|402:0,1,80,0|0,0:0|0:0,0:0:0:0:
506,126,104464,1,0,3:0:0:0:
424,184,104633,1,0,1:0:0:0:
414,87,104803,1,8,0:0:0:0:
506,126,104972,1,0,0:0:0:0:
440,273,105142,1,0,0:0:0:0:
328,148,105312,1,8,0:0:0:0:
342,286,105481,6,0,P|314:326|182:246,1,240,0|0,3:0|0:0,0:0:0:0:
264,261,106159,2,0,P|242:310|98:254,1,240,8|0,0:0|0:0,0:0:0:0:
212,103,106837,1,0,3:0:0:0:
180,254,107007,5,8,0:3:0:0:
180,254,107091,1,0,0:3:0:0:
180,254,107176,1,8,0:3:0:0:
24,195,107346,1,0,0:3:0:0:
61,308,107515,1,8,0:3:0:0:
125,123,107685,1,0,0:3:0:0:
180,254,107854,1,8,0:3:0:0:
24,195,108024,1,0,0:3:0:0:
308,302,108193,6,0,P|319:258|312:214,1,89.9999972534181,2|0,3:0|0:0,0:0:0:0:
212,103,108532,2,0,L|125:122,1,89.9999972534181
92,273,108871,2,0,L|200:249,1,89.9999972534181,2|0,0:0|0:0,0:0:0:0:
20,164,109210,1,0,0:0:0:0:
79,362,109380,1,0,0:0:0:0:
79,362,109464,1,0,0:0:0:0:
79,362,109549,6,0,L|91:273,1,89.9999972534181,2|0,0:0|0:0,0:0:0:0:
178,292,109888,2,0,L|91:273,1,89.9999972534181
29,142,110227,2,0,P|71:129|115:137,1,89.9999972534181,2|0,0:0|0:0,0:0:0:0:
244,216,110566,1,8,0:0:0:0:
192,56,110736,1,0,0:0:0:0:
308,145,110905,6,0,P|336:228|287:300,1,179.999994506836,2|0,0:0|0:0,0:0:0:0:
121,322,111413,1,0,0:0:0:0:
243,216,111583,2,0,P|320:230|287:301,1,179.999994506836,2|0,0:0|0:0,0:0:0:0:
121,322,112091,1,0,0:0:0:0:
156,204,112261,5,2,0:0:0:0:
143,347,112430,1,0,0:0:0:0:
133,221,112600,5,8,0:0:0:0:
287,301,112769,1,0,0:0:0:0:
287,301,112854,1,0,0:0:0:0:
287,301,112939,2,0,L|391:285,1,89.9999972534181,2|0,0:0|0:0,0:0:0:0:
502,175,113278,1,8,0:0:0:0:
467,343,113447,1,0,0:0:0:0:
408,192,113617,6,0,P|416:132|448:96,1,89.9999972534181,6|0,0:0|0:0,0:0:0:0:
465,300,113956,2,0,L|376:287,1,89.9999972534181
275,341,114295,2,0,L|262:252,1,89.9999972534181,2|0,0:0|0:0,0:0:0:0:
408,192,114634,2,0,P|348:184|312:152,1,89.9999972534181
212,103,114973,6,0,L|199:192,1,89.9999972534181,2|0,0:0|0:0,0:0:0:0:
121,322,115312,1,0,0:0:0:0:
72,164,115481,1,0,0:0:0:0:
72,164,115566,1,0,0:0:0:0:
72,164,115651,1,2,0:0:0:0:
12,271,115820,1,0,0:0:0:0:
198,192,115989,1,8,0:0:0:0:
24,248,116159,1,0,0:0:0:0:
171,370,116329,6,0,L|199:186,1,179.999994506836,6|0,0:0|0:0,0:0:0:0:
216,68,116837,1,0,0:0:0:0:
260,250,117007,2,0,P|175:275|112:208,1,179.999994506836,2|0,0:0|0:0,0:0:0:0:
305,142,117515,1,0,0:0:0:0:
199,192,117685,6,0,L|212:103,1,89.9999972534181,6|0,0:0|0:0,0:0:0:0:
380,286,118024,1,8,0:3:0:0:
138,300,118193,1,0,0:3:0:0:
116,262,118277,1,0,0:3:0:0:
114,217,118362,1,2,0:3:0:0:
314,104,118532,1,0,0:3:0:0:
308,302,118702,1,8,0:0:0:0:
216,232,118871,1,0,0:0:0:0:
324,188,119041,1,2,0:0:0:0:
400,372,119210,6,0,L|216:344,1,179.999994506836,8|0,0:0|3:0,0:0:0:0:
124,368,119719,1,8,0:0:0:0:
260,250,120058,1,0,3:0:0:0:
222,344,120227,1,0,0:0:0:0:
34,319,120397,6,0,L|43:229,1,80,6|0,0:0|0:0,0:0:0:0:
202,180,120736,2,0,P|157:182|115:168,1,80
25,48,121075,2,0,L|32:127,1,80,8|0,0:0|0:0,0:0:0:0:
41,239,121413,1,0,0:0:0:0:
169,99,121583,1,0,0:0:0:0:
260,250,121752,6,0,P|223:265|184:270,1,80,2|8,0:0|0:0,0:0:0:0:
47,152,122091,2,0,P|86:157|123:171,2,80,0|0|8,0:0|0:0|0:0,0:0:0:0:
0,287,122600,1,0,0:0:0:0:
135,375,122769,2,0,L|128:296,1,80,8|0,0:0|0:0,0:0:0:0:
127,295,123108,6,0,P|205:305|278:274,1,160,2|0,0:0|0:0,0:0:0:0:
364,344,123617,1,0,0:0:0:0:
279,274,123786,2,0,L|287:186,1,80,8|0,0:0|0:0,0:0:0:0:
455,256,124125,2,0,L|447:335,1,80
279,274,124465,5,2,0:0:0:0:
421,180,124634,1,8,0:0:0:0:
293,371,124803,5,0,0:0:0:0:
197,207,124973,1,0,0:0:0:0:
212,312,125142,6,0,P|239:285|280:273,1,80,12|0,0:0|0:0,0:0:0:0:
435,354,125481,2,0,P|398:344|367:313,1,80,0|0,0:0|0:0,0:0:0:0:
313,179,125821,6,0,L|329:19,2,160,6|0|8,0:0|0:0|0:0,0:0:0:0:
295,343,126668,1,0,0:0:0:0:
247,251,126838,1,0,0:0:0:0:
362,265,127007,1,0,0:0:0:0:
161,302,127176,6,0,P|153:264|153:224,1,80,2|8,0:0|0:0,0:0:0:0:
326,242,127515,2,0,P|287:251|248:252,1,80
275,64,127854,2,0,P|284:103|285:142,1,80,8|0,0:0|0:0,0:0:0:0:
279,151,128108,1,0,0:0:0:0:
271,159,128193,2,0,P|218:131|166:124,1,80,8|0,0:0|0:0,0:0:0:0:
51,342,128533,6,0,P|79:302|87:234,1,80,6|0,0:0|0:0,0:0:0:0:
67,162,128872,1,0,0:0:0:0:
194,312,129041,6,0,P|189:273|167:230,1,85.0000016212464,6|0,0:0|0:0,0:0:0:0:
32,171,129380,1,0,0:0:0:0:
280,182,129550,6,0,P|248:158|196:145,1,89.9999972534181,6|8,0:0|0:3,0:0:0:0:
158,125,129775,2,0,L|160:80,2,29.9999990844727,0|0|0,0:0|0:0|0:3,0:0:0:0:
51,342,130058,5,6,0:0:0:0:
168,232,130227,1,0,0:0:0:0:
50,131,130397,1,0,0:0:0:0:
87,272,130567,5,6,0:0:0:0:
158,125,130736,1,0,0:0:0:0:
161,325,130905,5,2,0:0:0:0:
14,210,131075,1,0,0:0:0:0:
132,31,131245,6,0,P|234:66|222:198,1,239.999992675781,2|0,0:0|0:0,0:0:0:0:
98,133,132091,2,0,L|157:125,1,59.9999981689454,0|8,0:0|0:0,0:0:0:0:
235,275,132430,1,8,0:0:0:0:
294,191,132600,6,0,L|234:183,1,59.9999981689454,6|0,0:0|0:0,0:0:0:0:
433,86,132938,1,8,0:0:0:0:
298,65,133108,2,0,L|238:57,1,59.9999981689454,6|0,0:0|0:0,0:0:0:0:
359,207,133447,5,8,0:0:0:0:
370,179,133532,1,8,0:0:0:0:
371,149,133617,1,8,0:0:0:0:
364,121,133701,1,8,0:0:0:0:
348,95,133786,1,8,0:0:0:0:
325,76,133871,1,8,0:0:0:0:
298,65,133956,6,0,P|276:112|272:168,1,100,6|0,0:0|0:0,0:0:0:0:
356,304,134295,1,8,0:0:0:0:
476,208,134465,2,0,L|492:92,1,100,2|0,0:0|0:0,0:0:0:0:
271,159,134804,2,0,L|287:275,1,100,2|8,0:0|0:0,0:0:0:0:
436,312,135143,1,0,3:0:0:0:
368,166,135312,6,0,P|320:154|271:159,1,100,2|0,0:0|0:0,0:0:0:0:
104,344,135651,2,0,P|153:349|201:337,1,100,8|2,0:0|0:0,0:0:0:0:
266,128,135990,1,0,0:0:0:0:
148,256,136160,1,2,0:0:0:0:
311,271,136329,1,8,0:0:0:0:
165,155,136499,1,0,0:0:0:0:
272,358,136668,6,0,L|388:342,1,100,2|0,0:0|0:0,0:0:0:0:
308,178,137007,1,8,0:0:0:0:
200,280,137177,1,2,0:0:0:0:
165,155,137346,2,0,P|171:105|197:63,1,100,0|2,0:0|0:0,0:0:0:0:
408,192,137685,2,0,L|292:176,1,100,8|0,0:0|3:0,0:0:0:0:
432,109,138024,6,0,P|488:160|408:276,1,200,2|8,0:0|0:0,0:0:0:0:
308,302,138532,1,2,0:0:0:0:
262,109,138702,1,2,0:0:0:0:
408,192,138871,1,8,0:0:0:0:
408,192,138956,1,0,0:0:0:0:
408,192,139041,5,2,0:0:0:0:
199,280,139210,1,8,0:0:0:0:
199,280,139295,1,0,0:0:0:0:
199,280,139380,5,6,0:0:0:0:
350,73,139549,1,0,0:0:0:0:
371,344,139718,1,8,0:0:0:0:
198,192,139888,2,0,L|186:92,1,100,0|2,0:0|0:0,0:0:0:0:
432,109,140227,2,0,L|420:212,1,100,2|8,0:0|0:0,0:0:0:0:
199,280,140566,6,0,P|116:224|148:120,1,200,6|0,0:0|0:0,0:0:0:0:
239,50,141075,1,8,0:0:0:0:
297,203,141244,2,0,L|197:191,1,100,0|2,0:0|0:0,0:0:0:0:
116,101,141583,1,2,0:0:0:0:
199,280,141752,1,8,0:0:0:0:
314,119,141922,1,0,0:0:0:0:
450,264,142092,6,0,P|466:204|442:156,1,100,6|0,0:0|0:0,0:0:0:0:
294,96,142430,1,0,0:3:0:0:
501,106,142600,2,0,P|441:90|393:114,1,100,8|0,0:0|0:0,0:0:0:0:
351,299,142939,1,0,0:3:0:0:
453,170,143108,1,6,0:0:0:0:
264,230,143278,1,0,0:0:0:0:
264,230,143363,1,0,0:0:0:0:
264,230,143447,6,0,L|252:330,1,100,0|12,0:0|0:0,0:0:0:0:
351,299,143787,1,0,0:0:0:0:
197,191,143956,1,8,0:3:0:0:
197,191,144041,1,0,0:0:0:0:
197,191,144126,1,12,0:0:0:0:
61,308,144295,1,0,0:0:0:0:
146,116,144465,1,8,0:0:0:0:
168,104,144549,1,8,0:0:0:0:
192,100,144634,1,8,0:0:0:0:
217,102,144719,1,8,0:0:0:0:
240,110,144803,6,0,P|286:126|333:113,1,100,6|0,0:0|0:0,0:0:0:0:
395,0,145143,1,8,0:0:0:0:
288,35,145312,1,2,0:0:0:0:
482,148,145481,2,0,L|494:49,1,100,0|2,0:0|0:0,0:0:0:0:
328,222,145820,1,8,0:0:0:0:
360,40,145990,1,0,3:0:0:0:
482,148,146159,6,0,P|435:164|388:151,1,100,2|0,0:0|0:0,0:0:0:0:
272,48,146498,1,8,0:0:0:0:
328,222,146668,1,2,0:0:0:0:
432,84,146837,1,0,0:0:0:0:
240,138,147007,2,0,P|195:116|145:116,1,100,2|8,0:0|0:0,0:0:0:0:
74,254,147346,1,0,0:0:0:0:
74,254,147430,1,0,0:0:0:0:
74,254,147515,6,0,P|118:232|168:232,1,100,2|0,0:0|0:0,0:0:0:0:
277,338,147854,2,0,L|288:238,1,100,8|2,0:0|0:0,0:0:0:0:
146,116,148193,1,0,0:0:0:0:
184,262,148363,1,2,0:0:0:0:
312,140,148532,1,8,0:0:0:0:
184,262,148702,6,0,P|249:338|345:326,1,200
408,192,149210,1,8,0:0:0:0:
288,238,149380,1,2,0:0:0:0:
445,350,149549,1,8,0:3:0:0:
482,148,149719,1,2,0:3:0:0:
482,148,149803,1,0,0:3:0:0:
482,148,149888,1,8,0:3:0:0:
288,238,150057,1,2,0:3:0:0:
263,236,150142,1,0,0:3:0:0:
241,224,150227,6,0,L|253:123,1,100,6|0,0:0|0:0,0:0:0:0:
465,255,150566,1,8,0:0:0:0:
372,319,150736,2,0,L|360:219,1,100,6|0,0:0|0:0,0:0:0:0:
330,103,151075,1,0,0:0:0:0:
241,224,151244,1,8,0:0:0:0:
434,179,151414,2,0,P|451:59|374:-17,1,200,6|8,0:0|0:3,0:0:0:0:
220,26,151923,1,0,3:3:0:0:
330,103,152092,1,0,3:0:0:0:
407,0,152261,5,8,0:3:0:0:
229,134,152600,5,8,0:0:0:0:
342,286,152939,6,0,P|416:257|500:301,1,160,6|0,0:0|0:0,0:0:0:0:
416,357,153447,1,0,0:0:0:0:
342,286,153617,2,0,L|346:182,1,80,8|0,0:0|0:0,0:0:0:0:
501,106,153956,1,0,0:0:0:0:
501,106,154125,6,0,L|498:202,1,80,10|0,0:0|0:0,0:0:0:0:
345,206,154464,1,8,0:0:0:0:
450,273,154634,1,2,0:0:0:0:
392,124,154803,2,0,P|354:111|314:112,1,80,0|8,0:0|0:0,0:0:0:0:
236,178,155142,1,0,0:0:0:0:
329,18,155312,1,8,0:0:0:0:
392,124,155481,1,0,0:0:0:0:
229,36,155651,6,0,L|53:20,1,170.000003242493,6|0,0:0|0:0,0:0:0:0:
74,254,156159,1,0,0:0:0:0:
158,110,156329,1,8,0:0:0:0:
37,178,156498,2,0,P|50:218|73:254,1,85.0000016212464,0|0,0:0|0:0,0:0:0:0:
180,302,156837,5,8,3:0:0:0:
76,368,157007,1,0,0:0:0:0:
260,328,157176,2,0,L|164:296,1,85.0000016212464,0|8,3:0|0:0,0:0:0:0:
310,220,157515,1,0,0:0:0:0:
310,220,157600,1,0,0:0:0:0:
310,220,157685,2,0,P|378:196|426:204,1,85.0000016212464,8|0,0:0|3:0,0:0:0:0:
486,286,158024,1,8,0:0:0:0:
389,196,158193,6,0,P|361:152|426:41,1,179.999994506836,6|0,0:0|0:0,0:0:0:0:
442,128,158702,1,8,0:0:0:0:
310,220,158871,2,0,P|238:221|186:129,1,179.999994506836,0|0,3:0|0:0,0:0:0:0:
272,142,159380,1,8,0:0:0:0:
454,252,159549,6,0,L|442:348,1,89.9999972534181,6|0,0:0|0:0,0:0:0:0:
210,369,159888,2,0,L|198:279,1,89.9999972534181,10|0,0:3|0:3,0:3:0:0:
272,142,160227,1,2,0:3:0:0:
272,142,160312,1,0,0:3:0:0:
272,142,160397,1,8,0:3:0:0:
356,297,160566,1,2,0:3:0:0:
198,279,160736,1,8,0:3:0:0:
365,148,160905,6,0,P|401:200|341:304,1,179.999994506836,6|0,0:0|0:0,0:0:0:0:
183,142,161413,1,8,0:0:0:0:
133,240,161583,2,0,L|313:221,1,179.999994506836,0|2,3:0|0:0,0:0:0:0:
442,341,162091,1,8,0:0:0:0:
474,222,162261,5,6,0:0:0:0:
477,192,162600,1,8,0:0:0:0:
481,162,162939,1,8,0:0:0:0:
486,133,163278,2,0,L|500:20,1,89.9999972534181,2|8,0:0|0:0,0:0:0:0:
497,43,163617,6,0,B|431:61|431:61|307:37,1,179.999994506836,6|0,0:0|3:0,0:0:0:0:
160,16,164125,1,8,0:0:0:0:
272,142,164295,1,0,0:0:0:0:
272,142,164380,1,0,0:0:0:0:
272,142,164464,1,2,0:0:0:0:
148,105,164634,2,0,L|162:-8,1,89.9999972534181,0|8,0:0|0:0,0:0:0:0:
198,192,164973,6,0,P|96:192|48:120,1,179.999994506836,6|0,0:0|3:0,0:0:0:0:
243,40,165481,1,8,0:0:0:0:
321,130,165651,2,0,L|309:219,1,89.9999972534181,2|2,0:0|0:0,0:0:0:0:
260,308,165990,1,0,0:0:0:0:
389,196,166159,1,8,0:0:0:0:
355,346,166329,1,0,0:0:0:0:
162,274,166498,6,0,P|222:211|309:219,1,179.999994506836,6|8,0:0|0:0,0:0:0:0:
379,368,167007,1,2,0:0:0:0:
379,368,167091,1,0,0:0:0:0:
379,368,167176,1,0,0:0:0:0:
260,308,167346,2,0,L|248:218,1,89.9999972534181,2|8,0:0|0:0,0:0:0:0:
137,96,167685,6,0,L|161:274,1,179.999994506836,6|0,0:0|3:0,0:0:0:0:
28,360,168193,1,8,0:0:0:0:
161,274,168363,1,2,0:0:0:0:
128,376,168532,1,0,3:0:0:0:
59,211,168702,1,2,0:0:0:0:
59,211,168786,1,0,0:0:0:0:
59,211,168871,1,8,0:0:0:0:
276,308,169041,1,8,0:0:0:0:
276,308,169125,1,0,0:0:0:0:
276,308,169210,6,0,P|320:309|364:296,1,89.9999972534181,6|0,0:0|3:0,0:0:0:0:
340,132,169549,2,0,P|295:130|252:144,1,89.9999972534181,8|0,0:0|3:0,0:0:0:0:
161,274,169888,1,0,0:0:0:0:
306,220,170058,1,2,0:0:0:0:
156,176,170227,1,8,0:0:0:0:
276,308,170397,1,2,0:0:0:0:
396,207,170566,6,0,L|408:117,1,89.9999972534181
243,40,170905,1,8,0:0:0:0:
306,220,171075,1,2,0:0:0:0:
306,220,171159,1,8,0:0:0:0:
306,220,171244,1,0,0:0:0:0:
407,117,171413,1,2,0:0:0:0:
221,206,171583,1,8,0:0:0:0:
396,207,171752,1,0,0:0:0:0:
252,288,171922,6,0,P|223:235|228:176,1,89.9999972534181,6|0,0:0|3:0,0:0:0:0:
334,42,172261,1,8,0:0:0:0:
306,220,172430,1,2,0:0:0:0:
130,120,172600,1,0,0:0:0:0:
290,116,172769,1,0,3:0:0:0:
142,210,172939,1,8,0:0:0:0:
225,28,173108,1,2,0:0:0:0:
225,28,173193,1,8,0:0:0:0:
225,28,173278,5,0,3:0:0:0:
306,220,173447,1,0,0:0:0:0:
142,210,173617,2,0,L|130:120,1,89.9999972534181,8|2,0:0|0:0,0:0:0:0:
221,206,173956,1,0,0:0:0:0:
82,286,174125,1,2,0:0:0:0:
209,116,174295,1,8,0:0:0:0:
338,307,174464,1,0,0:0:0:0:
338,307,174548,1,0,0:0:0:0:
338,307,174633,6,0,P|293:304|251:287,1,89.9999972534181,6|8,0:0|0:0,0:0:0:0:
365,148,174973,1,8,0:3:0:0:
452,272,175142,2,0,P|453:316|440:360,2,89.9999972534181,6|0|0,0:0|0:0|0:0,0:0:0:0:
224,114,175651,5,10,0:3:0:0:
306,220,175820,1,0,0:3:0:0:
425,59,175990,1,4,0:0:0:0:
256,192,176075,12,0,178702,0:0:0:0:
452,302,185990,5,2,0:0:0:0:
302,251,186159,2,0,L|400:240,1,80,8|0,0:0|0:0,0:0:0:0:
509,153,186498,1,8,0:3:0:0:
440,328,186668,5,0,0:0:0:0:
329,99,186837,1,8,0:0:0:0:
303,118,188871,5,8,0:0:0:0:
303,118,189210,5,8,0:0:0:0:
303,118,189549,6,0,P|292:168|295:214,1,80,12|0,0:0|0:0,0:0:0:0:
368,348,189888,2,0,P|377:309|379:270,1,80,2|0,0:0|3:0,0:0:0:0:
219,266,190227,2,0,P|269:276|315:274,1,80,2|0,0:0|3:0,0:0:0:0:
449,200,190566,2,0,P|410:190|370:189,1,80,2|0,0:0|3:0,0:0:0:0:
297,276,190905,5,2,0:0:0:0:
473,218,191075,1,0,3:0:0:0:
292,196,191244,5,2,0:0:0:0:
348,376,191413,1,0,3:0:0:0:
370,188,191583,5,2,0:0:0:0:
174,252,191752,1,0,3:0:0:0:
297,276,191922,5,2,0:0:0:0:
221,82,192091,1,2,3:0:0:0:
297,276,192261,6,0,P|394:302|466:250,1,160,12|2,0:0|0:0,0:0:0:0:
417,117,192769,1,0,3:0:0:0:
298,276,192939,5,2,0:0:0:0:
298,276,193108,1,0,3:0:0:0:
136,57,193278,1,2,0:0:0:0:
136,57,193447,1,0,3:0:0:0:
334,186,193617,1,2,0:0:0:0:
334,186,193786,1,0,3:0:0:0:
145,226,193956,1,2,0:0:0:0:
145,226,194125,1,0,3:0:0:0:
268,117,194295,5,2,0:0:0:0:
298,276,194464,1,0,3:0:0:0:
145,226,194634,1,2,0:0:0:0:
268,117,194803,1,0,3:0:0:0:
145,226,194973,6,0,P|104:159|116:81,1,160,4|8,0:0|0:0,0:0:0:0:
302,195,195481,2,0,L|145:226,1,160,6|0,0:0|0:0,0:0:0:0:
76,320,195990,1,8,0:0:0:0:
116,81,196159,1,6,0:0:0:0:
252,288,196498,5,0,0:0:0:0:
204,140,196668,1,8,0:0:0:0:
302,195,196837,1,0,3:0:0:0:
302,195,196922,1,0,3:0:0:0:
302,195,197007,1,8,3:0:0:0:
204,140,197176,1,0,3:0:0:0:
308,76,197346,1,8,3:0:0:0:
216,232,197515,1,0,3:0:0:0:
116,81,197685,6,0,P|107:38|108:-3,1,80,6|0,0:0|0:0,0:0:0:0:
298,17,198024,1,0,0:0:0:0:
204,140,198193,2,0,L|46:109,1,160,6|0,0:0|0:0,0:0:0:0:
108,236,198702,1,8,0:0:0:0:
283,120,198871,2,0,B|289:139|281:171|281:171|297:215|297:215|288:239|297:275,1,160,6|8,0:0|3:0,0:0:0:0:
452,302,199380,1,8,0:3:0:0:
471,158,199549,1,0,3:0:0:0:
471,158,199634,1,0,3:0:0:0:
471,158,199719,5,8,0:0:0:0:
292,356,199888,1,8,0:0:0:0:
512,369,200397,5,8,3:0:0:0:
404,199,200736,6,0,P|340:187|280:203,1,104.999996795654,12|0,0:0|0:0,0:0:0:0:
178,324,201075,1,0,0:0:0:0:
203,139,201244,2,0,P|238:100|285:77,1,104.999996795654,2|8,0:0|0:0,0:0:0:0:
178,324,201583,6,0,P|126:331|76:320,1,104.999996795654,6|0,0:0|0:0,0:0:0:0:
16,136,201922,1,0,0:0:0:0:
132,216,202091,1,8,0:0:0:0:
0,264,202261,1,2,0:0:0:0:
137,96,202430,1,0,0:0:0:0:
295,266,202600,2,0,L|190:254,1,104.999996795654,2|8,0:0|0:0,0:0:0:0:
285,76,202939,1,0,3:0:0:0:
418,235,203108,6,0,P|416:287|396:335,1,104.999996795654,2|0,0:0|0:0,0:0:0:0:
190,254,203447,2,0,P|169:206|167:153,1,104.999996795654,8|2,0:0|0:0,0:0:0:0:
219,18,203786,1,0,0:0:0:0:
284,180,203956,1,2,0:0:0:0:
90,78,204125,1,8,0:0:0:0:
99,298,204295,6,0,B|246:277|246:277|186:252,1,209.999993591309,2|0,0:0|0:0,0:0:0:0:
36,208,204803,1,8,0:0:0:0:
185,373,204973,1,2,0:0:0:0:
156,168,205142,1,0,0:0:0:0:
69,307,205312,1,8,0:0:0:0:
225,243,205481,1,2,0:0:0:0:
68,120,205651,1,8,0:0:0:0:
68,120,205736,1,0,0:0:0:0:
68,120,205820,6,0,P|47:72|45:19,1,104.999996795654,4|0,0:0|0:0,0:0:0:0:
255,144,206159,1,8,0:0:0:0:
156,168,206329,2,0,P|203:147|256:145,1,104.999996795654,2|0,0:0|0:0,0:0:0:0:
313,297,206667,1,2,0:0:0:0:
156,168,206837,1,8,0:0:0:0:
260,49,207007,6,0,P|332:85|320:213,1,209.999993591309,6|0,0:0|0:0,0:0:0:0:
182,305,207515,1,8,0:0:0:0:
256,145,207685,1,2,0:0:0:0:
412,272,207854,2,0,L|396:396,1,104.999996795654,0|2,0:0|0:0,0:0:0:0:
216,332,208193,2,0,L|203:227,1,104.999996795654,8|0,0:0|3:0,0:0:0:0:
484,53,208532,6,0,L|468:177,1,104.999996795654,6|0,0:0|0:0,0:0:0:0:
295,266,208871,1,8,0:0:0:0:
319,94,209041,1,2,0:0:0:0:
416,236,209210,1,0,0:0:0:0:
204,140,209380,1,8,0:3:0:0:
204,140,209464,1,0,0:0:0:0:
204,140,209549,1,8,0:0:0:0:
128,294,209719,6,0,P|220:332|295:266,1,209.999993591309,6|2,0:0|0:0,0:0:0:0:
219,111,210227,1,8,0:0:0:0:
395,265,210397,2,0,P|379:215|343:177,1,104.999996795654,2|2,0:0|0:0,0:0:0:0:
90,214,210736,1,8,0:3:0:0:
90,214,210821,1,0,0:0:0:0:
90,214,210905,1,8,0:0:0:0:
269,364,211075,1,8,0:3:0:0:
269,364,211160,1,0,0:0:0:0:
269,364,211244,6,0,P|293:317|294:265,1,104.999996795654,6|0,0:0|0:0,0:0:0:0:
223,111,211583,1,8,0:0:0:0:
119,124,211752,2,0,L|224:111,1,104.999996795654,2|0,0:0|0:0,0:0:0:0:
39,195,212091,2,0,P|15:150|13:98,1,104.999996795654,2|8,0:0|0:0,0:0:0:0:
203,227,212430,6,0,L|190:332,1,104.999996795654,0|2,3:0|0:0,0:0:0:0:
0,318,212769,2,0,P|45:293|97:291,1,104.999996795654,0|8,0:0|0:0,0:0:0:0:
311,334,213108,1,2,0:0:0:0:
208,357,213278,1,0,0:0:0:0:
320,229,213447,2,0,L|333:124,1,104.999996795654,2|8,0:0|0:0,0:0:0:0:
134,43,213786,1,0,0:0:0:0:
134,43,213871,1,8,0:0:0:0:
134,43,213956,6,0,L|147:148,1,104.999996795654,2|0,0:0|0:0,0:0:0:0:
349,223,214295,1,8,0:0:0:0:
223,115,214464,1,2,0:0:0:0:
255,279,214634,1,0,0:0:0:0:
332,124,214803,1,2,0:0:0:0:
181,211,214973,1,8,0:0:0:0:
332,124,215142,6,0,P|428:155|448:257,1,209.999993591309,2|0,0:0|0:0,0:0:0:0:
319,371,215651,1,8,0:0:0:0:
349,223,215820,1,2,0:0:0:0:
419,336,215990,1,8,0:0:0:0:
211,223,216159,1,0,0:0:0:0:
211,223,216244,1,0,0:0:0:0:
211,223,216329,1,8,0:0:0:0:
361,63,216498,1,0,3:0:0:0:
361,63,216583,1,0,0:0:0:0:
361,63,216668,6,0,P|362:141|317:76,1,209.999993591309,6|8,0:0|0:0,0:0:0:0:
467,63,217176,2,0,P|458:165|379:230,1,209.999993591309,6|0,0:0|0:0,0:0:0:0:
422,358,217685,1,8,0:0:0:0:
324,312,217854,2,0,B|253:292|253:292|196:316|196:316|102:293,1,209.999993591309,6|8,0:0|3:0,0:0:0:0:
29,356,218363,1,0,3:0:0:0:
0,264,218532,1,8,3:0:0:0:
74,180,218702,5,8,0:0:0:0:
171,380,219041,5,0,0:0:0:0:
324,312,219380,6,0,B|362:318|387:302|387:302|408:301|426:311|426:311|472:293|516:302,1,160,6|0,0:0|0:0,0:0:0:0:
260,380,219888,1,0,3:0:0:0:
260,380,220058,2,0,P|237:341|232:301,1,80,8|0,0:0|0:0,0:0:0:0:
338,215,220397,1,0,0:0:0:0:
214,270,220566,6,0,L|226:178,1,80,2|0,0:0|0:0,0:0:0:0:
324,312,220905,1,8,0:0:0:0:
115,286,221075,2,0,L|127:191,1,80
20,236,221413,1,8,0:0:0:0:
20,236,221583,1,0,0:0:0:0:
186,352,221752,2,0,P|209:313|211:270,1,80,8|0,0:0|0:0,0:0:0:0:
28,139,222091,6,0,P|122:157|182:107,1,160,2|0,0:0|0:0,0:0:0:0:
235,25,222600,1,0,0:0:0:0:
332,116,222769,2,0,L|341:198,1,80,8|0,0:0|0:0,0:0:0:0:
470,157,223108,1,0,0:0:0:0:
470,157,223278,2,0,L|457:246,1,80,2|0,0:0|0:0,0:0:0:0:
504,353,223617,6,0,L|410:346,2,80,8|2|0,0:0|0:0|0:0,0:0:0:0:
335,292,224125,2,0,P|331:243|341:207,1,80,8|0,0:0|0:0,0:0:0:0:
411,78,224464,2,0,P|370:105|328:114,1,80
225,180,224803,6,0,P|143:97|211:82,1,240,6|0,0:0|0:0,0:0:0:0:
342,204,225481,1,8,0:0:0:0:
238,288,225651,2,0,P|195:300|153:295,1,80
31,175,225990,5,0,0:0:0:0:
196,57,226159,2,0,L|187:137,1,80,8|0,0:0|0:0,0:0:0:0:
76,75,226498,1,2,0:0:0:0:
305,30,226668,5,8,0:0:0:0:
284,187,226837,1,0,0:0:0:0:
453,110,227007,5,2,0:0:0:0:
392,220,227176,1,8,0:0:0:0:
340,112,227346,1,0,3:0:0:0:
299,291,227515,6,0,B|243:326|183:294|183:294|119:262|55:306,1,239.999992675781,6|0,0:0|0:0,0:0:0:0:
127,374,228532,1,0,0:0:0:0:
239,218,228702,2,0,P|255:126|190:65,1,179.999994506836,8|0,0:0|0:0,0:0:0:0:
111,167,229549,2,0,P|143:158|183:158,1,59.9999981689454,8|0,0:0|0:0,0:0:0:0:
299,291,229888,2,0,P|331:300|371:300,1,59.9999981689454,8|0,0:0|0:0,0:0:0:0:
448,149,230227,6,0,P|360:125|402:218,1,239.999992675781,4|0,0:0|0:0,0:0:0:0:
439,366,231244,1,0,0:0:0:0:
357,301,231413,2,0,L|221:286,1,119.999996337891,8|0,0:0|0:0,0:0:0:0:
170,371,231922,1,8,0:0:0:0:
66,263,232261,1,8,0:0:0:0:
34,380,232600,5,8,0:0:0:0:
53,230,232769,1,6,0:0:0:0:
256,192,232939,12,0,234803,0:0:0:0:
112,103,234973,5,8,0:0:0:0:
192,204,235142,1,0,0:0:0:0:
286,42,235312,1,8,0:0:0:0:
192,204,235651,6,0,P|240:216|300:196,1,89.9999972534181,6|0,0:0|0:0,0:0:0:0:
356,108,235990,1,8,0:0:0:0:
237,126,236159,1,0,0:0:0:0:
352,215,236329,1,2,0:0:0:0:
237,126,236498,1,0,0:0:0:0:
233,288,236668,1,8,0:0:0:0:
328,128,236837,6,0,P|306:63|176:60,1,179.999994506836,4|0,0:0|0:0,0:0:0:0:
96,165,237346,1,8,0:0:0:0:
237,126,237515,1,0,0:0:0:0:
104,68,237685,1,2,0:0:0:0:
190,211,237854,1,0,0:0:0:0:
205,39,238024,1,8,0:0:0:0:
96,165,238193,1,0,0:0:0:0:
96,165,238278,1,0,0:0:0:0:
96,165,238363,6,0,P|48:153|-12:173,1,89.9999972534181,6|0,0:0|0:0,0:0:0:0:
128,323,238702,2,0,L|228:311,1,89.9999972534181,8|0,0:0|0:0,0:0:0:0:
340,204,239041,1,2,0:0:0:0:
308,364,239210,1,0,0:0:0:0:
232,212,239380,1,8,0:0:0:0:
388,296,239549,1,8,0:0:0:0:
232,212,239719,6,0,P|224:168|236:125,1,89.9999972534181,0|2,0:0|0:0,0:0:0:0:
284,27,240058,1,8,0:0:0:0:
135,87,240227,2,0,P|197:24|284:27,1,179.999994506836,8|0,0:3|3:0,0:0:0:0:
429,141,240736,1,8,0:0:0:0:
340,204,240905,1,0,3:0:0:0:
340,204,240990,1,0,0:0:0:0:
340,204,241075,6,0,P|324:118|376:48,1,179.999994506836,6|8,0:0|0:0,0:0:0:0:
429,141,241583,1,0,0:0:0:0:
332,234,241752,2,0,B|226:219,1,89.9999972534181,2|0,0:0|0:0,0:0:0:0:
143,325,242092,1,8,0:0:0:0:
160,152,242261,6,0,P|238:114|320:146,1,179.999994506836,4|0,0:0|3:0,0:0:0:0:
248,309,242769,2,0,P|237:265|242:221,1,89.9999972534181,8|2,0:3|3:0,0:0:0:0:
241,221,243023,1,0,0:0:0:0:
241,221,243108,1,8,3:0:0:0:
429,141,243278,1,0,3:0:0:0:
359,256,243447,1,8,0:3:0:0:
257,39,243617,5,6,0:0:0:0:
256,192,243702,12,0,249210,0:0:0:0:
