osu file format v14

[General]
AudioFilename: audio.mp3
AudioLeadIn: 0
PreviewTime: 133274
Countdown: 0
SampleSet: Soft
StackLeniency: 0.7
Mode: 0
LetterboxInBreaks: 0
WidescreenStoryboard: 0

[Editor]
DistanceSpacing: 1.1
BeatDivisor: 4
GridSize: 32
TimelineZoom: 2.4

[Metadata]
Title:Yasashisa no Riyuu
TitleUnicode:優しさの理由
Artist:ChouCho
ArtistUnicode:ChouCho
Creator:Asphyxia
Version:Insane
Source:氷菓
Tags:Hyouka opening full ver PandaHero Mirash Ataraxia anime japanese version
BeatmapID:2112267
BeatmapSetID:1008974

[Difficulty]
HPDrainRate:5
CircleSize:4
OverallDifficulty:8
ApproachRate:9
SliderMultiplier:2
SliderTickRate:1

[Events]
//Background and Video events
0,0,"wallhaven-3k7vrd.jpg",0,0
//Break Periods
//Storyboard Layer 0 (Background)
//Storyboard Layer 1 (Fail)
//Storyboard Layer 2 (Pass)
//Storyboard Layer 3 (Foreground)
//Storyboard Layer 4 (Overlay)
//Storyboard Sound Samples

[TimingPoints]
472,338.983050847458,4,1,0,100,1,0
472,-142.857142857143,4,2,0,50,0,0
3183,-125,4,2,0,40,0,0
14031,-100,4,2,1,80,0,0
24031,-100,4,2,1,60,0,0
24200,-100,4,2,0,40,0,0
24539,-100,4,2,0,30,0,0
24878,-125,4,2,0,45,0,0
35048,-125,4,2,0,60,0,0
35387,-125,4,2,0,40,0,0
35726,-100,4,2,1,60,0,0
36912,-100,4,2,1,100,0,0
37082,-100,4,2,1,60,0,0
39624,-100,4,2,1,100,0,0
39794,-100,4,2,1,60,0,0
40302,-100,4,2,1,100,0,0
40472,-100,4,2,1,60,0,0
42336,-100,4,2,1,100,0,0
42505,-100,4,2,1,60,0,0
45217,-83.3333333333333,4,2,1,60,0,0
47929,-125,4,2,1,60,0,0
56065,-83.3333333333333,4,2,1,60,0,0
59963,-83.3333333333333,4,2,1,100,0,0
60133,-83.3333333333333,4,2,1,60,0,0
61488,-83.3333333333333,4,2,1,80,0,1
62675,-83.3333333333333,4,2,90,100,0,1
62844,-83.3333333333333,4,2,1,80,0,1
64031,-83.3333333333333,4,2,90,100,0,1
64200,-83.3333333333333,4,2,1,80,0,1
72166,-83.3333333333333,4,2,1,100,0,1
72336,-83.3333333333333,4,2,1,80,0,1
74878,-83.3333333333333,4,2,90,100,0,1
75048,-83.3333333333333,4,2,1,80,0,1
76234,-83.3333333333333,4,2,90,100,0,1
76404,-83.3333333333333,4,2,1,80,0,1
77760,-100,4,2,1,80,0,1
80472,-125,4,2,1,80,0,0
85556,-125,4,2,90,100,0,0
85895,-100,4,2,1,80,0,0
88438,-100,4,2,1,100,0,0
88607,-100,4,2,1,80,0,0
96743,-125,4,1,2,40,0,0
106404,-125,4,2,1,60,0,0
107590,-100,4,2,1,60,0,0
108777,-100,4,2,1,100,0,0
108946,-100,4,2,1,60,0,0
111488,-100,4,2,1,100,0,0
111658,-100,4,2,1,60,0,0
112166,-100,4,2,1,100,0,0
112336,-100,4,2,1,60,0,0
116912,-100,4,2,1,100,0,0
117082,-100,4,2,1,60,0,0
118607,-83.3333333333333,4,2,1,60,0,0
119794,-125,4,2,1,60,0,0
120979,-125,4,2,1,100,0,0
121149,-125,4,2,1,60,0,0
125048,-125,4,2,1,100,0,0
125217,-125,4,2,1,60,0,0
127929,-83.3333333333333,4,2,1,60,0,0
133353,-76.9230769230769,4,2,1,80,0,1
134539,-76.9230769230769,4,2,90,100,0,1
134709,-76.9230769230769,4,2,1,80,0,1
135895,-76.9230769230769,4,2,90,100,0,1
136065,-76.9230769230769,4,2,1,80,0,1
137251,-76.9230769230769,4,2,90,100,0,1
137421,-76.9230769230769,4,2,1,80,0,1
143099,-76.9230769230769,4,2,90,100,0,1
143353,-76.9230769230769,4,2,1,80,0,1
150133,-100,4,2,1,80,0,1
152336,-125,4,2,1,80,0,0
152844,-125,4,2,90,100,0,0
153014,-125,4,2,1,80,0,0
157590,-83.3333333333333,4,2,1,80,0,0
160641,-83.3333333333333,4,2,90,100,0,0
160810,-83.3333333333333,4,2,1,80,0,0
163014,-100,4,2,1,80,0,0
166404,-100,4,2,90,100,0,0
166573,-100,4,2,1,80,0,0
178099,-166.666666666667,4,2,0,40,0,0
185387,-166.666666666667,4,2,0,60,0,0
186234,-166.666666666667,4,2,0,100,0,0
188268,-76.9230769230769,4,2,1,80,0,0
188946,-100,4,2,1,80,0,0
189285,-100,4,2,1,50,0,0
189793,-100,4,2,1,55,0,0
190302,-100,4,2,1,60,0,0
190810,-100,4,2,1,65,0,0
191319,-100,4,2,1,70,0,0
191827,-100,4,2,1,75,0,0
192336,-100,4,2,1,80,0,0
192844,-100,4,2,1,85,0,0
193353,-100,4,2,1,90,0,0
193861,-100,4,2,1,95,0,0
194370,-100,4,2,1,70,0,0
199794,-83.3333333333333,4,2,1,70,0,0
200133,-71.4285714285714,4,2,1,80,0,1
202336,-71.4285714285714,4,2,90,100,0,1
202505,-71.4285714285714,4,2,1,80,0,1
203692,-71.4285714285714,4,2,90,100,0,1
203861,-71.4285714285714,4,2,1,80,0,1
205048,-71.4285714285714,4,2,90,100,0,1
205217,-71.4285714285714,4,2,1,80,0,1
207421,-71.4285714285714,4,2,90,100,0,1
207590,-71.4285714285714,4,2,1,80,0,1
207760,-71.4285714285714,4,2,90,100,0,1
207929,-71.4285714285714,4,2,1,80,0,1
213183,-71.4285714285714,4,2,90,100,0,1
213353,-71.4285714285714,4,2,1,80,0,1
214878,-71.4285714285714,4,2,90,100,0,1
215048,-71.4285714285714,4,2,1,80,0,1
215217,-71.4285714285714,4,2,90,100,0,1
215387,-71.4285714285714,4,2,1,80,0,1
215556,-71.4285714285714,4,2,0,100,0,1
215726,-71.4285714285714,4,2,1,80,0,1
215895,-71.4285714285714,4,2,0,100,0,1
216065,-71.4285714285714,4,2,1,80,0,1
218777,-100,4,2,1,70,0,0
232505,-100,4,2,0,35,0,0
232844,-100,4,2,0,40,0,0
233183,-100,4,2,0,45,0,0
233522,-100,4,2,0,50,0,0
233861,-100,4,2,0,55,0,0
234200,-100,4,2,1,70,0,0
244539,-100,4,2,0,50,0,0
245895,-100,4,2,0,30,0,0
248607,-100,4,2,0,5,0,0

[Colours]
Combo1 : 79,155,155
Combo2 : 105,0,210
Combo3 : 255,166,166
Combo4 : 185,0,92

[HitObjects]
386,358,3183,6,0,P|412:336|431:288,1,80,2|0,0:0|0:0,0:0:0:0:
468,224,3522,2,0,P|494:246|513:294,1,80,2|0,0:0|0:0,0:0:0:0:
340,278,3861,2,0,P|316:221|346:107,1,160,10|2,0:0|0:0,0:0:0:0:
499,112,4370,2,0,P|447:52|372:29,1,160,2|2,0:0|0:0,0:0:0:0:
178,160,4878,1,2,0:0:0:0:
246,114,5048,1,0,0:0:0:0:
175,79,5217,1,8,0:0:0:0:
175,79,5556,5,2,0:0:0:0:
246,114,5726,1,2,0:0:0:0:
178,160,5895,2,0,P|121:188|-1:200,1,160,2|2,0:0|0:0,0:0:0:0:
42,305,6404,2,0,B|106:267|164:306|135:343|202:372|262:333,1,240,2|2,0:0|0:0,0:0:0:0:
356,289,7082,1,2,0:0:0:0:
356,289,7251,6,0,P|389:310|428:311,2,80,2|0|2,0:0|0:0|0:0,0:0:0:0:
178,160,7929,2,0,P|138:160|105:181,2,80,10|0|2,0:0|0:0|0:0,0:0:0:0:
226,224,8438,1,2,0:0:0:0:
111,272,8607,6,0,P|144:293|183:292,1,80,2|0,0:0|0:0,0:0:0:0:
61,336,8946,2,0,P|34:307|28:268,1,80,2|0,0:0|0:0,0:0:0:0:
169,132,9285,2,0,P|159:210|110:271,1,160,10|2,0:0|0:0,0:0:0:0:
267,139,9794,2,0,P|193:111|146:47,1,160,2|2,0:0|0:0,0:0:0:0:
146,47,10302,1,2,0:0:0:0:
169,124,10472,1,2,0:0:0:0:
150,201,10641,1,8,0:0:0:0:
150,201,10980,5,2,0:0:0:0:
169,124,11149,1,2,0:0:0:0:
146,47,11319,1,2,0:3:0:0:
146,47,13861,5,2,0:0:0:0:
146,47,13946,1,2,0:0:0:0:
146,47,14031,6,0,P|191:16|249:24,1,100,4|0,0:1|0:0,0:0:0:0:
244,202,14370,2,0,L|272:93,1,100,2|0,3:2|0:0,0:0:0:0:
320,259,14709,1,0,3:0:0:0:
231,304,14878,1,0,0:0:0:0:
312,362,15048,1,2,3:2:0:0:
115,334,15217,6,0,P|30:302|51:195,1,200,2|0,3:3|0:0,0:0:0:0:
94,47,15726,2,0,P|74:95|16:121,1,100,2|0,3:2|0:0,0:0:0:0:
249,99,16065,2,0,P|207:130|144:124,1,100,2|0,3:2|0:0,0:0:0:0:
395,214,16404,2,0,L|290:201,1,100,2|0,3:2|0:0,0:0:0:0:
217,19,16743,6,0,P|300:-7|387:53,2,200,4|2|0,0:2|3:2|3:0,0:0:0:0:
175,261,17590,1,0,0:0:0:0:
195,97,17760,2,0,L|214:191,1,100,2|2,3:2|3:3,0:0:0:0:
195,97,18268,5,0,3:0:0:0:
268,324,18438,2,0,L|293:227,1,100,2|2,3:2|0:3,0:0:0:0:
427,120,18777,2,0,L|330:146,1,100,2|0,3:2|0:0,0:0:0:0:
101,199,19116,1,2,3:2:0:0:
101,199,19285,1,0,3:0:0:0:
186,61,19455,6,0,P|217:112|210:160,1,100,4|0,0:1|0:0,0:0:0:0:
267,284,19794,2,0,P|222:244|173:243,1,100,2|0,3:2|0:0,0:0:0:0:
110,299,20133,1,0,3:0:0:0:
213,150,20302,1,0,0:0:0:0:
277,370,20472,6,0,P|317:353|351:304,1,100,2|4,3:2|3:2,0:0:0:0:
277,370,20980,1,0,3:0:0:0:
381,233,21149,2,0,P|418:264|430:312,1,100,2|0,3:2|0:0,0:0:0:0:
298,167,21488,2,0,L|191:150,1,100,2|0,3:2|0:0,0:0:0:0:
343,15,21827,2,0,P|353:61|416:147,1,150,2|0,3:2|0:0,0:0:0:0:
506,180,22166,5,4,3:2:0:0:
506,180,22505,1,0,3:0:0:0:
506,180,22844,1,0,3:0:0:0:
506,180,23183,1,0,3:0:0:0:
412,247,23353,1,0,3:0:0:0:
371,139,23522,5,0,3:0:0:0:
391,338,23692,5,8,0:3:0:0:
363,348,23861,1,0,3:0:0:0:
272,204,24031,5,4,3:0:0:0:
262,201,24200,1,4,3:0:0:0:
157,321,24370,5,0,3:0:0:0:
241,299,24539,1,4,3:0:0:0:
140,326,24709,1,0,3:0:0:0:
258,295,24878,6,0,P|212:280|179:241,1,80,2|0,0:0|0:0,0:0:0:0:
189,173,25217,2,0,P|150:183|120:209,1,80,2|0,0:0|0:0,0:0:0:0:
32,335,25556,2,0,P|51:268|23:165,1,160,10|2,0:0|0:0,0:0:0:0:
88,122,26065,1,2,0:0:0:0:
88,122,26149,1,2,0:0:0:0:
88,122,26234,6,0,P|55:97|37:44,1,80,0|2,3:0|0:0,0:0:0:0:
167,145,26573,1,2,0:0:0:0:
244,124,26743,1,2,0:0:0:0:
286,56,26912,1,8,0:0:0:0:
286,56,27251,5,2,0:0:0:0:
244,124,27421,1,2,0:0:0:0:
243,253,27590,2,0,P|318:229|370:170,1,160,2|2,0:0|0:0,0:0:0:0:
286,56,28099,2,0,P|210:79|158:138,1,160,2|0,0:3|0:0,0:0:0:0:
305,214,28607,2,0,P|341:246|386:245,1,80,2|2,0:0|0:0,0:0:0:0:
138,236,28946,6,0,L|60:254,2,80,0|0|2,3:0|3:0|0:0,0:0:0:0:
138,236,29455,1,0,0:0:0:0:
244,124,29624,6,0,L|321:105,2,80,8|0|2,0:0|0:0|0:0,0:0:0:0:
244,124,30133,1,2,0:0:0:0:
269,279,30302,6,0,P|294:227|281:188,1,80,2|0,0:0|0:0,0:0:0:0:
140,236,30641,2,0,P|163:288|201:303,1,80,2|0,0:0|0:0,0:0:0:0:
370,166,30980,2,0,P|396:213|391:339,1,160,10|2,0:0|0:0,0:0:0:0:
292,108,31488,2,0,P|319:61|431:3,1,160,2|2,0:0|0:0,0:0:0:0:
279,193,31997,2,0,P|224:193|118:125,1,160,2|8,0:0|0:0,0:0:0:0:
133,143,32675,5,2,0:0:0:0:
110,235,32844,1,2,0:0:0:0:
174,353,33014,5,2,0:0:0:0:
174,353,33183,1,2,0:0:0:0:
10,334,33353,2,0,L|98:322,1,80,2|2,0:0|0:3,0:0:0:0:
247,215,33692,5,8,0:0:0:0:
247,215,33861,1,2,0:0:0:0:
372,345,34031,2,0,L|293:355,1,80,2|0,0:0|0:0,0:0:0:0:
339,122,34370,5,0,3:0:0:0:
392,201,34539,1,2,3:2:0:0:
379,47,34709,5,2,0:0:0:0:
352,276,34878,1,2,0:2:0:0:
352,276,34963,1,2,3:2:0:0:
352,276,35048,1,8,3:0:0:0:
429,118,35217,5,4,0:3:0:0:
295,209,35387,1,4,0:3:0:0:
439,293,35556,1,4,0:3:0:0:
214,346,35726,6,0,P|217:290|185:240,1,100,4|0,0:0|0:0,0:0:0:0:
41,293,36065,2,0,L|149:316,1,100,0|0,3:0|0:0,0:0:0:0:
295,81,36404,2,0,P|241:116|88:131,1,200,0|0,3:0|3:0,0:0:0:0:
20,0,36912,1,0,2:3:0:0:
20,0,36997,1,0,2:3:0:0:
20,0,37082,6,0,P|60:38|119:45,1,100,2|0,3:3|0:0,0:0:0:0:
297,0,37421,2,0,L|199:20,1,100,0|0,3:0|0:0,0:0:0:0:
331,174,37760,2,0,L|428:194,1,100,0|0,3:0|0:0,0:0:0:0:
508,147,38099,2,0,P|520:93|497:38,1,100,0|0,3:0|3:0,0:0:0:0:
251,155,38438,6,0,P|257:254|305:341,1,200,2|0,3:2|3:0,0:0:0:0:
494,285,38946,2,0,P|488:186|440:99,1,200,0|0,0:0|0:0,0:0:0:0:
358,171,39455,1,0,3:0:0:0:
493,284,39624,1,0,0:3:0:0:
493,284,39709,1,0,0:3:0:0:
493,284,39794,6,0,P|443:279|403:250,1,100,2|0,3:2|3:0,0:0:0:0:
304,340,40133,2,0,P|263:368|214:373,1,100,0|0,3:0|0:0,0:0:0:0:
140,340,40387,1,2,0:3:0:0:
140,340,40472,2,0,L|116:227,1,100,2|0,3:2|3:0,0:0:0:0:
0,75,40810,2,0,L|97:95,1,100,2|0,3:0|0:0,0:0:0:0:
298,129,41149,5,6,0:2:0:0:
240,47,41319,1,0,0:0:0:0:
226,194,41488,2,0,P|266:222|315:227,1,100,0|0,3:0|0:0,0:0:0:0:
438,333,41827,2,0,L|406:124,1,200,0|0,3:0|3:0,0:0:0:0:
474,32,42336,1,0,2:0:0:0:
474,32,42421,1,0,2:0:0:0:
474,32,42505,6,0,P|424:27|384:0,1,100,2|0,3:2|0:0,0:0:0:0:
299,132,42844,2,0,P|319:176|315:226,1,100,0|0,3:0|0:0,0:0:0:0:
82,168,43183,2,0,P|115:95|226:74,1,200,0|0,3:0|3:0,0:0:0:0:
299,132,43692,1,0,3:0:0:0:
139,247,43861,6,0,L|163:358,1,100,2|0,3:2|0:0,0:0:0:0:
436,276,44200,1,0,3:0:0:0:
436,276,44370,1,0,0:0:0:0:
436,276,44539,2,0,P|407:316|363:337,1,100,0|0,3:0|0:0,0:0:0:0:
275,117,44878,1,0,3:0:0:0:
322,205,45048,1,0,3:0:0:0:
478,148,45217,6,0,P|505:89|489:27,1,119.999996337891,2|0,0:3|0:0,0:0:0:0:
291,5,45556,2,2,P|264:64|280:126,1,119.999996337891,2|0,0:3|0:0,0:3:0:0:
174,291,45895,1,10,0:0:0:0:
225,183,46065,1,0,3:0:0:0:
303,273,46234,1,0,3:0:0:0:
303,273,46404,1,0,3:0:0:0:
147,271,46573,5,4,3:0:0:0:
423,141,46743,2,0,P|428:233|359:377,1,239.999992675781,12|4,0:0|3:0,0:0:0:0:
137,306,47251,2,0,P|132:214|201:70,1,239.999992675781,12|8,0:0|0:0,0:0:0:0:
256,152,47760,1,8,0:0:0:0:
386,49,47929,6,0,P|306:50|235:15,1,160,4|0,3:1|3:0,0:0:0:0:
40,47,48607,2,0,P|119:45|190:80,1,160,8|0,0:0|3:0,0:0:0:0:
190,80,49116,1,0,0:0:0:0:
165,172,49285,5,0,3:0:0:0:
165,172,49455,1,8,0:0:0:0:
232,239,49624,2,0,P|254:280|245:335,1,80,0|0,3:0|3:0,0:0:0:0:
160,338,49963,2,0,P|139:303|138:264,1,80,8|0,0:0|0:0,0:0:0:0:
259,152,50302,1,0,3:0:0:0:
259,152,50472,1,0,3:0:0:0:
259,152,50641,6,0,L|419:174,1,160,0|0,3:0|3:0,0:0:0:0:
391,269,51149,1,0,3:0:0:0:
391,269,51319,2,0,L|487:255,1,80,8|0,0:0|0:0,0:0:0:0:
472,79,51658,2,0,P|498:129|491:167,1,80,0|0,3:0|0:0,0:0:0:0:
391,269,51997,5,0,3:0:0:0:
326,198,52166,1,8,0:0:0:0:
289,371,52336,2,0,L|303:275,1,80,0|0,3:0|3:0,0:0:0:0:
338,118,52675,2,0,L|326:197,1,80,12|0,0:2|0:0,0:0:0:0:
82,173,53014,1,0,3:0:0:0:
82,173,53183,1,0,3:0:0:0:
169,132,53353,6,0,P|145:78|51:46,2,160,4|0|8,3:1|3:0|0:0,0:0:0:0:
82,173,54200,1,0,0:0:0:0:
224,203,54370,1,0,3:0:0:0:
165,319,54539,2,0,P|139:269|146:231,1,80,0|4,0:0|3:2,0:0:0:0:
284,62,54878,5,8,0:0:0:0:
411,180,55048,2,0,P|390:232|356:251,1,80,0|0,3:0|0:0,0:0:0:0:
173,336,55387,2,0,L|87:323,1,80,8|0,0:0|3:0,0:0:0:0:
10,227,55641,1,4,3:0:0:0:
10,227,55726,2,0,L|89:238,1,80,4|0,3:0|3:0,0:0:0:0:
358,339,56065,6,0,P|367:255|293:113,1,239.999992675781,4|8,0:0|0:2,0:0:0:0:
204,0,56573,2,0,P|262:60|418:95,1,239.999992675781,4|0,0:2|0:0,0:0:0:0:
230,207,57082,2,0,P|199:271|205:325,1,119.999996337891,8|0,0:2|0:0,0:0:0:0:
434,378,57421,5,0,3:0:0:0:
434,378,57590,2,0,P|465:314|459:260,1,119.999996337891,12|0,0:2|0:0,0:0:0:0:
245,117,57929,1,0,3:0:0:0:
245,117,58099,2,0,L|371:91,1,119.999996337891,8|0,0:0|3:0,0:0:0:0:
467,66,58438,1,8,0:0:0:0:
171,17,58777,5,4,0:1:0:0:
171,17,59963,1,0,2:0:0:0:
171,17,60048,1,0,2:0:0:0:
171,17,60133,1,2,2:0:0:0:
171,17,61488,6,0,B|235:-21|293:18|264:55|331:84|391:45,1,240,4|8,3:1|0:0,0:0:0:0:
499,225,61997,2,0,P|478:138|427:105,1,119.999996337891,0|0,0:0|3:0,0:0:0:0:
276,191,62336,2,0,P|297:278|348:311,1,119.999996337891,0|8,3:0|0:0,0:0:0:0:
220,81,62675,5,0,0:0:0:0:
220,81,62760,1,0,0:0:0:0:
220,81,62844,1,0,3:0:0:0:
158,328,63014,2,0,L|191:187,1,119.999996337891,0|8,0:0|0:0,0:0:0:0:
85,45,63353,2,0,L|57:161,1,119.999996337891,0|0,0:0|3:0,0:0:0:0:
158,328,63692,2,0,P|245:307|278:256,1,119.999996337891,0|8,3:0|0:0,0:0:0:0:
423,362,64031,5,0,2:0:0:0:
423,362,64116,1,0,0:0:0:0:
423,362,64200,1,0,3:0:0:0:
285,195,64370,2,0,L|399:228,1,119.999996337891,0|8,0:0|0:0,0:0:0:0:
512,87,64709,2,0,L|397:120,1,119.999996337891,0|0,0:0|3:0,0:0:0:0:
167,17,65048,2,0,P|224:29|266:71,1,119.999996337891,0|8,3:0|0:0,0:0:0:0:
158,328,65387,1,0,3:0:0:0:
0,155,65556,6,0,B|89:183|89:183|150:126|233:146,1,239.999992675781,0|8,3:0|0:0,0:0:0:0:
377,287,66065,1,0,3:0:0:0:
377,287,66234,1,0,3:0:0:0:
169,235,66404,1,0,3:0:0:0:
265,72,66573,1,8,0:0:0:0:
473,195,66743,5,8,0:0:0:0:
473,195,66827,1,8,0:0:0:0:
473,195,66912,1,4,3:3:0:0:
473,195,67251,2,0,P|422:149|409:71,1,119.999996337891,4|0,0:0|0:0,0:0:0:0:
452,2,67590,1,2,0:3:0:0:
273,163,67760,2,0,P|287:95|348:45,1,119.999996337891,0|8,3:0|0:0,0:0:0:0:
56,173,68099,6,0,P|191:231|214:323,1,239.999992675781,4|0,0:1|3:0,0:0:0:0:
340,281,68607,2,0,P|319:336|274:374,1,119.999996337891,8|0,0:0|0:0,0:0:0:0:
369,186,68946,2,0,P|414:223|434:279,1,119.999996337891,0|0,3:0|3:0,0:0:0:0:
181,98,69285,1,8,0:0:0:0:
181,98,69455,1,0,0:0:0:0:
419,25,69624,5,12,0:2:0:0:
181,98,69794,2,0,P|219:143|274:164,1,119.999996337891,0|0,0:0|3:0,0:0:0:0:
369,186,70133,5,8,0:0:0:0:
296,369,70302,2,0,L|270:220,1,119.999996337891,0|0,3:0|0:0,0:0:0:0:
213,2,70641,5,12,0:2:0:0:
67,294,70810,2,0,P|125:283|171:246,1,119.999996337891,0|0,0:0|3:0,0:0:0:0:
458,224,71149,5,8,0:0:0:0:
162,122,71319,2,0,L|274:163,1,119.999996337891,0|0,0:0|3:0,0:0:0:0:
84,0,71658,6,0,P|16:52|38:202,1,239.999992675781,8|10,0:0|0:0,0:0:0:0:
221,318,72166,1,0,0:0:0:0:
221,318,72251,1,0,0:0:0:0:
221,318,72336,6,0,L|109:359,1,119.999996337891,4|0,3:1|0:0,0:0:0:0:
354,266,72675,1,8,0:0:0:0:
127,169,72844,2,0,P|185:180|231:217,1,119.999996337891,0|0,0:0|3:0,0:0:0:0:
149,376,73183,2,0,P|91:365|45:328,1,119.999996337891,0|8,3:0|0:0,0:0:0:0:
36,111,73522,6,0,L|153:90,1,119.999996337891,0|0,3:0|3:0,0:0:0:0:
335,8,73861,2,0,L|217:28,1,119.999996337891,0|8,0:0|0:0,0:0:0:0:
241,286,74200,2,0,P|287:248|345:237,1,119.999996337891,0|0,0:0|3:0,0:0:0:0:
512,196,74539,2,0,P|453:184|407:147,1,119.999996337891,0|8,3:0|0:0,0:0:0:0:
311,0,74878,5,0,2:0:0:0:
311,0,74963,1,0,2:0:0:0:
311,0,75048,1,0,3:0:0:0:
278,248,75217,2,0,L|299:130,1,119.999996337891,0|8,0:0|0:0,0:0:0:0:
216,28,75556,2,0,P|157:39|111:76,1,119.999996337891,0|0,0:0|3:0,0:0:0:0:
240,348,75895,2,0,P|298:336|344:299,1,119.999996337891,0|8,3:0|0:0,0:0:0:0:
201,139,76234,5,0,2:0:0:0:
201,139,76319,1,0,2:0:0:0:
201,139,76404,1,0,3:0:0:0:
179,252,76573,2,0,L|60:272,1,119.999996337891,0|8,0:0|0:0,0:0:0:0:
201,139,76912,2,0,L|319:118,1,119.999996337891,0|8,0:0|3:0,0:0:0:0:
116,52,77251,1,0,3:0:0:0:
221,351,77421,2,0,P|258:304|269:246,1,119.999996337891,8|8,3:0|3:0,3:0:0:0:
319,117,77760,6,0,L|367:330,1,200,6|8,3:2|0:0,0:0:0:0:
182,111,78268,2,0,P|278:116|336:39,1,200,4|0,3:1|3:0,0:0:0:0:
107,61,78777,1,8,0:0:0:0:
245,246,78946,2,0,L|140:223,1,100,2|0,0:3|0:0,0:0:0:0:
167,330,79285,6,0,L|69:351,1,100,8|8,3:3|3:3,0:0:0:0:
1,287,79624,1,4,3:3:0:0:
262,346,79794,1,2,3:0:0:0:
1,287,80133,1,2,3:0:0:0:
262,346,80472,6,0,P|290:289|259:194,1,160,6|2,3:2|0:3,0:0:0:0:
347,70,80980,1,0,3:0:0:0:
347,70,81149,2,0,P|302:82|278:108,1,80,8|0,0:0|0:0,0:0:0:0:
198,238,81488,2,0,P|243:226|267:200,1,80,0|2,3:0|3:0,0:0:0:0:
184,119,81827,6,0,P|145:110|116:83,1,80,2|8,3:0|0:0,0:0:0:0:
17,202,82166,2,0,L|113:188,1,80,0|0,0:0|0:0,0:0:0:0:
270,221,82505,1,8,0:0:0:0:
270,221,82675,1,0,0:0:0:0:
340,145,82844,1,2,3:0:0:0:
340,145,83014,1,0,0:0:0:0:
427,200,83183,5,4,0:1:0:0:
427,200,85556,5,0,0:0:0:0:
455,125,85726,1,0,0:0:0:0:
302,202,85895,6,0,P|331:260|319:302,1,100,4|0,0:1|0:0,0:0:0:0:
154,315,86234,2,0,L|258:334,1,100,2|0,3:2|0:0,0:0:0:0:
96,375,86573,6,0,P|69:333|73:284,1,100,0|0,3:0|0:0,0:0:0:0:
192,215,86912,1,2,3:2:0:0:
178,71,87082,2,0,P|131:140|10:114,1,200,12|0,0:2|0:0,0:0:0:0:
254,9,87590,6,0,P|293:39|306:86,1,100,2|0,3:2|0:0,0:0:0:0:
320,168,87929,2,0,P|364:146|387:103,1,100,2|0,3:2|0:0,0:0:0:0:
445,252,88268,1,2,3:2:0:0:
408,345,88438,1,0,0:0:0:0:
408,345,88522,1,0,0:0:0:0:
408,345,88607,6,0,L|296:363,1,100,4|0,0:2|0:0,0:0:0:0:
149,325,88946,2,0,L|247:309,1,100,2|0,3:2|0:0,0:0:0:0:
328,206,89285,2,0,L|216:224,1,100,0|0,3:0|0:0,0:0:0:0:
429,192,89624,1,2,3:2:0:0:
431,25,89794,6,0,P|466:75|457:125,1,100,12|0,3:2|0:0,0:0:0:0:
429,192,90133,1,0,0:0:0:0:
289,75,90302,2,0,L|401:93,1,100,2|2,3:2|0:3,0:0:0:0:
96,42,90641,2,0,L|208:60,1,100,2|0,3:2|0:0,0:0:0:0:
94,225,90980,2,0,P|143:224|180:192,1,100,2|0,3:2|0:0,0:0:0:0:
66,311,91319,6,0,P|5:233|55:144,2,200,4|2|0,0:1|3:2|3:0,0:0:0:0:
313,336,92166,1,0,0:0:0:0:
156,298,92336,2,0,L|251:269,1,100,2|12,3:2|3:2,0:0:0:0:
313,336,93014,5,2,3:2:0:0:
375,258,93183,1,0,0:0:0:0:
512,338,93353,2,0,P|467:361|420:355,1,100,2|0,3:2|0:0,0:0:0:0:
340,176,93692,2,0,P|388:169|432:192,1,100,2|0,3:2|0:0,0:0:0:0:
187,123,94031,5,4,3:1:0:0:
187,123,94370,1,0,3:0:0:0:
187,123,94709,1,0,3:0:0:0:
289,160,94878,5,8,0:0:0:0:
143,236,95048,1,0,3:0:0:0:
135,246,95217,1,0,3:0:0:0:
297,150,95387,5,8,0:0:0:0:
223,311,95556,1,0,3:0:0:0:
187,123,95726,1,8,0:0:0:0:
317,257,95895,1,0,3:0:0:0:
317,257,95980,1,0,3:0:0:0:
317,257,96065,1,0,3:0:0:0:
306,140,96234,5,0,3:0:0:0:
216,325,96404,1,2,3:3:0:0:
216,325,96743,6,0,P|172:323|133:296,1,80
56,261,97082,2,0,L|70:356,1,80,0|0,0:0|0:0,0:0:0:0:
0,200,97421,2,0,P|18:142|130:115,1,160,8|0,0:0|0:0,0:0:0:0:
177,156,97929,5,0,0:0:0:0:
177,156,98014,1,0,0:0:0:0:
177,156,98099,1,0,0:0:0:0:
148,19,98268,1,0,0:0:0:0:
256,93,98438,2,0,P|274:59|275:19,1,80,0|0,0:0|0:0,0:0:0:0:
177,156,98777,2,0,P|138:227|138:304,1,160,8|0,0:0|0:0,0:0:0:0:
195,371,99285,1,0,0:0:0:0:
195,371,99370,1,0,0:0:0:0:
195,371,99455,6,0,L|282:340,1,80,0|0,0:0|0:0,0:0:0:0:
353,314,99794,1,0,0:0:0:0:
264,183,99963,6,0,L|339:209,1,80,0|8,0:0|0:0,0:0:0:0:
422,238,100302,1,0,0:0:0:0:
441,38,100472,6,0,L|475:110,1,80,0|0,0:0|0:0,0:0:0:0:
512,191,100810,1,0,0:0:0:0:
422,238,100980,5,0,0:0:0:0:
508,295,101149,1,0,0:0:0:0:
512,191,101488,5,8,0:0:0:0:
422,238,101658,1,0,0:0:0:0:
508,295,101827,1,0,0:0:0:0:
508,295,101912,1,0,0:0:0:0:
508,295,101997,1,0,0:0:0:0:
508,295,102082,1,0,0:0:0:0:
508,295,102166,6,0,P|462:326|448:361,1,80,0|0,0:0|0:0,0:0:0:0:
379,380,102505,2,0,P|360:345|327:323,1,80,0|0,0:0|0:0,0:0:0:0:
222,361,102844,2,0,P|287:314|290:220,1,160,8|0,0:0|0:0,0:0:0:0:
222,138,103353,2,0,P|299:131|357:182,1,160,8|0,0:1|0:0,0:0:0:0:
189,245,103861,1,0,0:0:0:0:
189,245,103946,1,0,0:0:0:0:
189,245,104031,1,0,0:0:0:0:
189,245,104116,1,0,0:0:0:0:
189,245,104200,6,0,P|145:264|103:260,1,80,8|0,0:0|0:0,0:0:0:0:
222,138,104539,1,0,0:0:0:0:
304,202,104709,1,8,0:0:0:0:
244,8,104878,6,0,P|274:33|290:70,1,80
304,202,105217,1,0,0:0:0:0:
304,202,105387,1,0,0:0:0:0:
324,330,105556,6,0,P|354:305|370:268,1,80,0|0,0:0|0:0,0:0:0:0:
355,136,105895,1,0,0:0:0:0:
355,136,106065,1,0,0:0:0:0:
245,272,106234,1,0,0:0:0:0:
295,345,106404,6,0,P|218:356|161:303,1,160,8|4,3:0|3:0,0:0:0:0:
111,114,106912,1,4,3:0:0:0:
96,217,107082,1,0,3:0:0:0:
279,148,107251,2,0,L|207:182,1,80,8|0,0:2|3:0,0:0:0:0:
162,26,107590,6,0,P|203:60|277:58,1,100,4|0,0:1|0:0,0:0:0:0:
24,154,107929,2,0,P|76:144|122:86,1,100,0|0,3:0|0:0,0:0:0:0:
162,26,108268,2,0,L|118:244,1,200,0|0,3:0|3:0,0:0:0:0:
100,320,108777,1,0,2:0:0:0:
100,320,108861,1,0,2:0:0:0:
99,319,108946,6,0,P|137:352|186:360,1,100,2|0,3:2|0:0,0:0:0:0:
342,279,109285,2,0,L|238:297,1,100,0|0,3:0|0:0,0:0:0:0:
191,137,109624,2,0,P|228:104|276:95,1,100,0|0,3:0|0:0,0:0:0:0:
370,255,109963,2,0,P|386:208|377:160,1,100,2|0,3:0|3:0,0:0:0:0:
321,0,110302,6,0,P|273:86|267:185,1,200,2|0,3:2|3:0,0:0:0:0:
459,255,110810,2,0,P|507:169|513:70,1,200,0|0,0:0|0:0,0:0:0:0:
302,256,111319,1,0,3:0:0:0:
388,293,111488,1,0,2:0:0:0:
388,293,111573,1,0,2:0:0:0:
388,293,111658,6,0,P|416:344|411:384,1,100,2|0,3:2|3:0,0:0:0:0:
302,256,111997,1,0,3:0:0:0:
465,157,112166,1,0,2:0:0:0:
465,157,112251,1,0,2:0:0:0:
465,157,112336,6,0,P|414:185|374:180,1,100,2|2,3:3|3:3,0:0:0:0:
243,98,112675,2,0,L|260:0,1,100,2|0,3:3|0:0,0:0:0:0:
62,102,113014,6,0,P|105:124|127:169,1,100,6|0,0:2|0:0,0:0:0:0:
143,253,113353,2,0,P|186:230|208:185,1,100,0|0,3:0|0:0,0:0:0:0:
298,354,113692,2,0,L|281:256,1,100,0|0,3:0|0:0,0:0:0:0:
365,237,114031,2,0,P|342:194|297:172,1,100,2|2,3:0|3:0,0:0:0:0:
87,324,114370,5,2,3:2:0:0:
166,369,114539,1,0,0:0:0:0:
87,324,114709,2,0,L|-11:355,1,100,0|0,3:0|0:0,0:0:0:0:
186,225,115048,2,0,L|281:255,1,100,2|0,3:3|0:0,0:0:0:0:
93,84,115387,1,2,3:3:0:0:
93,84,115556,1,2,3:3:0:0:
179,303,115726,6,0,P|277:301|337:218,1,200,2|2,3:2|3:0,0:0:0:0:
436,58,116234,2,0,P|338:60|278:143,1,200,0|0,0:0|0:0,0:0:0:0:
393,300,116743,2,0,L|494:318,1,100,0|0,3:0|2:0,0:0:0:0:
470,226,116997,1,0,2:0:0:0:
470,226,117082,6,0,L|371:208,1,100,2|0,0:0|0:0,0:0:0:0:
205,353,117421,2,0,L|155:361,4,50,8|0|0|0|10,3:0|3:0|1:0|1:0|0:0,0:0:0:0:
293,337,117929,1,8,3:3:0:0:
160,161,118099,2,0,P|214:161|252:196,1,100,4|4,0:3|0:3,0:0:0:0:
237,278,118438,1,4,0:3:0:0:
429,365,118607,6,0,P|482:259|482:140,1,239.999992675781,12|4,0:2|3:0,0:0:0:0:
215,89,119116,2,0,P|161:194|161:313,1,239.999992675781,12|8,0:0|0:0,0:0:0:0:
361,307,119624,1,8,0:0:0:0:
361,307,119709,1,8,0:0:0:0:
361,307,119794,6,0,L|348:223,1,80,4|0,3:1|0:0,0:0:0:0:
273,290,120133,2,0,L|260:210,1,80,0|0,3:0|3:0,0:0:0:0:
185,273,120472,2,0,L|172:193,1,80,8|0,0:0|0:0,0:0:0:0:
97,256,120810,2,0,L|84:176,1,80,0|0,3:0|0:0,0:0:0:0:
30,114,121065,1,0,0:0:0:0:
30,114,121149,6,0,P|64:74|103:71,1,80,0|8,3:0|0:0,0:0:0:0:
128,0,121488,2,0,P|179:9|201:41,1,80,0|0,3:0|3:0,0:0:0:0:
287,135,121827,2,0,L|208:119,1,80,8|0,0:0|0:0,0:0:0:0:
295,42,122166,2,0,L|373:26,1,80,0|0,3:0|3:0,0:0:0:0:
477,25,122505,6,0,P|447:86|440:209,1,160,0|0,3:0|3:0,0:0:0:0:
463,252,123014,1,0,3:0:0:0:
292,263,123183,2,0,L|370:247,1,80,8|0,0:0|0:0,0:0:0:0:
463,252,123522,1,0,3:0:0:0:
349,170,123692,1,0,0:0:0:0:
299,343,123861,6,0,P|259:340|230:314,1,80,0|8,3:0|0:0,0:0:0:0:
199,162,124200,2,0,L|173:237,1,80,0|0,3:0|3:0,0:0:0:0:
60,277,124539,2,0,L|85:201,1,80,12|0,0:2|0:0,0:0:0:0:
143,43,124878,1,0,3:0:0:0:
194,147,125048,1,0,2:0:0:0:
194,147,125133,1,0,2:0:0:0:
194,147,125217,5,4,3:1:0:0:
143,43,125387,1,0,0:0:0:0:
275,57,125556,2,0,P|311:74|351:72,1,80,0|0,3:0|3:0,0:0:0:0:
486,157,125895,2,0,L|407:171,1,80,12|0,0:2|0:0,0:0:0:0:
395,5,126234,2,0,P|430:22|452:55,1,80,0|0,3:0|0:0,0:0:0:0:
354,253,126573,5,4,3:2:0:0:
354,253,126743,1,8,0:0:0:0:
184,219,126912,2,0,L|262:233,1,80,0|0,3:0|0:0,0:0:0:0:
89,200,127251,1,0,3:0:0:0:
265,100,127421,1,0,3:0:0:0:
265,100,127505,1,8,0:0:0:0:
265,100,127590,1,8,0:0:0:0:
84,0,127760,1,0,0:0:0:0:
189,269,127929,6,0,P|208:166|136:52,1,239.999992675781,4|8,0:1|0:0,0:0:0:0:
0,88,128438,2,0,P|-19:191|53:305,1,239.999992675781,4|0,0:2|3:0,0:0:0:0:
310,207,128946,1,10,0:2:0:0:
271,371,129116,5,0,0:0:0:0:
271,371,129200,1,8,0:3:0:0:
271,371,129285,1,8,0:3:0:0:
373,147,129455,1,10,0:0:0:0:
374,338,129624,2,0,P|404:274|383:214,1,119.999996337891,0|0,0:0|3:0,0:0:0:0:
200,54,129963,2,0,P|170:118|191:178,1,119.999996337891,8|0,0:0|3:0,0:0:0:0:
490,171,130302,2,0,L|361:144,1,119.999996337891,8|0,0:0|0:0,0:0:0:0:
453,70,130641,5,4,3:1:0:0:
251,118,130980,1,0,0:0:0:0:
251,118,131149,1,2,0:0:0:0:
251,118,131319,1,0,0:0:0:0:
251,118,131488,1,2,0:0:0:0:
77,160,131658,2,0,L|194:184,1,119.999996337891,2|2,0:0|3:2,0:0:0:0:
453,70,131997,5,4,0:1:0:0:
287,205,132166,1,8,0:0:0:0:
287,205,132251,1,0,3:0:0:0:
287,205,132336,1,8,3:3:0:0:
298,8,132505,2,0,P|343:61|330:128,1,119.999996337891,8|0,0:2|0:0,0:0:0:0:
183,295,132844,2,0,L|112:281,2,59.9999981689454,2|2|8,3:2|0:2|0:2,0:0:0:0:
497,330,133183,1,10,0:2:0:0:
497,330,133268,1,8,0:0:0:0:
497,330,133353,6,0,B|436:290|363:322|394:362|331:405|261:363,1,259.999988098145,4|8,3:1|0:0,0:0:0:0:
398,243,133861,2,0,P|345:200|279:208,1,129.999994049073,0|0,0:0|3:0,0:0:0:0:
159,93,134200,2,0,L|291:125,1,129.999994049073,0|8,3:0|0:0,0:0:0:0:
507,181,134539,5,0,2:0:0:0:
507,181,134624,1,0,2:0:0:0:
507,181,134709,1,0,3:0:0:0:
342,19,134878,2,0,P|371:75|431:96,1,129.999994049073,0|8,0:0|0:0,0:0:0:0:
306,317,135217,2,0,P|366:298|397:242,1,129.999994049073,0|0,0:0|3:0,0:0:0:0:
286,204,135556,2,0,L|159:234,1,129.999994049073,0|8,3:0|0:0,0:0:0:0:
38,40,135895,5,0,2:0:0:0:
38,40,135980,1,0,2:0:0:0:
38,40,136065,1,0,3:0:0:0:
215,64,136234,2,0,P|154:84|125:140,1,129.999994049073,0|8,0:0|0:0,0:0:0:0:
70,310,136573,2,0,P|130:289|159:233,1,129.999994049073,0|0,0:0|3:0,0:0:0:0:
406,105,136912,2,0,L|270:133,1,129.999994049073,0|8,3:0|0:0,0:0:0:0:
0,174,137251,5,0,2:0:0:0:
0,174,137336,1,0,2:0:0:0:
0,174,137421,1,0,3:0:0:0:
215,64,137590,1,0,0:0:0:0:
265,286,137760,2,0,P|201:289|153:247,1,129.999994049073,8|0,0:0|0:0,0:0:0:0:
309,36,138099,1,0,3:0:0:0:
371,231,138268,1,8,0:0:0:0:
371,231,138353,1,8,0:0:0:0:
371,231,138438,1,8,0:0:0:0:
421,10,138607,1,4,3:0:0:0:
421,10,138692,1,0,3:0:0:0:
421,10,138777,6,0,P|464:71|451:143,1,129.999994049073,4|0,3:1|0:0,0:0:0:0:
259,181,139116,1,8,0:0:0:0:
443,328,139285,2,0,L|416:196,1,129.999994049073,0|2,0:0|0:3,0:0:0:0:
226,85,139624,1,0,3:0:0:0:
512,183,139794,1,8,0:0:0:0:
180,226,139963,6,0,P|228:267|292:268,1,129.999994049073,4|0,0:1|0:0,0:0:0:0:
344,170,140302,1,0,3:0:0:0:
82,19,140472,6,0,L|55:146,1,129.999994049073,8|0,0:0|0:0,0:0:0:0:
128,321,140810,2,0,P|64:309|23:259,1,129.999994049073,0|0,3:0|3:0,0:0:0:0:
235,39,141149,1,8,0:0:0:0:
235,39,141319,1,0,0:0:0:0:
429,172,141488,5,12,0:2:0:0:
147,166,141658,2,0,P|195:125|259:124,1,129.999994049073,0|0,0:0|3:0,0:0:0:0:
397,261,141997,5,8,0:0:0:0:
255,29,142166,2,0,L|378:69,1,129.999994049073,0|0,3:0|3:0,0:0:0:0:
460,330,142505,5,12,0:2:0:0:
205,317,142675,2,0,P|236:261|224:198,1,129.999994049073,4|0,3:0|3:0,0:0:0:0:
76,21,143014,5,8,0:0:0:0:
76,21,143099,1,0,2:0:0:0:
76,21,143183,1,0,2:0:0:0:
154,248,143353,1,0,3:0:0:0:
76,21,143522,6,0,B|144:-20|207:22|176:62|249:94|310:54,1,259.999988098145,8|10,0:0|0:0,0:0:0:0:
417,4,144031,1,8,0:0:0:0:
417,4,144116,1,8,0:0:0:0:
417,4,144200,6,0,L|375:142,1,129.999994049073,4|0,3:1|0:0,0:0:0:0:
437,229,144539,1,8,0:0:0:0:
169,298,144709,2,0,P|232:296|281:255,1,129.999994049073,0|0,0:0|3:0,0:0:0:0:
485,319,145048,2,0,L|344:351,1,129.999994049073,0|8,3:0|0:0,0:0:0:0:
205,101,145387,6,0,P|268:103|317:144,1,129.999994049073,0|0,3:0|3:0,0:0:0:0:
346,368,145726,2,0,P|283:366|234:325,1,129.999994049073,0|8,0:0|0:0,0:0:0:0:
122,32,146065,2,0,L|90:173,1,129.999994049073,0|0,0:0|3:0,0:0:0:0:
39,384,146404,2,0,L|67:257,1,129.999994049073,0|8,3:0|0:0,0:0:0:0:
244,183,146743,6,0,P|212:238|153:262,1,129.999994049073,0|0,3:0|3:0,0:0:0:0:
105,18,147082,2,0,P|168:17|219:56,1,129.999994049073,0|8,0:0|0:0,0:0:0:0:
36,299,147421,2,0,P|86:338|150:337,1,129.999994049073,0|0,0:0|3:0,0:0:0:0:
433,85,147760,2,0,L|292:117,1,129.999994049073,0|8,3:0|0:0,0:0:0:0:
117,154,148099,2,0,L|258:186,1,129.999994049073,0|0,3:0|3:0,0:0:0:0:
483,243,148438,5,0,0:0:0:0:
483,243,148607,1,8,0:0:0:0:
287,296,148777,1,0,0:0:0:0:
483,243,148946,2,0,P|451:181|466:109,1,129.999994049073,0|0,3:0|3:0,0:0:0:0:
203,101,149285,1,4,3:0:0:0:
316,130,149455,1,8,0:3:0:0:
119,254,149624,6,0,P|182:249|232:209,1,129.999994049073,6|0,3:2|0:0,0:0:0:0:
203,101,149963,1,8,0:0:0:0:
54,159,150133,6,0,P|-18:222|0:316,1,200,4|0,3:1|3:0,0:0:0:0:
232,208,150641,1,8,0:0:0:0:
74,351,150810,6,0,L|291:314,1,200,2|8,0:3|3:3,0:0:0:0:
360,301,151319,5,8,3:3:0:0:
360,301,151488,1,4,3:3:0:0:
435,350,151658,1,2,3:0:0:0:
442,260,151827,1,0,0:0:0:0:
366,210,151997,1,2,3:0:0:0:
366,210,152336,6,0,P|390:140|382:45,1,160,6|0,3:2|0:0,0:0:0:0:
298,39,152844,1,0,3:0:0:0:
298,39,152929,1,0,0:0:0:0:
298,39,153014,2,0,P|274:109|282:204,1,160,8|0,0:0|3:0,0:0:0:0:
102,188,153522,1,2,3:0:0:0:
102,188,153692,6,0,P|141:183|174:162,1,80,2|8,3:0|0:0,0:0:0:0:
130,24,154031,2,0,L|114:117,1,80,0|0,3:0|3:0,0:0:0:0:
212,319,154370,2,0,L|225:240,1,80,8|0,0:0|0:0,0:0:0:0:
111,322,154709,2,0,P|77:343|38:348,1,80,2|0,3:0|0:0,0:0:0:0:
212,319,155048,5,4,0:1:0:0:
212,319,155217,1,8,0:0:0:0:
163,245,155387,1,0,3:0:0:0:
250,236,155556,1,0,0:0:0:0:
184,100,155726,2,0,P|223:105|256:126,1,80,8|0,0:0|0:0,0:0:0:0:
304,308,156065,2,0,P|343:302|376:281,1,80,0|0,3:3|3:0,0:0:0:0:
469,173,156404,6,0,L|379:157,1,80,12|0,0:0|0:0,0:0:0:0:
277,47,156743,2,0,L|355:61,1,80,0|8,3:0|0:0,0:0:0:0:
437,80,156997,1,8,0:0:0:0:
437,80,157082,1,8,0:0:0:0:
256,126,157251,1,8,0:0:0:0:
469,173,157421,1,8,0:0:0:0:
437,80,157590,6,0,P|375:179|404:293,1,239.999992675781,4|0,3:2|3:0,0:0:0:0:
464,352,158099,1,8,0:0:0:0:
299,354,158268,6,0,B|241:391|174:362|203:325|145:286|81:324,1,240,2|0,3:3|3:0,0:0:0:0:
17,379,158777,1,8,0:0:0:0:
212,170,158946,6,0,P|95:165|11:247,1,239.999992675781,4|8,3:1|3:3,0:0:0:0:
252,277,159455,1,4,3:0:0:0:
252,277,159624,6,0,L|370:255,1,119.999996337891,0|4,3:0|3:0,0:0:0:0:
499,233,159963,1,0,3:0:0:0:
499,233,160048,1,0,3:0:0:0:
499,233,160133,1,4,3:0:0:0:
351,74,160302,6,0,P|417:78|454:121,1,119.999996337891,4|0,3:1|0:0,0:0:0:0:
252,277,160641,1,0,2:0:0:0:
252,277,160726,1,0,2:0:0:0:
252,277,160810,1,8,0:0:0:0:
249,21,160980,6,0,L|227:139,1,119.999996337891,4|0,3:2|0:0,0:0:0:0:
65,261,161319,2,0,P|123:260|165:219,1,119.999996337891,0|8,3:0|0:0,0:0:0:0:
379,154,161658,6,0,L|401:272,1,119.999996337891,4|0,3:2|0:0,0:0:0:0:
249,300,161997,1,2,0:0:0:0:
418,350,162336,1,2,0:0:0:0:
249,300,162675,5,2,3:2:0:0:
372,183,162844,1,8,3:0:0:0:
272,27,163014,6,0,P|223:58|165:53,1,100,4|0,0:1|0:0,0:0:0:0:
91,15,163353,1,0,3:0:0:0:
91,15,163522,1,12,0:0:0:0:
19,171,163692,2,0,L|137:193,1,100,0|2,0:0|3:0,0:0:0:0:
215,210,164031,1,0,3:0:0:0:
215,210,164200,1,8,0:0:0:0:
405,60,164370,6,0,P|311:44|256:121,1,200,4|0,0:1|3:0,0:0:0:0:
411,152,164878,2,0,L|509:133,1,100,8|0,0:0|0:0,0:0:0:0:
415,361,165217,2,0,P|379:326|366:279,1,100,2|0,3:0|3:0,0:0:0:0:
411,152,165556,2,0,P|446:186|459:233,1,100,8|0,0:0|3:0,0:0:0:0:
282,361,165895,6,0,L|83:338,1,200,2|8,3:0|0:0,0:0:0:0:
52,160,166404,1,0,2:0:0:0:
52,160,166488,1,0,2:0:0:0:
52,160,166573,1,0,3:0:0:0:
128,268,166743,2,0,P|164:233|177:186,1,100,0|8,3:0|0:0,0:0:0:0:
110,10,167082,6,0,L|133:122,1,100,4|0,0:1|0:0,0:0:0:0:
320,141,167421,2,0,P|279:111|230:106,1,100,0|8,3:0|0:0,0:0:0:0:
63,320,167760,2,0,P|103:349|152:354,1,100,0|0,0:0|3:0,0:0:0:0:
176,186,168099,1,8,0:0:0:0:
176,186,168183,1,8,0:0:0:0:
176,186,168268,1,8,0:0:0:0:
275,348,168438,1,8,0:0:0:0:
275,348,168522,1,8,0:0:0:0:
275,348,168607,6,0,L|383:332,1,100,4|0,3:1|3:0,0:0:0:0:
504,231,168946,2,0,L|405:245,1,100,8|0,0:0|0:0,0:0:0:0:
235,66,169285,5,2,3:3:0:0:
235,66,169455,1,0,3:0:0:0:
374,121,169624,1,8,0:0:0:0:
374,121,169794,1,0,0:0:0:0:
257,214,169963,5,2,3:3:0:0:
374,121,170133,1,0,3:0:0:0:
441,254,170302,1,8,0:0:0:0:
257,214,170472,5,8,0:0:0:0:
257,214,170556,1,8,0:0:0:0:
257,214,170641,1,2,3:3:0:0:
374,121,170810,1,0,3:0:0:0:
511,186,170980,1,8,0:0:0:0:
511,186,171149,1,2,0:0:0:0:
352,217,171319,5,4,3:1:0:0:
345,36,171488,2,0,P|394:35|436:60,1,100,0|8,3:0|0:0,0:0:0:0:
511,186,171827,1,0,0:0:0:0:
376,312,171997,6,0,P|326:312|284:287,1,100,2|0,3:3|3:0,0:0:0:0:
175,358,172336,2,0,L|149:231,1,100,8|8,0:0|0:0,0:0:0:0:
69,252,172590,1,8,0:0:0:0:
69,252,172675,2,0,L|43:125,1,100,2|0,3:3|3:0,0:0:0:0:
219,158,173014,1,8,0:0:0:0:
11,81,173183,6,0,P|42:42|88:26,1,100,0|8,3:0|0:0,0:0:0:0:
219,158,173522,1,4,3:0:0:0:
161,75,173692,1,8,3:0:0:0:
260,64,173861,1,0,3:0:0:0:
349,294,174031,5,4,3:1:0:0:
453,38,174200,2,0,P|403:37|361:62,1,100,8|4,0:0|3:0,0:0:0:0:
223,272,174539,2,0,P|303:286|401:197,1,200,4|0,3:2|3:0,0:0:0:0:
48,154,175048,1,8,0:0:0:0:
48,154,175387,5,4,0:1:0:0:
260,64,177251,1,2,0:0:0:0:
260,64,177336,1,2,0:0:0:0:
260,64,177421,1,2,0:0:0:0:
235,139,177590,1,2,0:0:0:0:
402,78,177760,1,2,0:3:0:0:
402,78,178099,6,0,P|436:63|463:64,1,59.9999981689454
482,149,178438,1,2,3:2:0:0:
482,149,178607,2,0,P|448:164|421:163,1,59.9999981689454,2|8,0:2|0:2,0:0:0:0:
333,208,178946,2,0,L|348:145,1,59.9999981689454,2|8,0:2|0:0,0:0:0:0:
327,16,179285,6,0,L|313:74,1,59.9999981689454,2|0,0:2|3:0,0:0:0:0:
200,57,179624,2,0,P|211:84|233:104,1,59.9999981689454,2|0,0:2|3:0,0:0:0:0:
226,192,179963,2,0,L|167:205,1,59.9999981689454,2|8,0:2|0:0,0:0:0:0:
90,185,180302,2,0,P|101:157|123:137,1,59.9999981689454,2|0,0:2|0:0,0:0:0:0:
30,244,180641,6,0,L|43:302,1,59.9999981689454,2|0,0:2|3:0,0:0:0:0:
122,306,180980,2,0,L|108:364,1,59.9999981689454,2|0,0:2|3:0,0:0:0:0:
191,249,181319,2,0,L|204:307,1,59.9999981689454,2|8,0:2|0:0,0:0:0:0:
283,311,181658,2,0,L|269:369,1,59.9999981689454,2|0,0:2|3:0,0:0:0:0:
269,369,181997,1,2,3:2:0:0:
368,354,182166,5,2,3:2:0:0:
368,354,182844,2,0,P|412:348|435:330,1,59.9999981689454,8|0,0:0|0:0,0:0:0:0:
400,257,183183,2,0,P|356:263|333:281,1,59.9999981689454,0|0,0:0|0:0,0:0:0:0:
183,293,183522,6,0,P|240:290|287:330,1,119.999996337891,0|0,3:2|3:0,0:0:0:0:
158,52,184200,2,0,P|202:58|225:76,1,59.9999981689454,8|0,0:0|0:0,0:0:0:0:
190,149,184539,2,0,P|146:143|123:125,1,59.9999981689454,8|0,0:0|0:0,0:0:0:0:
73,78,184878,6,0,L|92:205,1,119.999996337891,0|0,3:2|3:0,0:0:0:0:
105,280,185387,5,0,3:0:0:0:
105,280,185472,1,0,3:0:0:0:
105,280,185556,1,4,3:0:0:0:
190,149,185726,1,8,3:0:0:0:
190,149,185810,1,8,3:0:0:0:
190,149,185895,1,4,3:0:0:0:
284,274,186065,1,0,3:0:0:0:
3,199,186234,5,0,1:3:0:0:
3,199,188268,6,0,P|52:141|113:142,1,129.999994049073,4|0,1:2|0:0,0:0:0:0:
275,13,188607,2,0,L|309:173,1,129.999994049073,4|0,1:2|0:0,0:0:0:0:
419,184,188946,6,0,P|413:248|384:280,1,100,4|0,0:1|0:0,0:0:0:0:
274,230,189285,2,0,P|280:166|309:134,1,100,2|0,1:2|1:0,0:0:0:0:
323,351,189624,2,0,L|201:365,1,100,2|0,1:2|1:0,0:0:0:0:
15,312,189963,2,0,L|114:300,1,100,2|0,1:2|1:0,0:0:0:0:
80,140,190302,6,0,P|127:153|159:191,1,100,2|0,1:2|1:0,0:0:0:0:
264,162,190641,2,0,L|252:261,1,100,2|0,1:2|1:0,0:0:0:0:
391,384,190980,2,0,P|438:370|470:332,1,100,2|0,1:2|1:0,0:0:0:0:
424,41,191319,2,0,P|376:54|344:92,1,100,2|0,1:2|1:0,0:0:0:0:
220,329,191658,5,2,1:2:0:0:
220,329,191827,1,0,1:0:0:0:
53,284,191997,1,2,1:2:0:0:
53,284,192166,1,0,1:0:0:0:
98,118,192336,1,2,1:2:0:0:
98,118,192505,1,0,1:0:0:0:
264,162,192675,1,2,1:2:0:0:
264,162,192844,1,0,1:0:0:0:
156,232,193014,5,0,1:0:0:0:
211,39,193183,1,0,1:0:0:0:
382,142,193353,1,0,1:0:0:0:
156,232,193522,5,0,1:0:0:0:
328,334,193692,1,0,1:0:0:0:
382,142,193861,1,0,1:0:0:0:
237,277,194031,5,0,1:0:0:0:
282,32,194200,1,0,1:0:0:0:
458,209,194370,6,0,P|452:274|414:313,1,100,4|0,1:2|0:0,0:0:0:0:
243,182,194709,1,0,1:2:0:0:
13,329,194878,2,0,L|112:342,1,100,4|0,0:0|0:0,0:0:0:0:
243,182,195217,2,0,L|144:169,1,100,0|0,3:0|1:0,0:0:0:0:
25,232,195556,6,0,P|-1:190|0:140,1,100,4|0,1:2|0:0,0:0:0:0:
100,16,195895,1,0,3:2:0:0:
100,16,195980,1,0,3:0:0:0:
100,16,196065,1,8,0:0:0:0:
147,199,196234,1,8,3:0:0:0:
147,199,196319,1,0,3:0:0:0:
147,199,196404,1,8,0:0:0:0:
291,76,196573,1,8,3:0:0:0:
291,76,196658,1,0,3:0:0:0:
291,76,196743,1,8,0:0:0:0:
174,102,196912,1,0,3:0:0:0:
174,102,196997,1,0,3:0:0:0:
174,102,197082,5,4,3:2:0:0:
430,164,197251,2,0,L|320:185,1,100,8|0,0:0|3:0,0:0:0:0:
88,280,197590,2,0,B|166:297|166:297|195:336|195:336|279:357,1,200,8|0,0:2|3:0,0:0:0:0:
107,372,198099,1,8,0:2:0:0:
261,259,198268,6,0,L|240:149,1,100,4|0,3:2|0:0,0:0:0:0:
236,66,198607,2,0,P|284:74|321:107,1,100,4|4,3:3|3:3,0:0:0:0:
264,353,198946,1,4,3:0:0:0:
264,353,199031,1,8,0:0:0:0:
264,353,199116,1,8,0:0:0:0:
464,93,199285,1,8,0:0:0:0:
464,93,199794,6,0,L|488:229,1,119.999996337891,0|0,1:0|0:0,0:0:0:0:
329,237,200133,6,0,P|264:280|193:261,1,139.999995727539,4|0,1:2|0:0,0:0:0:0:
134,183,200472,1,0,0:0:0:0:
265,10,200641,2,0,P|327:56|334:129,1,139.999995727539,0|8,3:0|0:0,0:0:0:0:
512,199,200980,5,4,3:1:0:0:
512,199,201065,1,0,3:0:0:0:
512,199,201149,1,0,3:0:0:0:
286,325,201319,2,0,L|424:345,1,139.999995727539,0|8,3:0|0:0,0:0:0:0:
272,203,201658,2,0,L|133:182,1,139.999995727539,0|0,0:0|3:0,0:0:0:0:
159,0,201997,2,0,P|96:26|68:89,1,139.999995727539,0|8,3:0|0:0,0:0:0:0:
132,337,202336,5,0,0:0:0:0:
132,337,202421,1,0,0:0:0:0:
132,337,202505,1,0,3:0:0:0:
180,127,202675,2,0,P|210:182|285:200,1,139.999995727539,0|8,0:0|0:0,0:0:0:0:
506,86,203014,2,0,L|352:112,1,139.999995727539,0|0,0:0|3:0,0:0:0:0:
159,0,203353,2,0,L|313:26,1,139.999995727539,0|8,3:0|0:0,0:0:0:0:
57,274,203692,5,0,2:0:0:0:
57,274,203777,1,0,2:0:0:0:
57,274,203861,1,0,3:0:0:0:
269,114,204031,1,0,0:0:0:0:
269,114,204200,1,8,0:0:0:0:
325,356,204370,2,0,L|350:218,1,139.999995727539,0|0,0:0|3:0,0:0:0:0:
282,21,204709,2,0,P|337:51|357:124,1,139.999995727539,0|8,3:0|0:0,0:0:0:0:
252,215,205048,1,0,2:0:0:0:
252,215,205133,1,0,2:0:0:0:
252,215,205217,6,0,L|100:239,1,139.999995727539,0|0,3:0|0:0,0:0:0:0:
404,384,205556,2,0,P|459:353|475:280,1,139.999995727539,8|0,0:0|0:0,0:0:0:0:
278,58,205895,1,0,3:0:0:0:
278,58,206065,1,0,3:0:0:0:
393,298,206234,1,8,0:0:0:0:
278,58,206404,6,0,P|223:89|205:162,1,139.999995727539,4|0,3:1|0:0,0:0:0:0:
123,348,206743,2,0,L|261:326,1,139.999995727539,0|8,3:0|0:0,0:0:0:0:
413,125,207082,2,0,P|468:156|486:227,1,139.999995727539,0|0,0:0|3:0,0:0:0:0:
353,381,207421,1,0,2:0:0:0:
353,381,207505,1,0,2:0:0:0:
353,381,207590,1,8,0:0:0:0:
284,148,207760,1,0,2:0:0:0:
284,148,207844,1,0,2:0:0:0:
284,148,207929,6,0,P|321:96|394:87,1,139.999995727539,0|0,3:0|0:0,0:0:0:0:
485,217,208268,1,8,0:0:0:0:
176,78,208438,2,0,L|141:233,1,139.999995727539,0|0,0:0|3:0,0:0:0:0:
110,365,208777,1,0,3:0:0:0:
110,365,208861,1,8,0:0:0:0:
110,365,208946,1,8,0:0:0:0:
39,102,209116,6,0,P|127:-1|257:21,1,279.999991455078,4|0,3:1|3:0,0:0:0:0:
284,148,209624,2,0,L|319:303,1,139.999995727539,8|0,0:0|0:0,0:0:0:0:
406,1,209963,1,8,0:0:0:0:
403,14,210048,1,8,0:0:0:0:
400,27,210133,1,8,0:0:0:0:
397,40,210217,1,8,0:0:0:0:
394,54,210302,1,8,0:0:0:0:
391,67,210388,1,8,0:0:0:0:
388,80,210472,1,8,0:0:0:0:
386,94,210557,1,8,0:0:0:0:
384,108,210641,6,0,P|431:161|505:157,1,139.999995727539,4|0,3:1|0:0,0:0:0:0:
262,0,210980,1,8,0:0:0:0:
347,239,211149,2,0,L|210:269,1,139.999995727539,0|0,0:0|3:0,0:0:0:0:
122,287,211488,2,0,P|136:217|202:184,1,139.999995727539,0|8,3:0|0:0,0:0:0:0:
465,83,211827,6,0,L|328:52,1,139.999995727539,0|0,3:0|3:0,0:0:0:0:
8,123,212166,2,0,P|78:133|132:82,1,139.999995727539,0|8,0:0|0:0,0:0:0:0:
217,5,212505,2,0,L|242:143,1,139.999995727539,0|0,0:0|3:0,0:0:0:0:
285,384,212844,2,0,L|260:246,1,139.999995727539,0|8,3:0|0:0,0:0:0:0:
6,332,213183,5,0,2:0:0:0:
6,332,213268,1,0,2:0:0:0:
6,332,213353,1,0,3:0:0:0:
160,255,213522,2,0,P|109:217|35:218,1,139.999995727539,0|8,3:0|0:0,0:0:0:0:
6,332,213861,2,0,P|57:370|131:369,1,139.999995727539,0|0,0:0|3:0,0:0:0:0:
352,109,214200,2,0,L|207:157,1,139.999995727539,0|8,3:0|0:0,0:0:0:0:
68,21,214539,2,0,L|213:69,1,139.999995727539,0|0,3:0|3:0,0:0:0:0:
493,168,214878,5,0,2:0:0:0:
493,168,214963,1,0,2:0:0:0:
493,168,215048,1,8,0:0:0:0:
281,274,215217,1,0,2:0:0:0:
281,274,215302,1,0,2:0:0:0:
281,274,215387,1,0,3:0:0:0:
494,380,215556,1,0,1:0:0:0:
494,380,215641,1,0,1:0:0:0:
494,380,215726,1,0,1:0:0:0:
174,339,215895,1,0,1:0:0:0:
174,339,215980,1,0,1:0:0:0:
174,339,216065,6,0,P|152:272|82:230,1,139.999995727539,4|0,1:2|0:0,0:0:0:0:
23,318,216404,1,0,1:0:0:0:
281,274,216573,2,0,P|337:234|357:168,1,139.999995727539,4|0,3:1|0:0,0:0:0:0:
339,57,216912,1,0,3:0:0:0:
104,92,217082,2,0,L|257:128,1,139.999995727539,0|4,1:0|3:2,0:0:0:0:
240,124,217590,5,0,1:0:0:0:
240,124,217760,1,0,1:0:0:0:
0,70,217929,1,4,3:0:0:0:
0,70,218099,1,0,1:0:0:0:
250,17,218268,1,0,0:0:0:0:
70,164,218438,1,0,1:0:0:0:
70,164,218777,6,0,P|106:211|99:272,1,100,6|0,3:2|0:0,0:0:0:0:
39,331,219116,2,0,L|151:355,1,100,0|0,0:0|3:0,0:0:0:0:
266,278,219455,1,8,0:0:0:0:
266,278,219794,1,0,3:0:0:0:
354,232,219963,1,2,3:0:0:0:
176,145,220133,6,0,P|224:149|262:182,1,100,2|8,3:0|0:0,0:0:0:0:
190,231,220472,2,0,L|92:251,1,100,0|0,3:0|0:0,0:0:0:0:
87,123,220810,2,0,P|127:35|221:10,1,200,8|2,0:0|3:0,0:0:0:0:
329,110,221319,5,0,1:0:0:0:
329,110,221404,1,0,1:0:0:0:
329,110,221488,1,6,3:2:0:0:
329,110,221827,2,0,L|347:2,1,100,0|0,3:0|3:0,0:0:0:0:
359,279,222166,2,0,L|377:171,1,100,8|0,0:0|0:0,0:0:0:0:
429,325,222505,2,0,P|392:357|343:361,1,100,0|2,3:0|3:0,0:0:0:0:
303,134,222844,6,0,P|339:101|388:97,1,100,2|8,3:0|0:0,0:0:0:0:
359,279,223183,2,0,L|260:295,1,100,0|0,3:0|3:0,0:0:0:0:
243,194,223522,2,0,L|144:177,1,100,8|0,0:0|0:0,0:0:0:0:
31,149,223861,1,2,3:0:0:0:
31,149,224031,1,10,3:0:0:0:
31,149,224200,5,4,3:1:0:0:
87,92,224539,1,2,0:3:0:0:
160,123,224878,1,8,0:0:0:0:
216,66,225217,1,2,0:3:0:0:
160,123,225387,1,0,3:0:0:0:
87,92,225556,5,4,0:3:0:0:
186,195,225726,2,0,L|176:250,2,50,0|0|4,3:0|3:0|3:0,0:0:0:0:
300,115,226065,2,0,L|308:65,2,50,0|0|8,3:0|3:0|3:0,0:0:0:0:
402,270,226404,2,0,L|412:325,2,50,0|0|0,3:0|3:0|3:0,0:0:0:0:
414,175,226743,2,0,L|405:125,2,50,0|0|4,3:0|0:0|2:1,0:0:0:0:
414,175,228946,5,0,3:0:0:0:
427,264,229116,1,0,3:0:0:0:
414,175,229285,1,2,0:3:0:0:
427,264,229455,1,0,3:0:0:0:
463,73,229624,5,4,0:2:0:0:
121,89,232505,6,0,L|63:77,2,50,2|0|0,0:0|0:0|0:0,0:0:0:0:
199,39,232844,2,0,L|257:27,2,50,2|0|0,0:0|0:0|0:0,0:0:0:0:
160,221,233183,6,0,L|102:209,2,50,2|0|0,0:0|0:0|0:0,0:0:0:0:
281,140,233522,2,0,L|329:129,2,50,4|0|0,0:0|0:0|0:0,0:0:0:0:
206,357,233861,6,0,L|148:345,2,50,4|0|0,0:0|0:0|0:0,0:0:0:0:
417,277,234200,5,0,3:0:0:0:
417,277,234285,1,0,3:0:0:0:
417,277,234370,1,8,0:0:0:0:
380,173,234539,1,0,3:0:0:0:
462,374,234709,1,8,0:0:0:0:
462,374,235048,6,0,P|496:330|493:275,1,100,4|0,0:1|0:0,0:0:0:0:
281,154,235387,2,0,L|399:176,1,100,2|0,3:2|0:0,0:0:0:0:
510,115,235726,2,0,L|411:96,1,100,0|0,3:0|0:0,0:0:0:0:
498,203,236065,1,2,3:2:0:0:
208,210,236234,6,0,P|186:165|195:117,1,100,12|0,0:2|0:0,0:0:0:0:
67,45,236743,2,0,L|165:26,1,100,2|0,3:2|0:0,0:0:0:0:
357,24,237082,2,0,P|329:64|283:81,1,100,2|0,3:2|0:0,0:0:0:0:
208,210,237421,2,0,L|306:229,1,100,2|0,3:2|0:0,0:0:0:0:
52,348,237760,6,0,P|89:316|138:311,1,100,4|0,0:2|0:0,0:0:0:0:
345,339,238099,2,0,P|307:370|258:375,1,100,2|0,3:2|0:0,0:0:0:0:
433,358,238438,2,0,L|448:259,1,100,0|0,3:0|0:0,0:0:0:0:
274,173,238777,1,2,3:2:0:0:
258,86,238946,6,0,P|307:90|345:121,1,100,12|0,0:2|0:0,0:0:0:0:
255,258,239285,1,0,0:0:0:0:
448,259,239455,2,0,P|409:290|360:294,1,100,0|8,3:0|3:2,0:0:0:0:
132,314,239794,2,0,L|228:339,1,100,0|4,3:0|3:0,3:0:0:0:
103,215,240133,2,0,L|6:240,1,100,4|0,3:0|3:0,3:0:0:0:
233,27,240472,6,0,L|203:235,2,200,4|2|0,0:1|3:2|3:0,0:0:0:0:
352,167,241319,2,0,P|407:152|436:109,1,100,0|2,0:0|3:2,0:0:0:0:
441,9,241658,1,12,0:2:0:0:
504,286,241997,6,0,P|481:242|488:193,1,100,0|8,3:0|3:3,0:0:0:0:
391,257,242336,2,0,L|366:354,1,100,0|4,3:0|3:3,0:0:0:0:
352,167,242675,1,4,3:3:0:0:
352,167,242760,1,4,3:3:0:0:
352,167,242844,1,0,3:0:0:0:
374,374,243014,1,4,3:1:0:0:
256,192,243099,12,0,248607,0:0:0:0:
