osu file format v14

[General]
AudioFilename: audio.mp3
AudioLeadIn: 0
PreviewTime: 133274
Countdown: 0
SampleSet: Soft
StackLeniency: 0.7
Mode: 0
LetterboxInBreaks: 0
WidescreenStoryboard: 1

[Editor]
DistanceSpacing: 1.1
BeatDivisor: 4
GridSize: 32
TimelineZoom: 1.5

[Metadata]
Title:Yasashisa no Riyuu
TitleUnicode:優しさの理由
Artist:ChouCho
ArtistUnicode:ChouCho
Creator:Asphyxia
Version:Hard
Source:氷菓
Tags:Hyouka opening full ver PandaHero Mirash Ataraxia anime japanese version
BeatmapID:2176400
BeatmapSetID:1008974

[Difficulty]
HPDrainRate:5
CircleSize:3.8
OverallDifficulty:7
ApproachRate:8
SliderMultiplier:1.7
SliderTickRate:1

[Events]
//Background and Video events
0,0,"wallhaven-3k7vrd.jpg",0,0
//Break Periods
2,178299,184637
//Storyboard Layer 0 (Background)
//Storyboard Layer 1 (Fail)
//Storyboard Layer 2 (Pass)
//Storyboard Layer 3 (Foreground)
//Storyboard Layer 4 (Overlay)
//Storyboard Sound Samples

[TimingPoints]
472,338.983050847458,4,1,0,100,1,0
472,-100,4,2,0,50,0,0
3183,-111.111111111111,4,2,0,40,0,0
14031,-100,4,2,1,80,0,0
24200,-100,4,2,0,60,0,0
24539,-100,4,2,0,40,0,0
24878,-111.111111111111,4,2,0,45,0,0
35048,-111.111111111111,4,2,0,60,0,0
35387,-111.111111111111,4,2,0,40,0,0
35726,-100,4,2,1,60,0,0
45217,-100,4,2,1,60,0,0
47929,-111.111111111111,4,2,1,60,0,0
56065,-100,4,2,1,60,0,0
61488,-90.9090909090909,4,2,1,80,0,1
77760,-100,4,2,1,80,0,1
80472,-100,4,2,1,80,0,0
85895,-100,4,2,1,80,0,0
96743,-111.111111111111,4,1,2,30,0,0
106404,-111.111111111111,4,2,1,60,0,0
107590,-100,4,2,1,60,0,0
118607,-100,4,2,1,60,0,0
119794,-111.111111111111,4,2,1,60,0,0
127929,-100,4,2,1,60,0,0
133353,-86.9565217391304,4,2,1,80,0,1
150133,-100,4,2,1,80,0,1
152336,-100,4,2,1,80,0,0
157590,-100,4,2,1,80,0,0
163014,-100,4,2,1,80,0,0
178099,-111.111111111111,4,2,0,40,0,0
185387,-111.111111111111,4,2,0,60,0,0
186234,-111.111111111111,4,2,0,100,0,0
188268,-100,4,2,1,80,0,0
188946,-100,4,2,1,80,0,0
189285,-100,4,2,1,50,0,0
189793,-100,4,2,1,55,0,0
190302,-100,4,2,1,60,0,0
190810,-100,4,2,1,65,0,0
191319,-100,4,2,1,70,0,0
191827,-100,4,2,1,75,0,0
192336,-100,4,2,1,80,0,0
192844,-100,4,2,1,85,0,0
193352,-100,4,2,1,90,0,0
193861,-100,4,2,1,95,0,0
194370,-100,4,2,1,70,0,0
200133,-83.3333333333333,4,2,1,70,0,1
218777,-100,4,2,1,70,0,0
234031,-100,4,2,0,45,0,0
234370,-100,4,2,1,70,0,0
244539,-100,4,2,0,50,0,0
245895,-100,4,2,0,30,0,0
248608,-100,4,2,0,5,0,0

[Colours]
Combo1 : 79,155,155
Combo2 : 105,0,210
Combo3 : 255,166,166
Combo4 : 185,0,92

[HitObjects]
80,92,3183,6,0,P|128:86|160:66,1,76.4999976654054,2|0,0:0|0:0,0:0:0:0:
218,20,3522,2,0,P|266:26|298:46,1,76.4999976654054,2|0,0:0|0:0,0:0:0:0:
371,16,3861,2,0,P|338:64|359:172,1,152.999995330811,10|2,0:0|0:0,0:0:0:0:
420,195,4370,6,0,P|457:259|444:333,1,152.999995330811,2|2,0:0|0:0,0:0:0:0:
365,363,4878,2,0,L|281:350,2,76.4999976654053,2|0|8,0:0|0:0|0:0,0:0:0:0:
264,225,5556,2,0,L|189:237,1,76.4999976654053,2|2,0:0|0:0,0:0:0:0:
105,250,5895,6,0,P|60:244|10:131,1,152.999995330811,2|2,0:0|0:0,0:0:0:0:
89,166,6404,2,0,B|120:222|93:294|55:249|34:321|66:379,1,229.499992996216,2|2,0:0|0:0,0:0:0:0:
136,332,7082,1,2,0:0:0:0:
208,374,7251,6,0,P|245:370|278:350,2,76.4999976654053,2|0|2,0:0|0:0|0:0,0:0:0:0:
415,251,7929,2,0,P|379:237|353:210,2,76.4999976654053,10|0|2,0:0|0:0|0:0,0:0:0:0:
425,166,8438,1,0,0:0:0:0:
425,166,8607,6,0,P|460:152|487:125,1,76.4999976654053,2|0,0:0|0:0,0:0:0:0:
411,7,8946,2,0,P|420:43|414:81,1,76.4999976654053,2|0,0:0|0:0,0:0:0:0:
349,134,9285,2,0,P|279:138|205:76,1,152.999995330811,10|2,0:0|0:0,0:0:0:0:
181,12,9794,6,0,L|156:188,1,152.999995330811,2|2,0:0|0:0,0:0:0:0:
149,247,10302,1,2,0:0:0:0:
83,299,10472,1,2,0:0:0:0:
1,319,10641,1,8,0:0:0:0:
1,319,10980,5,2,0:0:0:0:
83,299,11149,1,2,0:0:0:0:
149,247,11319,1,2,0:3:0:0:
149,247,14031,6,0,L|166:336,1,85,4|0,0:1|0:0,0:0:0:0:
63,193,14370,2,0,L|47:276,1,85,2|0,3:2|0:0,0:0:0:0:
149,247,14709,2,0,P|203:221|220:170,1,85,0|0,3:0|0:0,0:0:0:0:
216,107,15048,1,2,3:2:0:0:
127,78,15217,6,0,P|183:18|265:28,1,170,2|0,3:3|0:0,0:0:0:0:
317,106,15726,2,0,L|333:189,1,85,2|0,3:2|0:0,0:0:0:0:
425,207,16065,2,0,P|411:246|378:272,1,85,2|0,3:2|0:0,0:0:0:0:
298,322,16404,2,0,P|324:354|363:367,1,85,2|0,3:2|0:0,0:0:0:0:
196,371,16743,6,0,L|220:202,2,170,4|2|0,0:2|3:2|3:0,0:0:0:0:
119,317,17590,1,0,0:0:0:0:
38,365,17760,1,2,3:2:0:0:
56,267,17929,6,0,P|106:292|120:342,1,85,2|0,3:3|0:0,0:0:0:0:
282,153,18438,2,0,P|259:187|219:202,1,85,2|2,3:2|0:3,0:0:0:0:
161,128,18777,2,0,P|183:93|223:78,1,85,2|0,3:2|0:0,0:0:0:0:
316,65,19116,1,2,3:2:0:0:
316,65,19285,1,0,0:0:0:0:
365,144,19455,6,0,P|398:168|440:168,1,85,4|0,0:1|0:0,0:0:0:0:
473,79,19794,2,0,P|440:55|398:55,1,85,2|0,3:2|0:0,0:0:0:0:
303,49,20133,2,0,L|204:67,1,85,0|0,3:0|0:0,0:0:0:0:
131,32,20472,1,2,3:2:0:0:
145,124,20641,6,0,L|121:293,1,170,4|0,3:2|0:0,0:0:0:0:
171,371,21149,2,0,P|208:330|211:280,1,85,2|0,3:2|0:0,0:0:0:0:
261,221,21488,2,0,P|298:262|301:312,1,85,2|0,3:2|0:0,0:0:0:0:
277,380,21827,1,2,3:2:0:0:
247,128,22166,5,4,3:2:0:0:
433,145,22505,1,0,3:0:0:0:
247,128,22844,1,0,3:0:0:0:
433,145,23183,1,0,3:0:0:0:
357,200,23353,1,0,0:0:0:0:
444,232,23522,6,0,P|464:272|458:318,1,85,0|8,3:0|0:3,0:0:0:0:
390,372,23861,1,0,3:0:0:0:
390,372,24031,1,0,3:0:0:0:
299,349,24200,2,0,L|208:336,1,85,4|0,3:0|3:0,0:0:0:0:
151,261,24539,2,0,L|242:248,1,85,4|0,3:0|3:0,0:0:0:0:
295,189,24878,6,0,P|253:164|200:177,1,76.4999976654053,2|0,0:0|0:0,0:0:0:0:
148,133,25217,2,0,P|168:101|203:86,1,76.4999976654053,2|0,0:0|0:0,0:0:0:0:
256,20,25556,2,0,P|304:46|426:57,1,152.999995330811,10|2,0:0|0:0,0:0:0:0:
484,46,26065,6,0,P|437:74|366:174,1,152.999995330811,2|2,0:0|0:0,0:0:0:0:
422,221,26573,2,0,L|437:308,2,76.4999976654053,2|2|8,0:0|0:0|0:0,0:0:0:0:
280,124,27251,2,0,L|267:199,1,76.4999976654053,2|2,0:0|0:0,0:0:0:0:
252,282,27590,6,0,P|208:324|105:323,1,152.999995330811,2|2,0:0|0:0,0:0:0:0:
53,382,28099,2,0,B|21:324|42:252|80:297|107:225|76:169,1,229.499992996216,2|2,0:3|0:0,0:0:0:0:
22,104,28777,1,2,0:0:0:0:
104,86,28946,6,0,P|150:64|173:26,2,76.4999976654053,0|0|2,3:0|3:0|0:0,0:0:0:0:
228,206,29624,2,0,P|182:184|159:146,2,76.4999976654053,8|0|2,0:0|0:0|0:0,0:0:0:0:
306,174,30133,1,2,0:0:0:0:
298,257,30302,6,0,L|286:354,1,76.4999976654053,2|0,0:0|0:0,0:0:0:0:
370,354,30641,2,0,L|445:363,1,76.4999976654053,2|0,0:0|0:0,0:0:0:0:
497,296,30980,2,0,P|450:276|384:179,1,152.999995330811,10|2,0:0|0:0,0:0:0:0:
350,121,31488,6,0,P|356:171|305:277,1,152.999995330811,2|2,0:0|0:0,0:0:0:0:
237,238,31997,2,0,P|230:187|281:81,1,152.999995330811,2|8,0:0|0:0,0:0:0:0:
100,67,32675,1,2,0:0:0:0:
154,130,32844,1,2,0:0:0:0:
71,146,33014,6,0,P|31:202|41:291,1,152.999995330811,2|2,0:0|0:0,0:0:0:0:
105,331,33522,1,2,0:3:0:0:
105,331,33692,2,0,L|258:351,1,152.999995330811,8|2,0:0|0:0,0:0:0:0:
338,370,34200,1,0,0:0:0:0:
314,288,34370,6,0,P|354:258|388:258,1,76.4999976654053,0|0,3:0|3:0,0:0:0:0:
455,292,34709,1,2,0:0:0:0:
447,208,34878,1,0,0:0:0:0:
447,208,34963,1,0,3:0:0:0:
447,208,35048,2,0,P|460:172|452:135,1,76.4999976654053,8|4,3:0|0:3,0:0:0:0:
316,123,35387,2,0,P|340:152|376:163,1,76.4999976654053,4|4,0:3|0:3,0:0:0:0:
464,49,35726,6,0,P|416:54|386:83,1,85,4|0,0:0|0:0,0:0:0:0:
223,51,36065,2,0,L|324:37,1,85,0|0,3:0|0:0,0:0:0:0:
221,155,36404,2,0,P|147:154|69:71,1,170,0|0,3:0|3:0,0:0:0:0:
37,8,36912,1,0,3:0:0:0:
37,8,36997,1,0,3:0:0:0:
37,8,37082,6,0,L|15:194,1,170,2|0,3:2|3:0,0:0:0:0:
70,254,37590,1,0,0:0:0:0:
8,325,37760,2,0,P|46:345|102:340,1,85,0|0,3:0|0:0,0:0:0:0:
180,347,38099,2,0,P|159:310|157:268,1,85,0|0,3:0|3:0,0:0:0:0:
247,243,38438,6,0,P|290:195|280:89,1,170,2|0,3:2|3:0,0:0:0:0:
210,35,38946,1,0,0:0:0:0:
160,114,39116,2,0,P|123:132|63:128,2,85,0|0|0,3:0|0:0|3:0,0:0:0:0:
210,35,39624,2,0,L|157:18,2,42.5,0|0|2,3:0|3:0|3:2,0:0:0:0:
283,94,39963,5,0,3:0:0:0:
339,19,40133,1,0,3:0:0:0:
410,79,40302,2,0,L|463:62,2,42.5,0|0|2,3:0|3:0|3:2,0:0:0:0:
352,153,40641,1,0,3:0:0:0:
399,233,40810,2,0,P|437:251|479:251,1,85,2|0,3:0|0:0,0:0:0:0:
351,317,41149,6,0,L|254:335,1,85,6|0,0:2|0:0,0:0:0:0:
191,234,41488,2,0,L|274:249,1,85,0|0,3:0|0:0,0:0:0:0:
325,170,41827,2,0,P|309:123|186:105,1,170,0|0,3:0|3:0,0:0:0:0:
129,154,42336,1,0,3:0:0:0:
129,154,42421,1,0,3:0:0:0:
129,154,42505,6,0,L|46:139,1,85,2|0,3:2|0:0,0:0:0:0:
9,250,42844,2,0,L|92:235,1,85,0|0,3:0|0:0,0:0:0:0:
154,337,43183,2,0,L|71:322,1,85,0|0,3:0|0:0,0:0:0:0:
190,259,43522,2,0,P|222:286|239:339,1,85,0|0,3:0|3:0,0:0:0:0:
322,365,43861,6,0,L|346:186,1,170,2|0,3:2|3:0,0:0:0:0:
307,109,44370,2,0,P|365:167|472:181,1,170,0|0,0:0|0:0,0:0:0:0:
496,103,44878,2,0,L|483:9,1,85,0|0,3:0|3:0,0:0:0:0:
397,52,45217,5,2,0:3:0:0:
213,14,45556,1,2,0:3:0:0:
258,195,45895,1,10,0:0:0:0:
258,195,46065,1,0,3:0:0:0:
202,269,46234,2,0,P|154:285|109:276,1,85,0|0,3:0|3:0,0:0:0:0:
145,190,46573,5,4,3:0:0:0:
54,216,46743,2,0,L|26:45,1,170,12|4,0:0|3:0,0:0:0:0:
172,22,47251,2,0,L|144:189,1,170,12|8,0:0|0:0,0:0:0:0:
120,280,47760,1,8,0:0:0:0:
202,262,47929,5,4,3:1:0:0:
329,371,48268,1,0,3:0:0:0:
363,206,48607,1,8,0:0:0:0:
458,344,48946,2,0,L|483:247,1,76.4999976654053,0|0,3:0|0:0,0:0:0:0:
448,190,49285,6,0,L|423:93,2,76.4999976654053,0|8|0,3:0|0:0|3:0,0:0:0:0:
363,206,49794,1,0,3:0:0:0:
282,229,49963,2,0,L|111:204,1,152.999995330811,8|0,0:0|3:0,0:0:0:0:
46,197,50472,1,0,3:0:0:0:
78,119,50641,6,0,P|131:61|207:63,2,152.999995330811,0|0|8,3:0|3:0|0:0,0:0:0:0:
46,197,51488,1,0,0:0:0:0:
130,206,51658,2,0,P|147:251|134:295,1,76.4999976654053,0|0,3:0|0:0,0:0:0:0:
178,354,51997,6,0,P|215:323|225:278,1,76.4999976654053,0|8,3:0|0:0,0:0:0:0:
258,220,52336,2,0,P|295:250|305:295,1,76.4999976654053,0|0,3:0|3:0,0:0:0:0:
307,360,52675,2,0,P|340:307|437:312,1,152.999995330811,12|0,0:2|3:0,0:0:0:0:
478,367,53183,1,0,3:0:0:0:
500,285,53353,6,0,L|475:113,1,152.999995330811,4|0,3:1|3:0,0:0:0:0:
343,31,54031,2,0,L|365:182,1,152.999995330811,8|0,0:0|3:0,0:0:0:0:
382,265,54539,1,0,0:0:0:0:
299,245,54709,6,0,P|253:254|218:288,1,76.4999976654053,4|8,3:2|0:0,0:0:0:0:
169,330,55048,2,0,P|200:351|238:356,1,76.4999976654053,0|0,3:0|0:0,0:0:0:0:
86,354,55387,2,0,P|83:316|97:281,1,76.4999976654053,8|0,0:0|0:0,0:0:0:0:
169,151,55726,2,0,P|171:188|157:223,1,76.4999976654053,0|0,3:0|3:0,0:0:0:0:
81,124,56065,6,0,P|137:64|239:90,1,170,4|8,0:0|0:2,0:0:0:0:
294,17,56573,2,0,L|322:206,1,170,4|0,0:0|0:0,0:0:0:0:
342,276,57082,2,0,P|397:335|479:327,1,170,8|0,0:2|3:0,0:0:0:0:
475,233,57590,6,0,P|449:190|454:139,1,85,12|0,0:0|0:0,0:0:0:0:
510,85,57929,1,0,0:0:0:0:
472,0,58099,2,0,P|437:23|418:61,1,85,8|0,0:0|3:0,0:0:0:0:
370,182,58438,2,0,P|320:174|284:137,1,85,8|0,0:0|3:0,0:0:0:0:
255,67,58777,5,4,0:1:0:0:
255,67,59963,2,0,L|265:6,2,42.5,0|0|2,0:0|0:0|0:0,0:0:0:0:
255,67,61488,6,0,P|210:90|157:81,1,93.5000028533936,4|0,3:1|0:0,0:0:0:0:
90,34,61827,1,8,0:0:0:0:
82,127,61997,2,0,L|39:349,1,187.000005706787,0|0,0:0|3:0,0:0:0:0:
124,361,62505,1,8,0:0:0:0:
153,272,62675,6,0,L|140:203,2,46.7500014266968,0|0|0,3:0|3:0|3:2,0:0:0:0:
124,361,63014,2,0,P|167:378|223:368,1,93.5000028533936,0|8,0:0|0:0,0:0:0:0:
297,332,63353,2,0,P|263:278|343:153,1,187.000005706787,0|0,0:0|3:0,0:0:0:0:
383,121,63861,1,8,0:0:0:0:
465,165,64031,6,0,L|484:269,1,93.5000028533936,0|0,3:0|3:0,0:0:0:0:
383,345,64370,2,0,L|399:253,1,93.5000028533936,0|8,0:0|0:0,0:0:0:0:
383,121,64709,2,0,P|342:146|289:141,1,93.5000028533936,0|0,0:0|3:0,0:0:0:0:
408,39,65048,2,0,P|449:14|502:19,2,93.5000028533936,0|8|0,3:0|0:0|3:0,0:0:0:0:
316,59,65556,6,0,L|111:24,1,187.000005706787,0|8,3:0|0:0,0:0:0:0:
139,121,66065,2,0,P|91:151|45:146,1,93.5000028533936,0|0,0:0|3:0,0:0:0:0:
0,234,66404,2,0,P|46:235|83:262,1,93.5000028533936,0|8,3:0|0:0,0:0:0:0:
104,354,66743,5,8,0:0:0:0:
104,354,66827,1,8,0:0:0:0:
104,354,66912,1,2,3:2:0:0:
303,271,67251,2,0,L|278:153,1,93.5000028533936,4|0,0:0|0:0,0:0:0:0:
257,89,67590,1,2,0:3:0:0:
345,118,67760,2,0,P|392:135|443:122,1,93.5000028533936,0|8,3:0|0:0,0:0:0:0:
319,37,68099,6,0,P|236:36|175:129,1,187.000005706787,4|0,0:1|3:0,0:0:0:0:
94,159,68607,2,0,P|126:196|129:247,1,93.5000028533936,8|0,0:0|0:0,0:0:0:0:
223,254,68946,2,0,P|206:300|164:328,1,93.5000028533936,0|0,3:0|3:0,0:0:0:0:
94,378,69285,2,0,L|-9:358,1,93.5000028533936,8|0,0:0|0:0,0:0:0:0:
172,325,69624,6,0,P|228:297|389:293,1,187.000005706787,12|0,0:2|3:0,0:0:0:0:
333,191,70133,2,0,P|393:205|519:305,1,187.000005706787,8|0,0:0|0:0,0:0:0:0:
462,362,70641,6,0,P|369:358|283:321,1,187.000005706787,12|0,0:2|3:0,0:0:0:0:
203,370,71149,2,0,P|134:307|92:224,1,187.000005706787,8|0,0:0|3:0,0:0:0:0:
18,165,71658,6,0,L|-3:269,1,93.5000028533936,8|0,0:0|3:0,0:0:0:0:
104,138,71997,2,0,P|137:89|133:36,1,93.5000028533936,10|0,0:0|0:0,0:0:0:0:
225,21,72336,6,0,P|263:46|309:47,1,93.5000028533936,4|0,3:1|0:0,0:0:0:0:
398,17,72675,1,8,0:0:0:0:
382,108,72844,2,0,P|323:178|321:270,1,187.000005706787,0|0,0:0|3:0,0:0:0:0:
409,303,73353,1,8,0:0:0:0:
332,356,73522,6,0,L|268:366,2,46.7500014266968,0|0|0,3:0|3:0|3:0,0:0:0:0:
409,303,73861,2,0,P|459:320|487:361,1,93.5000028533936,0|8,0:0|0:0,0:0:0:0:
504,237,74200,2,0,L|392:206,1,93.5000028533936,0|0,0:0|3:0,0:0:0:0:
332,165,74539,2,0,P|362:129|406:117,1,93.5000028533936,0|8,3:0|0:0,0:0:0:0:
469,47,74878,6,0,P|424:34|394:0,1,93.5000028533936,0|0,3:0|3:0,0:0:0:0:
230,40,75217,2,0,L|329:58,1,93.5000028533936,0|8,0:0|0:0,0:0:0:0:
331,149,75556,2,0,P|280:198|139:186,1,187.000005706787,0|0,0:0|3:0,0:0:0:0:
85,158,76065,1,8,0:0:0:0:
152,94,76234,1,0,3:0:0:0:
62,65,76404,6,0,P|13:29|0:-7,2,93.5000028533936,0|0|8,3:0|0:0|0:0,0:0:0:0:
152,94,76912,1,0,0:0:0:0:
85,158,77082,1,8,3:0:0:0:
168,203,77251,1,0,3:0:0:0:
88,252,77421,2,0,P|63:291|68:346,1,93.5000028533936,8|8,0:0|0:0,0:0:0:0:
156,320,77760,6,0,P|218:351|333:341,1,170,6|8,3:2|0:0,0:0:0:0:
272,264,78268,2,0,P|352:240|412:181,1,170,4|0,3:1|3:0,0:0:0:0:
331,132,78777,2,0,P|356:93|360:47,1,85,8|2,0:0|0:3,0:0:0:0:
151,55,79285,6,0,P|157:97|181:132,2,85,8|8|4,3:3|3:3|3:3,0:0:0:0:
79,116,79794,2,0,L|55:221,1,85,2|0,3:0|0:0,0:0:0:0:
34,288,80133,1,2,3:0:0:0:
256,192,80472,5,6,3:2:0:0:
433,116,80980,2,0,L|457:221,1,85,2|8,3:0|0:0,0:0:0:0:
318,329,81488,2,0,P|358:317|389:289,1,85,0|2,3:0|3:0,0:0:0:0:
313,235,81827,6,0,L|208:211,1,85,2|8,3:0|0:0,0:0:0:0:
228,122,82166,2,0,P|187:133|156:161,1,85,0|0,0:0|0:0,0:0:0:0:
145,254,82505,2,0,L|62:272,1,85,8|0,0:0|0:0,0:0:0:0:
82,364,82844,2,0,L|0:345,1,85,2|0,3:0|0:0,0:0:0:0:
170,345,83183,5,4,0:1:0:0:
170,345,85556,2,0,P|213:317|257:320,1,85,0|0,0:0|0:0,0:0:0:0:
330,277,85895,6,0,P|307:241|268:224,1,85,4|0,0:1|0:0,0:0:0:0:
175,219,86234,2,0,L|72:239,1,85,2|0,3:2|0:0,0:0:0:0:
6,195,86573,2,0,P|28:159|67:142,1,85,0|0,3:0|0:0,0:0:0:0:
157,116,86912,1,2,3:2:0:0:
95,45,87082,6,0,P|158:81|268:60,1,170,2|0,3:2|0:0,0:0:0:0:
323,10,87590,2,0,L|342:109,1,85,2|0,3:2|0:0,0:0:0:0:
427,124,87929,2,0,L|408:223,1,85,2|0,3:2|0:0,0:0:0:0:
318,221,88268,2,0,L|337:320,1,85,2|0,3:2|0:0,0:0:0:0:
245,334,88607,6,0,B|293:319|337:334|310:362|354:377|406:358,2,170,4|2|0,0:2|3:2|3:0,0:0:0:0:
159,373,89455,1,0,0:0:0:0:
96,267,89624,2,0,P|145:266|184:299,1,85,2|12,3:2|3:2,0:0:0:0:
270,123,90133,6,0,P|233:144|192:140,1,85,0|2,0:0|3:2,0:0:0:0:
172,49,90472,1,2,0:3:0:0:
172,49,90641,2,0,P|208:27|249:31,1,85,2|0,3:2|0:0,0:0:0:0:
338,60,90980,2,0,L|436:71,1,85,2|0,3:2|0:0,0:0:0:0:
506,26,91319,6,0,P|458:89|457:183,1,170,4|2,0:1|3:2,0:0:0:0:
495,261,91827,1,0,0:0:0:0:
402,246,91997,2,0,L|320:223,2,85,0|0|2,3:0|0:0|3:2,0:0:0:0:
495,261,92505,6,0,P|461:319|359:330,1,170,12|0,3:2|0:0,0:0:0:0:
275,360,93014,2,0,P|278:320|249:273,1,85,2|0,3:2|0:0,0:0:0:0:
166,303,93353,2,0,P|163:343|192:390,1,85,2|0,3:2|0:0,0:0:0:0:
189,224,93692,2,0,L|94:206,1,85,2|0,3:2|0:0,0:0:0:0:
256,160,94031,5,4,3:1:0:0:
433,100,94370,1,0,3:0:0:0:
256,160,94709,1,0,3:0:0:0:
344,189,94878,1,8,0:0:0:0:
271,248,95048,2,0,L|295:344,1,85,0|0,3:0|3:0,0:0:0:0:
384,340,95387,6,0,P|419:363|461:366,2,85,8|0|8,0:0|3:0|0:0,0:0:0:0:
448,272,95895,1,0,3:0:0:0:
448,272,95980,1,0,3:0:0:0:
448,272,96065,1,0,3:0:0:0:
357,250,96234,1,0,3:0:0:0:
423,183,96404,1,2,3:3:0:0:
423,183,96743,6,0,L|407:98,1,76.4999976654053,0|0,0:0|0:0,0:0:0:0:
426,25,97082,2,0,L|341:9,1,76.4999976654053,0|0,0:0|0:0,0:0:0:0:
298,77,97421,2,0,P|246:113|143:88,1,152.999995330811,8|0,0:0|0:0,0:0:0:0:
85,63,97929,6,0,L|92:19,2,38.2499988327027
58,143,98268,2,0,P|82:174|83:215,1,76.4999976654053,0|0,0:0|0:0,0:0:0:0:
81,294,98607,2,0,P|118:291|148:267,1,76.4999976654053,0|8,0:0|0:0,0:0:0:0:
283,361,99116,2,0,P|253:337|215:334,1,76.4999976654053
346,298,99455,6,0,P|380:251|346:140,1,152.999995330811
287,131,99963,2,0,P|344:136|423:52,1,152.999995330811,0|0,0:0|0:0,0:0:0:0:
483,28,100472,2,0,L|508:107,1,76.4999976654053,0|0,0:0|0:0,0:0:0:0:
484,182,100810,6,0,L|459:261,2,76.4999976654053,0|0|0,0:0|0:0|0:0,0:0:0:0:
333,258,101488,2,0,L|358:337,2,76.4999976654053,8|0|0,0:0|0:0|0:0,0:0:0:0:
306,177,101997,1,0,0:0:0:0:
306,177,102082,1,0,0:0:0:0:
306,177,102166,6,0,P|263:153|213:167,1,76.4999976654053,0|0,0:0|0:0,0:0:0:0:
157,126,102505,2,0,P|137:158|103:174,1,76.4999976654053,0|0,0:0|0:0,0:0:0:0:
80,93,102844,2,0,L|57:270,1,152.999995330811,8|0,0:0|0:0,0:0:0:0:
22,320,103353,6,0,P|69:270|162:294,1,152.999995330811,8|0,0:1|0:0,0:0:0:0:
220,239,103861,2,0,P|267:289|360:265,1,152.999995330811,0|8,0:0|0:0,0:0:0:0:
485,373,104539,2,0,L|503:286,1,76.4999976654053,0|8,0:0|0:0,0:0:0:0:
466,221,104878,6,0,P|424:209|399:172,2,76.4999976654053,0|0|0,0:0|0:0|0:0,0:0:0:0:
476,136,105387,1,0,0:0:0:0:
397,106,105556,2,0,P|348:127|334:149,2,76.4999976654053,0|0|0,0:0|0:0|0:0,0:0:0:0:
464,54,106065,1,0,0:0:0:0:
464,54,106234,1,0,0:0:0:0:
384,26,106404,6,0,B|338:11|296:26|322:52|280:66|230:48,2,152.999995330811,8|4|0,3:0|3:0|3:0,0:0:0:0:
464,54,107251,1,8,0:2:0:0:
397,106,107421,1,0,3:0:0:0:
480,146,107590,6,0,P|498:192|485:235,1,85,4|0,0:1|0:0,0:0:0:0:
495,319,107929,2,0,P|446:311|415:278,1,85,0|0,3:0|0:0,0:0:0:0:
334,325,108268,2,0,L|313:139,1,170,0|0,3:0|3:0,0:0:0:0:
301,62,108777,1,0,3:0:0:0:
301,62,108861,1,0,0:0:0:0:
301,62,108946,6,0,P|257:64|211:35,1,85,2|0,3:2|0:0,0:0:0:0:
134,154,109285,2,0,P|171:135|213:137,1,85,0|0,3:0|0:0,0:0:0:0:
143,244,109624,2,0,P|93:252|0:178,1,170,0|2,3:0|3:0,0:0:0:0:
11,90,110133,1,0,3:0:0:0:
62,12,110302,6,0,L|162:31,1,85,2|0,3:2|0:0,0:0:0:0:
237,90,110641,2,0,L|153:105,1,85,0|0,3:0|0:0,0:0:0:0:
90,174,110980,2,0,L|269:206,1,170,0|0,3:0|3:0,0:0:0:0:
348,224,111488,1,0,3:0:0:0:
282,291,111658,6,0,P|234:313|189:305,2,85,2|0|0,3:2|3:0|3:0,0:0:0:0:
370,322,112166,1,0,0:0:0:0:
370,322,112251,1,0,3:0:0:0:
370,322,112336,1,2,3:3:0:0:
440,260,112505,2,0,L|459:159,2,85,2|2|0,3:3|3:3|0:0,0:0:0:0:
370,322,113014,6,0,P|428:352|476:340,1,85,6|0,0:2|0:0,0:0:0:0:
347,237,113353,2,0,P|313:261|271:266,1,85,0|0,3:0|0:0,0:0:0:0:
281,172,113692,2,0,L|300:71,1,85,0|0,3:0|0:0,0:0:0:0:
177,42,114031,2,0,L|192:125,1,85,2|2,3:0|3:0,0:0:0:0:
165,215,114370,6,0,P|85:187|76:86,2,170,2|0|2,3:2|3:0|3:3,0:0:0:0:
192,125,115217,1,0,0:0:0:0:
259,189,115387,2,0,L|280:271,1,85,2|2,3:3|3:3,0:0:0:0:
222,345,115726,6,0,P|308:352|389:382,1,170,2|2,3:2|3:0,0:0:0:0:
460,322,116234,2,0,P|423:244|408:158,1,170,0|0,0:0|0:0,0:0:0:0:
442,74,116743,2,0,L|342:49,1,85,0|0,3:0|3:0,0:0:0:0:
279,29,117082,5,2,0:0:0:0:
299,209,117421,1,8,3:0:0:0:
209,182,117590,2,0,L|153:169,2,42.5,0|0|10,1:0|1:0|0:0,0:0:0:0:
299,209,117929,2,0,L|323:303,1,85,8|4,3:3|0:3,0:0:0:0:
268,369,118268,1,4,0:3:0:0:
268,369,118438,1,4,0:3:0:0:
405,355,118607,6,0,P|429:307|431:171,1,170,12|4,0:2|3:0,0:0:0:0:
512,71,119116,2,0,P|458:74|339:140,1,170,12|8,0:0|0:0,0:0:0:0:
287,189,119624,1,8,0:0:0:0:
253,111,119794,6,0,L|265:18,1,76.4999976654053,4|0,3:1|0:0,0:0:0:0:
180,15,120133,1,0,3:0:0:0:
143,179,120472,2,0,L|131:272,1,76.4999976654053,8|0,0:0|0:0,0:0:0:0:
216,275,120811,1,0,3:0:0:0:
216,275,120980,1,0,0:0:0:0:
160,337,121149,6,0,L|53:359,2,76.4999976654053,0|8|0,3:0|0:0|3:0,0:0:0:0:
242,355,121658,1,0,3:0:0:0:
308,303,121827,2,0,L|415:325,1,76.4999976654053,8|0,0:0|0:0,0:0:0:0:
466,331,122166,2,0,L|450:256,1,76.4999976654053,0|0,3:0|3:0,0:0:0:0:
426,175,122505,6,0,L|452:11,2,152.999995330811,0|0|8,3:0|3:0|0:0,0:0:0:0:
352,217,123353,1,0,0:0:0:0:
314,141,123522,2,0,P|269:147|244:170,1,76.4999976654053,0|0,3:0|0:0,0:0:0:0:
172,206,123861,6,0,P|199:241|232:252,1,76.4999976654053,0|8,3:0|0:0,0:0:0:0:
302,291,124200,2,0,P|274:326|241:337,1,76.4999976654053,0|0,3:0|3:0,0:0:0:0:
168,371,124539,2,0,P|118:348|-11:330,1,152.999995330811,12|0,0:2|3:0,0:0:0:0:
61,254,125048,1,0,3:0:0:0:
61,254,125133,1,0,3:0:0:0:
61,254,125217,6,0,L|42:173,1,76.4999976654053,4|0,3:1|0:0,0:0:0:0:
125,159,125556,2,0,L|144:78,1,76.4999976654053,0|0,3:0|3:0,0:0:0:0:
201,23,125895,2,0,P|225:55|228:99,1,76.4999976654053,12|0,0:2|0:0,0:0:0:0:
311,109,126234,2,0,P|295:145|258:170,1,76.4999976654053,0|0,3:0|0:0,0:0:0:0:
190,203,126573,6,0,L|214:297,1,76.4999976654053,4|8,3:2|0:0,0:0:0:0:
290,299,126912,2,0,L|266:393,2,76.4999976654053,0|0|0,3:0|0:0|3:0,0:0:0:0:
311,216,127421,1,0,3:0:0:0:
311,216,127505,1,8,0:0:0:0:
311,216,127590,1,8,0:0:0:0:
373,272,127760,1,0,0:0:0:0:
431,199,127929,6,0,P|453:126|459:-3,1,170,4|8,0:1|0:0,0:0:0:0:
342,105,128438,2,0,P|320:178|314:307,1,170,4|0,0:2|3:0,0:0:0:0:
418,326,128946,6,0,P|345:348|216:354,1,170,10|8,0:2|0:3,0:0:0:0:
145,301,129455,2,0,P|218:279|347:273,1,170,10|0,0:0|3:0,0:0:0:0:
273,184,129963,6,0,P|220:171|194:148,1,85,8|0,0:0|3:0,0:0:0:0:
270,92,130302,2,0,P|237:47|232:13,1,85,8|0,0:0|0:0,0:0:0:0:
326,17,130641,5,4,3:1:0:0:
326,17,131658,2,0,L|445:39,1,85,2|2,0:0|3:2,0:0:0:0:
274,95,131997,6,0,L|155:117,1,85,4|8,0:1|0:0,0:0:0:0:
118,50,132336,1,8,3:3:0:0:
109,142,132505,2,0,P|115:207|57:313,1,170,8|0,0:2|3:0,0:0:0:0:
144,359,133014,2,0,P|195:337|220:287,1,85,8|2,0:2|0:2,0:0:0:0:
224,217,133353,6,0,L|322:246,1,97.7500018644333,4|0,3:1|0:0,0:0:0:0:
408,281,133692,1,8,0:0:0:0:
469,205,133861,2,0,P|452:153|319:131,1,195.500003728867,0|0,0:0|3:0,0:0:0:0:
245,70,134370,1,8,0:0:0:0:
231,168,134539,6,0,L|222:224,2,48.8750009322167,0|0|0,3:0|0:0|3:0,0:0:0:0:
153,107,134878,2,0,P|98:135|46:121,1,97.7500018644333,0|8,0:0|0:0,0:0:0:0:
0,30,135217,2,0,P|48:27|88:53,1,97.7500018644333,0|0,0:0|3:0,0:0:0:0:
182,25,135556,2,0,L|299:7,1,97.7500018644333,0|8,3:0|0:0,0:0:0:0:
358,66,135895,6,0,P|334:115|340:174,1,97.7500018644333,0|0,3:0|3:0,0:0:0:0:
373,312,136234,2,0,P|397:263|391:204,1,97.7500018644333,0|8,0:0|0:0,0:0:0:0:
300,243,136573,2,0,P|184:240|139:314,1,195.500003728867,0|0,0:0|3:0,0:0:0:0:
53,339,137082,2,0,L|67:237,1,97.7500018644333,8|0,0:0|3:0,0:0:0:0:
21,154,137421,6,0,P|85:85|178:100,1,195.500003728867,0|8,3:0|0:0,0:0:0:0:
269,64,137929,2,0,L|378:80,1,97.7500018644333,0|0,0:0|3:0,0:0:0:0:
463,85,138268,2,0,L|514:78,2,48.8750009322167,8|8|8,0:0|0:0|0:0,0:0:0:0:
402,161,138607,1,4,3:0:0:0:
402,161,138692,1,0,3:0:0:0:
402,161,138777,6,0,P|428:208|423:257,1,97.7500018644333,4|0,3:1|0:0,0:0:0:0:
373,334,139116,1,8,0:0:0:0:
302,266,139285,2,0,P|250:301|102:297,1,195.500003728867,0|0,0:0|3:0,0:0:0:0:
32,260,139794,1,8,0:0:0:0:
160,214,139963,6,0,P|213:133|216:37,1,195.500003728867,4|0,0:1|3:0,0:0:0:0:
312,58,140472,2,0,L|336:167,1,97.7500018644333,8|0,0:0|0:0,0:0:0:0:
270,228,140810,2,0,P|326:256|383:239,1,97.7500018644333,0|0,3:0|3:0,0:0:0:0:
428,182,141149,1,8,0:0:0:0:
428,182,141319,1,0,0:0:0:0:
457,275,141488,6,0,P|397:290|303:382,1,195.500003728867,12|0,0:2|3:0,0:0:0:0:
213,340,141997,2,0,P|230:280|197:153,1,195.500003728867,8|0,0:0|3:0,0:0:0:0:
136,77,142505,1,12,0:2:0:0:
103,169,142675,1,4,3:0:0:0:
103,169,142760,1,4,3:0:0:0:
103,169,142844,1,0,3:0:0:0:
33,100,143014,6,0,L|15:1,2,97.7500018644333,8|0|0,0:0|0:0|3:0,0:0:0:0:
103,169,143522,2,0,P|90:237|52:266,1,97.7500018644333,8|0,0:0|3:0,0:0:0:0:
142,322,143861,1,10,0:0:0:0:
207,249,144031,1,8,0:0:0:0:
207,249,144116,1,8,0:0:0:0:
207,249,144200,6,0,L|315:270,1,97.7500018644333,4|0,3:1|0:0,0:0:0:0:
397,292,144539,1,8,0:0:0:0:
369,197,144709,2,0,P|338:144|356:83,1,97.7500018644333,0|0,0:0|3:0,0:0:0:0:
399,30,145048,2,0,P|430:83|412:144,1,97.7500018644333,0|8,3:0|0:0,0:0:0:0:
288,40,145387,6,0,L|171:21,1,97.7500018644333,0|0,3:0|3:0,0:0:0:0:
122,128,145726,2,0,L|218:112,1,97.7500018644333,0|8,0:0|0:0,0:0:0:0:
76,41,146065,2,0,P|29:80|51:234,1,195.500003728867,0|0,0:0|3:0,0:0:0:0:
108,259,146573,1,8,0:0:0:0:
17,297,146743,6,0,L|1:362,2,48.8750009322167,0|0|0,3:0|0:0|3:0,0:0:0:0:
108,259,147082,2,0,P|138:311|127:363,1,97.7500018644333,0|8,0:0|0:0,0:0:0:0:
229,319,147421,2,0,P|270:343|318:339,1,97.7500018644333,0|0,0:0|3:0,0:0:0:0:
415,353,147760,2,0,P|456:329|476:285,1,97.7500018644333,0|8,3:0|0:0,0:0:0:0:
450,190,148099,1,0,3:0:0:0:
480,97,148268,6,0,L|464:0,2,97.7500018644333,0|0|8,3:0|0:0|0:0,0:0:0:0:
385,125,148777,1,0,0:0:0:0:
310,61,148946,2,0,P|268:92|196:77,1,97.7500018644333,0|0,3:0|3:0,0:0:0:0:
152,25,149285,2,0,P|103:26|66:56,1,97.7500018644333,4|8,3:0|0:3,0:0:0:0:
156,165,149624,6,0,L|124:360,1,195.500003728867,6|8,3:2|0:0,0:0:0:0:
209,366,150133,2,0,P|276:369|351:282,1,170,4|0,3:1|3:0,0:0:0:0:
275,253,150641,1,8,0:0:0:0:
340,151,150810,6,0,P|394:212|477:215,1,170,2|8,0:3|3:3,0:0:0:0:
464,131,151319,1,8,3:3:0:0:
464,131,151488,1,4,3:3:0:0:
504,56,151658,1,2,3:0:0:0:
319,23,151997,1,2,3:0:0:0:
260,200,152336,6,0,P|212:231|85:223,1,170,6|0,3:2|0:0,0:0:0:0:
17,270,152844,1,0,3:0:0:0:
17,270,153014,2,0,P|43:313|41:363,1,85,8|0,0:0|0:0,0:0:0:0:
138,349,153353,2,0,L|238:362,1,85,0|2,3:0|3:0,0:0:0:0:
314,378,153692,6,0,L|398:367,2,85,2|8|0,3:0|0:0|3:0,0:0:0:0:
422,225,154370,2,0,L|337:235,2,85,8|0|2,0:0|0:0|3:0,0:0:0:0:
494,166,154878,1,0,0:0:0:0:
418,110,155048,6,0,P|392:69|396:20,1,85,4|8,0:1|0:0,0:0:0:0:
299,18,155387,2,0,P|282:56|248:80,1,85,0|0,3:0|0:0,0:0:0:0:
157,104,155726,2,0,L|183:205,1,85,8|0,0:0|0:0,0:0:0:0:
253,244,156065,2,0,L|227:345,1,85,0|0,3:3|3:0,0:0:0:0:
147,367,156404,6,0,P|85:360|58:250,1,170,12|0,0:0|3:0,0:0:0:0:
114,200,156912,1,8,0:0:0:0:
114,200,156997,1,8,0:0:0:0:
114,200,157082,1,8,0:0:0:0:
194,153,157251,1,8,0:0:0:0:
111,107,157421,1,8,0:0:0:0:
192,61,157590,6,0,P|142:20|28:64,1,170,4|0,3:2|3:0,0:0:0:0:
111,107,158099,1,8,0:0:0:0:
194,153,158268,6,0,P|267:142|375:104,1,170,2|0,3:0|3:0,0:0:0:0:
432,54,158777,1,8,0:0:0:0:
404,199,158946,6,0,P|377:267|355:380,1,170,4|8,3:1|3:3,0:0:0:0:
451,355,159455,1,4,3:0:0:0:
494,272,159624,1,0,3:0:0:0:
494,272,159709,1,0,3:0:0:0:
494,272,159794,6,0,L|480:177,1,85,4|4,3:0|3:0,0:0:0:0:
470,94,160133,1,4,3:0:0:0:
369,203,160302,6,0,P|294:215|222:148,1,170,4|0,3:1|3:0,0:0:0:0:
272,76,160810,1,8,0:0:0:0:
157,19,160980,6,0,P|127:96|46:120,1,170,4|0,3:2|3:0,0:0:0:0:
65,28,161488,1,8,0:0:0:0:
65,28,161658,5,4,3:2:0:0:
24,210,161997,1,2,0:0:0:0:
197,141,162336,1,2,0:0:0:0:
99,300,162675,1,2,3:2:0:0:
182,258,162844,1,8,3:0:0:0:
176,351,163014,6,0,P|213:369|266:367,1,85,4|0,0:1|0:0,0:0:0:0:
295,284,163353,1,0,3:0:0:0:
354,355,163522,2,0,L|444:368,2,85,12|0|2,0:0|0:0|3:0,0:0:0:0:
384,265,164031,1,0,3:0:0:0:
295,284,164200,1,8,0:0:0:0:
319,193,164370,6,0,P|356:139|326:17,1,170,4|0,0:1|3:0,0:0:0:0:
253,13,164878,2,0,L|150:33,1,85,8|0,0:0|0:0,0:0:0:0:
72,91,165217,2,0,L|155:107,1,85,2|0,3:0|3:0,0:0:0:0:
216,178,165556,2,0,P|176:198|122:194,1,85,8|0,0:0|3:0,0:0:0:0:
42,195,165895,6,0,P|109:243|88:346,1,170,2|8,3:0|0:0,0:0:0:0:
26,374,166404,1,0,3:0:0:0:
26,374,166488,1,0,3:0:0:0:
26,374,166573,2,0,L|-2:272,2,85,0|0|8,3:0|3:0|0:0,0:0:0:0:
162,381,167082,6,0,P|205:372|237:335,1,85,4|0,0:1|0:0,0:0:0:0:
168,221,167421,2,0,P|154:262|170:308,1,85,0|8,3:0|0:0,0:0:0:0:
303,305,167760,2,0,P|273:272|225:263,1,85,0|0,0:0|3:0,0:0:0:0:
282,181,168099,1,8,0:0:0:0:
282,181,168183,1,8,0:0:0:0:
282,181,168268,1,8,0:0:0:0:
225,105,168438,1,8,0:0:0:0:
316,86,168607,6,0,L|416:107,1,85,4|0,3:1|3:0,0:0:0:0:
487,164,168946,2,0,L|403:181,1,85,8|0,0:0|0:0,0:0:0:0:
346,251,169285,2,0,L|446:272,2,85,2|0|8,3:3|3:0|0:0,0:0:0:0:
273,310,169794,1,0,0:0:0:0:
273,310,169963,6,0,P|232:335|188:331,1,85,2|0,3:3|3:0,0:0:0:0:
211,241,170302,1,8,0:0:0:0:
127,283,170472,1,8,0:0:0:0:
127,283,170556,1,8,0:0:0:0:
127,283,170641,1,2,3:3:0:0:
131,189,170810,1,0,3:0:0:0:
46,229,170980,2,0,L|23:137,2,85,8|2|4,0:0|0:0|3:1,0:0:0:0:
127,283,171488,6,0,P|118:334|85:359,2,85,0|8|0,3:0|0:0|0:0,0:0:0:0:
131,189,171997,1,2,3:3:0:0:
211,235,172166,1,0,3:0:0:0:
219,141,172336,1,8,0:0:0:0:
294,195,172505,1,8,0:0:0:0:
294,195,172590,1,8,0:0:0:0:
294,195,172675,6,0,L|385:180,2,85,2|0|8,3:3|3:0|0:0,0:0:0:0:
211,235,173183,2,0,P|245:273|283:285,1,85,0|8,3:0|0:0,0:0:0:0:
366,308,173522,2,0,L|449:321,2,85,4|8|0,3:0|3:0|3:0,0:0:0:0:
296,371,174031,5,4,3:1:0:0:
296,371,174200,2,0,P|238:358|178:361,1,85,8|4,0:0|3:0,0:0:0:0:
104,242,174539,2,0,P|121:298|154:349,2,85,4|0|0,3:2|0:0|3:0,0:0:0:0:
205,272,175048,2,0,P|245:228|272:174,1,85,8|0,0:0|0:0,0:0:0:0:
256,64,175387,5,4,0:1:0:0:
256,64,177251,2,0,L|249:106,2,42.5,2|2|2,0:0|0:0|0:0,0:0:0:0:
349,73,177590,2,0,L|437:42,1,85,2|2,0:0|0:3,0:0:0:0:
316,170,178099,5,0,0:0:0:0:
71,42,185387,6,0,L|119:31,2,38.2499988327027,0|0|4,3:0|3:0|3:0,0:0:0:0:
50,123,185726,2,0,L|2:112,2,38.2499988327027,8|8|4,3:0|3:0|3:0,0:0:0:0:
132,139,186065,1,0,3:0:0:0:
63,251,186234,5,0,1:3:0:0:
63,251,188268,6,0,P|115:266|157:257,1,85,4|0,1:2|0:0,0:0:0:0:
292,214,188607,2,0,P|240:199|198:208,1,85,4|0,1:2|0:0,0:0:0:0:
137,144,188946,6,0,L|117:57,1,85,4|0,0:1|0:0,0:0:0:0:
209,83,189285,2,0,L|189:-4,1,85,0|0,1:0|1:0,0:0:0:0:
322,0,189624,2,0,L|303:83,1,85,0|0,1:0|1:0,0:0:0:0:
394,61,189963,2,0,L|375:144,1,85,0|0,1:0|1:0,0:0:0:0:
386,237,190302,6,0,P|437:232|465:204,1,85,0|0,1:0|1:0,0:0:0:0:
509,343,190641,2,0,P|475:317|433:316,1,85,0|0,1:0|1:0,0:0:0:0:
279,351,190980,2,0,P|320:349|353:323,1,85,0|0,1:0|1:0,0:0:0:0:
284,260,191319,2,0,P|250:234|208:233,1,85,0|0,1:0|1:0,0:0:0:0:
128,280,191658,5,0,1:0:0:0:
128,280,191827,1,0,1:0:0:0:
128,186,191997,2,0,L|110:91,1,85,0|0,1:0|1:0,0:0:0:0:
34,50,192336,5,0,1:0:0:0:
34,50,192505,1,0,1:0:0:0:
34,144,192675,2,0,L|52:239,1,85,0|0,1:0|1:0,0:0:0:0:
110,296,193014,6,0,P|68:318|19:316,2,85,0|0|0,1:0|1:0|1:0,0:0:0:0:
151,211,193522,1,0,1:0:0:0:
210,283,193692,1,0,1:0:0:0:
251,199,193861,1,0,1:0:0:0:
309,271,194031,1,0,1:0:0:0:
346,185,194200,1,0,1:0:0:0:
404,258,194370,6,0,P|464:262|499:149,1,170,4|0,1:2|1:2,0:0:0:0:
442,110,194878,2,0,P|382:100|263:57,1,170,4|0,0:0|3:0,0:0:0:0:
199,13,195387,1,0,1:0:0:0:
212,151,195556,6,0,P|233:207|255:332,1,170,4|0,1:2|3:2,0:0:0:0:
335,268,196065,1,8,0:0:0:0:
328,361,196234,1,8,3:0:0:0:
328,361,196319,1,0,3:0:0:0:
328,361,196404,2,0,L|433:374,1,85,8|0,0:0|3:0,0:0:0:0:
512,302,196743,2,0,L|427:291,1,85,8|0,0:0|3:0,0:0:0:0:
393,204,197082,5,4,3:2:0:0:
479,168,197251,2,0,L|496:81,1,85,8|0,0:0|3:0,0:0:0:0:
446,4,197590,2,0,P|394:28|273:35,1,170,8|0,0:2|3:0,0:0:0:0:
192,9,198099,1,8,0:2:0:0:
242,137,198268,6,0,L|206:316,1,170,4|4,3:2|3:3,0:0:0:0:
117,280,198777,1,4,3:3:0:0:
144,369,198946,1,4,3:0:0:0:
144,369,199031,1,8,0:0:0:0:
144,369,199116,1,8,0:0:0:0:
53,344,199285,1,8,0:0:0:0:
53,344,199794,6,0,L|19:258,1,85,0|0,1:0|0:0,0:0:0:0:
115,224,200133,6,0,P|151:175|149:107,1,101.999996887207,4|0,1:2|0:0,0:0:0:0:
116,40,200472,1,0,0:0:0:0:
215,63,200641,2,0,L|322:83,1,101.999996887207,0|8,3:0|0:0,0:0:0:0:
415,101,200980,6,0,P|459:152|476:306,1,203.999993774414,4|0,3:1|3:0,0:0:0:0:
406,352,201488,1,8,0:0:0:0:
361,259,201658,2,0,L|256:294,1,101.999996887207,0|0,0:0|3:0,0:0:0:0:
181,351,201997,2,0,L|286:386,1,101.999996887207,0|8,3:0|0:0,0:0:0:0:
91,364,202336,6,0,P|60:320|71:256,1,101.999996887207,0|0,0:0|3:0,0:0:0:0:
111,140,202675,2,0,P|142:184|131:248,1,101.999996887207,0|8,0:0|0:0,0:0:0:0:
31,76,203014,2,0,L|147:32,1,101.999996887207,0|0,0:0|3:0,0:0:0:0:
211,97,203353,2,0,P|253:122|303:117,1,101.999996887207,0|8,3:0|0:0,0:0:0:0:
373,42,203692,1,0,3:0:0:0:
373,42,203777,1,0,0:0:0:0:
373,42,203861,5,0,3:0:0:0:
434,123,204031,1,0,0:0:0:0:
364,197,204200,2,0,L|402:306,1,101.999996887207,8|0,0:0|0:0,0:0:0:0:
330,370,204539,2,0,P|281:367|239:336,1,101.999996887207,0|0,3:0|3:0,0:0:0:0:
211,238,204878,1,8,0:0:0:0:
143,314,205048,1,0,0:0:0:0:
111,217,205217,6,0,P|147:156|282:162,1,203.999993774414,0|8,3:0|0:0,0:0:0:0:
319,241,205726,2,0,L|436:258,1,101.999996887207,0|0,0:0|3:0,0:0:0:0:
492,183,206065,1,0,3:0:0:0:
510,282,206234,1,8,0:0:0:0:
428,343,206404,6,0,L|226:372,1,203.999993774414,4|0,3:1|3:0,0:0:0:0:
124,357,206912,2,0,P|93:318|94:263,1,101.999996887207,8|0,0:0|0:0,0:0:0:0:
157,188,207251,2,0,L|40:161,1,101.999996887207,0|0,3:0|3:0,0:0:0:0:
13,72,207590,1,8,0:0:0:0:
105,29,207760,1,0,0:0:0:0:
180,96,207929,6,0,P|259:108|389:42,1,203.999993774414,0|8,3:0|0:0,0:0:0:0:
455,4,208438,2,0,L|482:118,1,101.999996887207,0|0,0:0|3:0,0:0:0:0:
408,177,208777,1,0,3:0:0:0:
408,177,208861,1,8,0:0:0:0:
408,177,208946,1,8,0:0:0:0:
468,259,209116,6,0,P|388:265|264:187,1,203.999993774414,4|0,3:1|3:0,0:0:0:0:
187,249,209624,2,0,L|210:133,1,101.999996887207,8|0,0:0|0:0,0:0:0:0:
299,104,209963,2,0,L|276:-12,2,101.999996887207,0|8|8,3:0|0:0|0:0,0:0:0:0:
321,204,210472,1,8,0:0:0:0:
321,204,210556,1,8,0:0:0:0:
321,204,210641,6,0,L|433:229,1,101.999996887207,4|0,3:1|0:0,0:0:0:0:
352,302,210980,1,8,0:0:0:0:
255,269,211149,2,0,P|229:218|243:160,1,101.999996887207,0|0,0:0|3:0,0:0:0:0:
208,76,211488,2,0,P|162:97|136:140,1,101.999996887207,0|8,3:0|0:0,0:0:0:0:
95,233,211827,6,0,P|49:193|92:44,2,203.999993774414,0|0|0,3:0|0:0|0:0,0:0:0:0:
197,241,212675,1,0,3:0:0:0:
137,323,212844,2,0,L|19:354,1,101.999996887207,0|8,3:0|0:0,0:0:0:0:
225,358,213183,1,8,0:0:0:0:
225,358,213268,1,8,0:0:0:0:
225,358,213353,6,0,L|343:389,1,101.999996887207,0|0,3:0|3:0,0:0:0:0:
314,282,213692,1,8,0:0:0:0:
406,324,213861,2,0,L|504:298,1,101.999996887207,0|0,0:0|3:0,0:0:0:0:
472,201,214200,2,0,P|498:155|486:93,1,101.999996887207,0|8,3:0|0:0,0:0:0:0:
420,35,214539,1,0,3:0:0:0:
385,131,214709,6,0,P|321:152|166:159,1,203.999993774414,0|8,3:0|0:0,0:0:0:0:
129,75,215217,1,0,0:0:0:0:
61,152,215387,1,0,3:0:0:0:
121,234,215556,1,0,1:0:0:0:
121,234,215641,1,0,1:0:0:0:
121,234,215726,2,0,P|117:284|86:328,1,101.999996887207,0|0,1:0|1:0,0:0:0:0:
190,330,216065,6,0,P|249:310|426:312,1,203.999993774414,4|0,1:2|1:0,0:0:0:0:
429,210,216573,2,0,P|382:168|295:14,1,203.999993774414,4|0,3:1|3:0,0:0:0:0:
230,118,217082,1,0,1:0:0:0:
151,53,217251,6,0,P|125:151|73:238,1,203.999993774414,4|0,3:2|1:0,0:0:0:0:
5,316,217760,1,0,1:0:0:0:
5,316,217929,1,4,3:0:0:0:
103,344,218099,1,0,1:0:0:0:
265,221,218438,1,0,1:0:0:0:
404,318,218777,5,6,3:2:0:0:
404,318,219285,2,0,L|425:220,1,85,0|8,3:0|0:0,0:0:0:0:
256,145,219794,2,0,L|235:47,1,85,0|2,3:0|3:0,0:0:0:0:
155,105,220133,6,0,P|102:93|72:53,1,85,2|8,3:0|0:0,0:0:0:0:
5,127,220472,2,0,P|21:178|1:224,1,85,0|0,3:0|0:0,0:0:0:0:
36,297,220810,2,0,P|97:257|206:273,1,170,8|2,0:0|3:0,0:0:0:0:
274,306,221319,1,0,3:0:0:0:
274,306,221404,1,0,3:0:0:0:
274,306,221488,6,0,L|290:205,2,85,6|0|0,3:2|0:0|3:0,0:0:0:0:
367,291,221997,1,0,3:0:0:0:
333,377,222166,1,8,0:0:0:0:
407,205,222505,1,0,3:0:0:0:
467,276,222675,1,2,3:0:0:0:
499,188,222844,6,0,L|515:87,1,85,2|8,3:0|0:0,0:0:0:0:
464,23,223183,2,0,P|413:35|386:65,1,85,0|0,3:0|3:0,0:0:0:0:
315,112,223522,2,0,P|264:100|237:70,1,85,8|0,0:0|0:0,0:0:0:0:
161,29,223861,2,0,P|110:41|83:71,1,85,2|0,3:0|0:0,0:0:0:0:
73,155,224200,6,0,P|129:183|136:299,1,170,4|2,3:1|0:3,0:0:0:0:
305,380,224878,2,0,P|309:298|377:253,1,170,8|2,0:0|0:3,0:0:0:0:
472,258,225387,1,4,3:0:0:0:
472,258,225472,1,4,3:0:0:0:
472,258,225556,6,0,L|485:347,1,85,8|0,0:3|0:0,0:0:0:0:
430,183,225895,2,0,L|442:98,1,85,4|0,3:0|3:0,0:0:0:0:
362,49,226234,2,0,L|349:133,1,85,4|0,3:0|3:0,0:0:0:0:
279,230,226573,2,0,L|266:145,1,85,0|0,3:0|3:0,0:0:0:0:
243,54,226912,5,4,2:1:0:0:
243,54,228946,2,0,L|149:39,1,85,0|0,3:0|3:0,0:0:0:0:
98,111,229285,2,0,L|181:124,1,85,0|0,0:0|3:0,0:0:0:0:
273,142,229624,5,4,0:2:0:0:
256,192,232505,12,4,234031,0:0:0:0:
119,68,234370,6,0,P|144:106|139:152,1,85,8|0,0:0|3:0,0:0:0:0:
97,226,234709,1,8,0:0:0:0:
97,226,235048,6,0,L|201:244,1,85,4|0,0:1|0:0,0:0:0:0:
216,327,235387,2,0,L|299:312,1,85,2|0,3:2|0:0,0:0:0:0:
343,229,235726,2,0,L|447:247,2,85,0|0|2,3:0|0:0|3:2,0:0:0:0:
269,171,236234,6,0,P|295:118|402:94,1,170,12|0,0:2|0:0,0:0:0:0:
490,97,236743,2,0,P|478:139|441:173,2,85,2|0|2,3:2|0:0|3:2,0:0:0:0:
440,17,237251,2,0,L|347:-1,1,85,0|2,0:0|3:2,0:0:0:0:
264,17,237590,1,0,0:0:0:0:
264,17,237760,6,0,P|239:56|188:68,1,85,4|0,0:2|0:0,0:0:0:0:
162,152,238099,2,0,P|208:154|244:192,1,85,2|0,3:2|0:0,0:0:0:0:
202,265,238438,2,0,P|155:262|119:224,1,85,0|0,3:0|0:0,0:0:0:0:
65,168,238777,1,2,3:2:0:0:
65,168,238946,1,12,0:2:0:0:
29,254,239116,5,0,0:0:0:0:
113,87,239455,1,0,3:0:0:0:
180,150,239624,1,8,3:2:0:0:
200,58,239794,2,0,L|294:72,1,85,0|4,3:0|3:0,3:0:0:0:
375,89,240133,1,4,3:0:0:0:
374,276,240472,6,0,P|346:227|357:181,1,85,4|0,0:1|0:0,0:0:0:0:
437,174,240810,2,0,P|465:223|454:269,1,85,2|0,3:2|0:0,0:0:0:0:
357,360,241149,2,0,L|247:340,1,85,0|0,3:0|0:0,0:0:0:0:
181,324,241488,1,2,3:2:0:0:
244,254,241658,6,0,P|215:200|219:62,1,170,12|0,0:2|3:0,0:0:0:0:
271,23,242166,1,8,3:3:0:0:
312,106,242336,1,0,3:0:0:0:
312,106,242421,1,0,3:0:0:0:
312,106,242505,1,4,3:3:0:0:
375,36,242675,2,0,L|429:48,2,42.5,0|0|0,3:0|3:0|3:0,0:0:0:0:
417,155,243014,1,4,3:1:0:0:
256,192,243099,12,0,248608,0:0:0:0:
