osu file format v14

[General]
AudioFilename: audio.mp3
AudioLeadIn: 0
PreviewTime: 48716
Countdown: 0
SampleSet: Soft
StackLeniency: 0.7
Mode: 2
LetterboxInBreaks: 0
WidescreenStoryboard: 0

[Editor]
DistanceSpacing: 1.3
BeatDivisor: 4
GridSize: 16
TimelineZoom: 1.699999

[Metadata]
Title:Sora to Kimi no Message (TV Size)
TitleUnicode:空とキミのメッセージ (TV Size)
Artist:ChouCho
ArtistUnicode:ChouCho
Creator:-Hex-
Version:Gargantia
Source:翠星のガルガンティア
Tags:ちょうちょ Suisei no Gargantia on the Verdurous Planet Amy Message from You and the Sky monstrata
BeatmapID:2116455
BeatmapSetID:1011150

[Difficulty]
HPDrainRate:6
CircleSize:4
OverallDifficulty:8.8
ApproachRate:8.8
SliderMultiplier:2.1
SliderTickRate:2

[Events]
//Background and Video events
0,0,"bg.jpg",0,0
//Break Periods
//Storyboard Layer 0 (Background)
//Storyboard Layer 1 (Fail)
//Storyboard Layer 2 (Pass)
//Storyboard Layer 3 (Foreground)
//Storyboard Layer 4 (Overlay)
//Storyboard Sound Samples

[TimingPoints]
850,458.015267175573,4,2,1,45,1,0
850,-100,4,2,1,45,0,0
2682,461.538461538462,4,2,1,45,1,0
6374,465.116279069767,4,2,1,45,1,0
10094,454.545454545455,4,2,1,45,1,0
11912,465.116279069767,4,2,1,45,1,0
13772,458.015267175573,4,2,1,45,1,0
15604,461.538461538462,4,2,1,45,1,0
18142,-100,4,2,2,35,0,0
18373,-100,4,2,2,45,0,0
18834,-100,4,2,1,45,0,0
19296,-100,4,1,1,50,0,0
32219,-100,4,2,2,40,0,0
32680,-100,4,1,1,50,0,0
37756,458.015267175573,4,2,1,50,1,0
41420,465.116279069767,4,2,1,50,1,0
44443,-100,4,2,2,45,0,0
45140,461.538461538462,4,2,1,55,1,0
45140,-90.9090909090909,4,1,1,55,0,0
45601,-100,4,1,1,55,0,0
48140,-100,4,1,1,60,0,0
48832,458.015267175573,4,1,1,75,1,0
48832,-90.9090909090909,4,1,1,75,0,1
52496,461.538461538462,4,1,1,75,1,1
52496,-90.9090909090909,4,1,1,75,0,1
56188,465.116279069767,4,1,1,75,1,1
56188,-90.9090909090909,4,1,1,75,0,1
59908,458.015267175573,4,1,1,75,1,1
59908,-90.9090909090909,4,1,1,75,0,1
62656,-90.9090909090909,4,1,1,75,0,0
63572,461.538461538462,4,1,1,75,1,0
63572,-90.9090909090909,4,1,1,75,0,1
67264,465.116279069767,4,1,1,75,1,0
67264,-90.9090909090909,4,1,1,75,0,1
70984,458.015267175573,4,1,1,75,1,0
70984,-90.9090909090909,4,1,1,75,0,1
72816,-90.9090909090909,4,1,1,80,0,1
73732,-90.9090909090909,4,1,1,80,0,0
74419,-90.9090909090909,4,1,1,80,0,1
74648,461.538461538462,4,1,1,80,1,0
74648,-90.9090909090909,4,1,1,80,0,1
76263,487.80487804878,4,1,1,80,1,1
76750,472.44094488189,4,1,1,80,1,1
77458,-90.9090909090909,4,2,1,60,0,0
78639,-76.9230769230769,4,2,1,60,0,0
80200,465.116279069767,4,2,1,60,1,0
80200,-100,4,2,1,60,0,0
82060,461.538461538462,4,2,1,60,1,0
82521,-100,4,2,1,40,0,0
82983,-100,4,2,1,60,0,0
83906,454.545454545455,4,2,1,60,1,0
83906,-76.9230769230769,4,2,1,60,0,0
84133,-100,4,2,1,60,0,0
85269,480,4,2,1,60,1,0
86229,-100,4,2,1,40,0,0
87669,-100,4,2,1,20,0,0
89589,-100,4,2,1,10,0,0
91509,-100,4,2,1,5,0,0

[Colours]
Combo1 : 224,192,154
Combo2 : 131,42,34
Combo3 : 74,103,61

[HitObjects]
78,341,850,6,0,L|78:225,1,105,6|0,0:0|0:0,0:0:0:0:
194,218,1308,1,0,0:0:0:0:
415,227,1537,2,0,P|413:148|287:92,1,210,2|2,0:0|0:0,0:0:0:0:
193,93,2224,2,0,L|314:93,1,105
66,150,2682,6,0,P|-3:221|81:273,1,210,2|0,0:0|0:0,0:0:0:0:
176,297,3374,1,0,0:0:0:0:
291,297,3605,2,0,L|172:298,1,105,2|0,0:0|0:0,0:0:0:0:
68,298,4066,2,0,L|58:187,1,105,2|0,0:0|0:0,0:0:0:0:
407,144,4528,5,2,3:2:0:0:
270,142,4758,2,0,L|151:144,2,105,0|0|2,0:0|0:0|0:0,0:0:0:0:
388,181,5451,2,0,L|390:301,1,105
272,332,5912,2,0,L|385:334,1,105,2|0,0:0|0:0,0:0:0:0:
145,232,6374,6,0,L|280:230,1,105,2|0,0:0|0:0,0:0:0:0:
366,231,6839,1,0,0:0:0:0:
145,141,7071,2,0,L|140:33,1,105,2|0,0:0|0:0,0:0:0:0:
374,41,7536,2,0,L|154:39,1,210,0|0,0:0|3:0,0:0:0:0:
469,258,8234,5,2,3:2:0:0:
332,213,8467,2,0,P|332:148|462:113,1,210,0|2,0:0|0:0,0:0:0:0:
336,41,9164,2,0,L|216:43,1,105
358,136,9629,2,0,L|358:253,1,105,2|0,0:0|0:0,0:0:0:0:
126,300,10094,6,0,L|13:298,2,105,2|0|0,0:0|0:0|0:0,0:0:0:0:
348,304,10775,2,0,L|348:196,1,105,2|0,1:2|1:0,0:0:0:0:
232,183,11230,1,0,0:0:0:0:
463,99,11457,1,0,0:0:0:0:
342,99,11684,1,0,3:0:0:0:
53,101,11912,5,2,3:2:0:0:
190,102,12144,2,0,L|295:100,2,105
53,202,12842,2,0,L|174:201,1,105,2|0,0:0|0:0,0:0:0:0:
274,275,13307,2,0,L|152:275,1,105
402,218,13772,5,2,0:0:0:0:
304,167,14001,1,0,0:0:0:0:
308,68,14230,1,2,0:0:0:0:
409,27,14459,1,0,0:0:0:0:
189,174,14688,2,0,L|174:289,1,105,2|0,0:0|0:0,0:0:0:0:
397,343,15146,2,0,L|407:224,1,105,2|0,0:0|3:0,0:0:0:0:
80,234,15604,6,0,L|227:235,2,105,2|0|0,3:2|0:0|0:0,0:0:0:0:
301,243,16296,2,0,P|366:197|278:131,1,210,2|0,0:0|0:0,0:0:0:0:
177,119,16988,1,2,0:0:0:0:
398,40,17219,1,0,0:0:0:0:
328,38,17334,1,0,0:0:0:0:
193,41,17450,6,0,L|81:43,2,105,2|0|2,1:2|1:0|1:2,0:0:0:0:
419,100,18142,2,0,P|486:164|398:234,1,210,6|0,0:2|0:0,0:0:0:0:
200,264,18834,1,4,0:0:0:0:
315,169,19065,1,0,3:0:0:0:
378,168,19180,1,0,0:0:0:0:
132,52,19296,5,6,3:2:0:0:
258,102,19527,2,0,L|366:101,2,105,0|2|0,0:0|0:2|0:0,0:0:0:0:
27,308,20219,2,0,L|154:305,1,105,0|0,0:0|0:0,0:0:0:0:
249,311,20680,2,0,L|261:201,1,105,2|0,0:2|0:0,0:0:0:0:
28,105,21142,6,0,L|151:101,1,105,2|0,0:2|0:0,0:0:0:0:
248,101,21604,1,0,0:0:0:0:
480,219,21834,2,0,L|482:339,1,105,2|0,0:2|0:0,0:0:0:0:
261,353,22296,2,0,L|494:344,1,210,0|0,0:0|3:0,0:0:0:0:
148,96,22988,5,2,3:2:0:0:
283,218,23219,2,0,L|413:218,2,105,0|2|0,0:0|0:2|0:0,0:0:0:0:
52,92,23911,2,0,L|180:90,1,105
284,188,24373,2,0,L|170:188,1,105,2|0,0:2|0:0,0:0:0:0:
412,311,24834,6,0,L|293:310,2,105,2|0|0,0:2|0:0|0:0,0:0:0:0:
191,232,25527,2,0,L|180:118,1,105,2|0,0:2|0:0,0:0:0:0:
403,54,25988,2,0,L|160:56,1,210,0|0,0:0|3:0,0:0:0:0:
487,199,26680,5,2,3:2:0:0:
351,197,26911,2,0,L|213:196,1,105,0|2,0:0|0:2,0:0:0:0:
364,105,27373,1,0,0:0:0:0:
132,141,27604,2,0,L|105:276,1,105,0|0,0:0|0:0,0:0:0:0:
239,299,28065,1,2,0:2:0:0:
111,346,28296,1,0,0:0:0:0:
416,146,28527,5,2,0:2:0:0:
269,205,28757,2,0,L|378:207,1,105,0|2,0:0|0:2,0:0:0:0:
413,334,29219,1,0,0:0:0:0:
180,257,29450,2,0,L|24:251,1,105,0|0,0:0|0:0,0:0:0:0:
298,139,29911,2,0,L|422:137,1,105,2|0,0:2|3:0,0:0:0:0:
107,57,30373,6,0,L|231:58,2,105,2|0|0,3:2|0:0|0:0,0:0:0:0:
338,187,31065,2,0,P|344:275|224:291,1,210,2|0,0:2|0:0,0:0:0:0:
21,170,31757,2,0,L|154:170,1,105,2|0,0:2|0:0,0:0:0:0:
420,177,32219,6,0,L|422:305,1,105,6|4,0:2|0:0,0:0:0:0:
200,321,32680,2,0,L|341:321,1,105,4|0,0:2|3:0,0:0:0:0:
74,211,33142,1,8,0:3:0:0:
210,213,33373,1,0,0:0:0:0:
347,219,33604,1,2,3:2:0:0:
190,121,33834,1,0,3:0:0:0:
487,227,34065,6,0,P|486:307|363:342,1,210,6|0,3:2|3:0,0:0:0:0:
250,270,34757,1,2,0:2:0:0:
470,166,34988,1,0,3:0:0:0:
334,162,35219,2,0,L|228:161,2,105,0|0|0,0:0|3:0|3:0,0:0:0:0:
31,50,35911,6,0,L|270:52,1,210,2|0,3:2|3:0,0:0:0:0:
357,58,36604,1,2,0:2:0:0:
126,192,36834,2,0,P|123:269|246:306,1,210,0|2,3:0|3:2,0:0:0:0:
359,311,37527,1,0,3:0:0:0:
51,107,37757,6,0,L|177:106,2,105,2|0|0,3:2|0:0|3:0,0:0:0:0:
282,194,38443,2,0,L|286:327,1,105,2|0,0:2|0:0,0:0:0:0:
158,328,38901,1,0,0:0:0:0:
391,333,39130,2,0,L|497:336,1,105,2|0,0:2|3:0,0:0:0:0:
185,232,39588,6,0,L|65:230,2,105,8|0|0,3:0|0:0|3:0,0:0:0:0:
406,238,40275,1,2,0:2:0:0:
184,109,40504,1,0,3:0:0:0:
300,107,40733,2,0,L|87:107,1,210,0|0,0:0|3:0,0:0:0:0:
405,218,41420,6,0,P|475:270|395:333,1,210,2|0,3:2|3:0,0:0:0:0:
289,333,42117,1,2,0:2:0:0:
59,147,42350,2,0,L|184:147,2,105,0|0|0,0:0|0:0|3:0,0:0:0:0:
185,251,43047,1,2,0:2:0:0:
485,149,43280,6,0,L|357:147,1,105,0|0,3:0|0:0,0:0:0:0:
148,145,43745,1,0,3:0:0:0:
378,170,43978,2,0,L|484:170,1,105,2|0,0:2|0:0,0:0:0:0:
335,261,44443,2,0,L|439:262,2,105,4|4|4,0:0|0:2|0:0,0:0:0:0:
43,243,45140,6,0,P|39:152|161:106,1,231.000007049561,4|0,0:2|0:0,0:0:0:0:
364,113,45832,1,0,3:0:0:0:
76,279,46063,2,0,L|311:277,1,210,4|0,0:2|0:0,0:0:0:0:
54,181,46755,1,0,3:0:0:0:
403,130,46986,6,0,L|181:130,1,210,4|0,0:2|0:0,0:0:0:0:
425,46,47678,1,0,3:0:0:0:
100,165,47909,2,0,L|78:299,1,105,8|8,0:0|0:0,0:0:0:0:
187,279,48255,1,0,0:0:0:0:
394,294,48370,1,8,0:0:0:0:
462,259,48486,1,8,0:0:0:0:
457,208,48601,1,8,0:3:0:0:
383,177,48716,1,8,0:0:0:0:
80,178,48832,6,0,L|74:60,1,115.50000352478,6|0,0:2|0:0,0:0:0:0:
305,17,49290,2,0,L|178:18,1,115.50000352478,8|0,0:0|0:0,0:0:0:0:
432,93,49748,2,0,L|440:211,1,115.50000352478,0|2,0:0|0:0,0:0:0:0:
276,234,50206,1,8,0:0:0:0:
111,233,50435,1,0,0:0:0:0:
457,248,50664,6,0,L|324:248,1,115.50000352478,2|0,0:0|0:0,0:0:0:0:
104,250,51122,1,8,0:0:0:0:
451,141,51351,2,0,L|203:142,1,231.000007049561,0|2,0:0|0:2,0:0:0:0:
369,61,52038,1,8,0:0:0:0:
173,63,52267,1,0,0:0:0:0:
482,270,52496,6,0,L|340:266,2,115.50000352478,2|0|8,0:2|0:0|0:0,0:0:0:0:
251,298,53188,2,0,L|492:300,1,231.000007049561,0|2,0:0|0:2,0:0:0:0:
253,161,53880,2,0,L|121:164,1,115.50000352478,8|0,0:0|0:0,0:0:0:0:
444,306,54342,6,0,L|301:299,2,115.50000352478,2|0|8,0:2|0:0|0:0,0:0:0:0:
213,306,55034,2,0,P|144:209|227:174,1,231.000007049561,0|2,0:0|0:0,0:0:0:0:
458,85,55726,2,0,L|333:82,1,115.50000352478,8|0,0:0|0:0,0:0:0:0:
7,193,56188,6,0,L|258:199,1,231.000007049561,2|8,0:0|0:0,0:0:0:0:
399,208,56885,1,0,0:0:0:0:
156,276,57118,2,0,L|306:272,1,115.50000352478
40,194,57583,2,0,L|37:67,1,115.50000352478,8|2,0:0|0:2,0:0:0:0:
435,8,58048,5,2,0:0:0:0:
250,126,58281,2,0,L|130:126,1,115.50000352478,2|8,0:0|0:0,0:0:0:0:
366,181,58746,2,0,L|491:180,2,115.50000352478,0|2|0,0:0|0:0|0:0,0:0:0:0:
124,185,59443,1,8,0:0:0:0:
485,84,59676,6,0,L|346:85,1,115.50000352478,4|0,0:2|0:0,0:0:0:0:
208,80,60137,1,0,0:0:0:0:
448,228,60366,1,8,0:0:0:0:
133,232,60595,2,0,P|133:149|267:81,1,231.000007049561,4|0,0:2|0:0,0:0:0:0:
493,68,61282,1,8,0:0:0:0:
81,327,61511,6,0,L|314:328,1,231.000007049561,4|0,0:2|0:0,0:0:0:0:
70,232,62198,2,0,L|64:115,1,115.50000352478,8|2,0:0|0:0,0:0:0:0:
376,63,62656,2,0,L|261:65,1,115.50000352478,8|0,0:0|3:0,0:0:0:0:
164,75,62999,1,0,3:0:0:0:
251,145,63114,1,8,3:1:0:0:
345,159,63228,1,0,3:0:0:0:
345,233,63343,1,8,3:1:0:0:
250,268,63457,1,0,3:0:0:0:
30,320,63572,6,0,L|164:324,1,115.50000352478,6|0,0:2|0:0,0:0:0:0:
365,230,64033,2,0,L|225:225,1,115.50000352478,8|0,0:0|0:0,0:0:0:0:
494,338,64495,2,0,L|507:215,1,115.50000352478,2|0,0:0|0:0,0:0:0:0:
321,173,64956,1,8,0:0:0:0:
496,100,65187,1,2,0:2:0:0:
165,81,65418,6,0,L|298:78,1,115.50000352478,2|0,0:0|0:0,0:0:0:0:
49,199,65879,1,8,0:0:0:0:
278,289,66110,2,0,L|27:288,1,231.000007049561,0|2,0:0|0:2,0:0:0:0:
221,180,66802,1,8,0:0:0:0:
27,77,67033,1,2,0:2:0:0:
392,73,67264,6,0,L|254:72,2,115.50000352478,2|0|8,0:0|0:0|0:0,0:0:0:0:
80,261,67961,2,0,P|9:209|104:132,1,231.000007049561,0|2,0:0|0:2,0:0:0:0:
331,130,68659,2,0,L|466:130,1,115.50000352478,8|2,0:0|0:2,0:0:0:0:
76,263,69124,6,0,L|215:264,2,115.50000352478,2|0|8,0:0|0:0|0:0,0:0:0:0:
423,175,69822,2,0,L|175:174,1,231.000007049561
376,67,70519,1,8,0:0:0:0:
144,64,70752,1,2,0:2:0:0:
484,243,70984,6,0,L|229:242,1,231.000007049561,6|8,0:2|0:0,0:0:0:0:
392,152,71671,1,0,0:0:0:0:
149,149,71900,2,0,L|284:149,1,115.50000352478,2|0,0:0|0:0,0:0:0:0:
508,72,72358,2,0,L|368:72,1,115.50000352478,8|2,0:0|0:2,0:0:0:0:
58,249,72816,6,0,P|56:167|196:114,1,231.000007049561,2|6,0:0|0:2,0:0:0:0:
396,143,73503,1,0,0:0:0:0:
211,287,73732,2,0,L|206:219,1,57.7500017623902,2|0,0:0|0:0,0:0:0:0:
409,185,73961,2,0,L|415:123,1,57.7500017623902,2|0,0:0|0:0,0:0:0:0:
200,69,74190,2,0,L|126:64,1,57.7500017623902,2|0,3:1|0:0,0:0:0:0:
385,96,74419,6,0,P|463:159|380:227,1,231.000007049561,6|0,0:2|0:0,0:0:0:0:
166,247,75109,1,8,0:0:0:0:
492,153,75340,2,0,L|244:154,1,231.000007049561,6|0,0:2|0:0,0:0:0:0:
481,66,76032,1,8,0:0:0:0:
155,183,76263,6,0,L|162:296,1,105,2|4,0:2|0:3,0:0:0:0:
393,305,76750,2,0,L|517:308,2,105,0|4|0,3:0|0:3|0:0,0:0:0:0:
39,311,77458,5,0,0:0:0:0:
201,313,77694,2,0,L|203:189,1,115.50000352478
423,169,78167,1,0,0:0:0:0:
64,105,78639,6,0,B|219:105|219:105|79:159|79:159|322:210|322:210|50:213|50:213,1,818.999962509157,2|0,0:0|0:0,0:0:0:0:
375,289,80200,6,0,L|378:145,1,105,2|0,3:2|0:0,0:0:0:0:
239,159,80665,1,0,0:0:0:0:
471,56,80897,2,0,L|249:53,1,210,2|0,0:0|0:0,0:0:0:0:
40,188,81595,2,0,L|35:317,1,105,2|0,0:0|0:0,0:0:0:0:
386,317,82060,6,0,L|521:317,1,105,2|0,0:0|0:0,0:0:0:0:
270,212,82521,2,0,L|149:211,1,105,4|2,0:0|0:0,0:0:0:0:
396,65,82983,2,0,L|395:191,1,105,4|0,0:0|3:0,0:0:0:0:
97,304,83444,1,2,0:1:0:0:
328,304,83675,1,0,0:0:0:0:
28,145,83906,6,0,L|178:142,1,136.499993751526,2|0,0:2|0:0,0:0:0:0:
374,143,84360,1,8,0:1:0:0:
185,40,84586,1,0,3:0:0:0:
117,41,84701,1,0,3:0:0:0:
380,44,84815,2,0,L|381:176,1,105,8|0,0:3|0:0,0:0:0:0:
83,227,85269,1,2,0:1:0:0:
460,234,85509,5,6,0:0:0:0:
256,192,85749,12,0,92949,0:0:0:0:
