osu file format v14

[General]
AudioFilename: audio.mp3
AudioLeadIn: 0
PreviewTime: 48830
Countdown: 0
SampleSet: None
StackLeniency: 0.7
Mode: 2
LetterboxInBreaks: 0
WidescreenStoryboard: 0

[Editor]
DistanceSpacing: 0.8
BeatDivisor: 4
GridSize: 32
TimelineZoom: 1

[Metadata]
Title:Sora to Kimi no Message
TitleUnicode:Sora to Kimi no Message
Artist:ChouCho
ArtistUnicode:ChouCho
Creator:Hytex
Version:Gargantia
Source:
Tags:gargantia on the verdurous planet ending ed anime
BeatmapID:2046003
BeatmapSetID:977565

[Difficulty]
HPDrainRate:6
CircleSize:4
OverallDifficulty:8.8
ApproachRate:8.8
SliderMultiplier:2
SliderTickRate:1

[Events]
//Background and Video events
0,0,"597513.jpg",0,0
//Break Periods
//Storyboard Layer 0 (Background)
//Storyboard Layer 1 (Fail)
//Storyboard Layer 2 (Pass)
//Storyboard Layer 3 (Foreground)
//Storyboard Sound Samples

[TimingPoints]
830,461.538461538462,4,2,1,70,1,0

[Colours]
Combo1 : 240,240,240
Combo2 : 255,255,0
Combo3 : 255,255,128
Combo4 : 255,128,64
Combo5 : 255,128,0

[HitObjects]
91,260,830,6,0,L|80:129,1,100
242,121,1291,1,0,0:0:0:0:
79,129,1522,1,0,0:0:0:0:
250,149,1753,2,0,L|390:136,1,100
176,109,2214,2,0,L|36:96,1,100
263,107,2676,6,0,L|388:86,1,100
146,92,3137,1,0,0:0:0:0:
262,79,3368,1,0,0:0:0:0:
45,207,3599,2,0,L|164:187,1,100
302,208,4060,2,0,L|183:188,1,100
501,168,4522,5,0,0:0:0:0:
315,223,4753,2,0,L|434:217,2,100
159,233,5445,2,0,L|148:124,1,100
306,120,5906,2,0,L|425:121,1,100
222,64,6368,6,0,L|104:75,2,100
350,151,7060,2,0,L|228:155,1,100
477,251,7522,2,0,L|371:260,1,100
179,272,7983,1,0,0:0:0:0:
488,168,8214,5,0,0:0:0:0:
330,197,8445,2,0,L|312:88,1,100
463,78,8906,1,0,0:0:0:0:
309,203,9137,2,0,P|254:178|312:81,1,200
152,212,9830,1,0,0:0:0:0:
312,162,10060,6,0,L|423:144,2,100
145,183,10753,2,0,L|134:72,1,100
316,131,11214,2,0,L|327:20,1,100
134,57,11676,1,0,0:0:0:0:
440,129,11906,5,0,0:0:0:0:
235,148,12137,2,0,L|132:155,2,100
376,138,12830,2,0,L|394:241,1,100
198,241,13291,2,0,L|180:344,1,100
386,338,13753,6,0,L|507:335,2,100
224,342,14445,1,0,0:0:0:0:
405,281,14676,2,0,L|416:167,1,100
204,190,15137,2,0,L|92:193,1,100
402,179,15599,6,0,P|462:146|363:96,1,200
241,114,16291,1,0,0:0:0:0:
98,222,16522,2,0,L|86:94,1,100
274,116,16983,2,0,L|394:108,1,100
316,72,17330,1,0,0:0:0:0:
136,152,17445,6,0,P|78:106|156:10,1,200
303,163,18137,1,0,0:0:0:0:
438,157,18368,2,0,L|456:21,1,100
266,40,18830,2,0,L|152:43,1,100
493,159,19291,5,0,0:0:0:0:
258,176,19522,2,0,L|397:169,2,100
446,95,20214,2,0,L|326:104,1,100
146,132,20675,2,0,L|119:13,1,100
308,192,21137,6,0,L|432:191,2,100
67,149,21830,2,0,L|197:138,1,100
368,142,22291,2,0,L|380:40,1,100
184,40,22753,1,0,0:0:0:0:
487,168,22983,5,0,0:0:0:0:
321,206,23214,2,0,L|214:215,2,100
93,174,23906,2,0,L|214:162,1,100
420,161,24368,2,0,L|413:274,1,100
166,282,24830,6,0,L|292:268,2,100
348,259,25522,2,0,L|360:141,1,100
136,165,25983,2,0,L|16:177,1,100
159,90,26445,1,0,0:0:0:0:
461,157,26676,5,0,0:0:0:0:
236,174,26906,1,0,0:0:0:0:
394,323,27137,2,0,L|405:204,1,100
239,202,27599,2,0,L|116:221,1,100
433,79,28060,2,0,L|310:98,1,100
31,61,28522,5,0,0:0:0:0:
229,97,28753,2,0,L|338:108,2,100
276,128,29330,1,0,0:0:0:0:
88,227,29445,2,0,L|78:104,1,100
288,94,29906,2,0,L|408:97,1,100
79,322,30368,6,0,P|25:266|113:217,1,200
357,307,31060,2,0,L|233:318,2,100
176,314,31753,2,0,L|154:195,1,100
462,174,32214,5,0,0:0:0:0:
252,191,32445,1,0,0:0:0:0:
432,177,32676,2,0,L|443:66,1,100
194,68,33137,2,0,L|70:63,1,100
286,180,33599,2,0,L|410:175,1,100
77,331,34060,6,0,P|19:295|102:220,1,200
248,280,34753,1,0,0:0:0:0:
427,234,34983,2,0,L|440:110,1,100
238,122,35445,2,0,L|357:126,1,100
34,282,35906,6,0,L|242:269,1,200
410,253,36599,1,0,0:0:0:0:
233,216,36830,2,0,L|217:95,1,100
418,160,37291,2,0,L|434:39,1,100
108,143,37753,6,0,P|39:95|127:53,1,200
327,80,38445,1,0,0:0:0:0:
218,152,38676,2,0,L|81:141,1,100
336,265,39138,2,0,L|341:143,1,100
29,307,39599,6,0,L|245:291,1,200
458,255,40291,1,0,0:0:0:0:
266,223,40522,2,0,L|145:233,1,100
376,216,40983,2,0,L|381:111,1,100
73,283,41445,6,0,P|14:228|99:182,1,200
227,184,42137,1,0,0:0:0:0:
358,144,42368,2,0,L|369:26,1,100
185,85,42830,2,0,L|60:87,1,100
403,231,43291,6,0,P|469:211|394:129,1,200
218,249,43983,2,0,L|208:123,1,100
392,113,44445,2,0,L|503:97,2,100
93,254,45137,6,0,P|21:189|88:142,1,200
195,193,45830,2,0,L|258:184,1,50
490,133,46060,6,0,L|277:117,1,200
437,195,46753,2,0,L|370:189,1,50
94,317,46983,6,0,L|63:103,1,200
159,108,47676,2,0,L|219:102,1,50
471,82,47906,5,0,0:0:0:0:
127,228,48137,1,0,0:0:0:0:
77,192,48253,1,0,0:0:0:0:
69,129,48368,1,0,0:0:0:0:
113,90,48483,1,0,0:0:0:0:
168,87,48599,1,0,0:0:0:0:
486,282,48830,6,0,L|491:162,1,100
243,203,49291,2,0,L|110:209,1,100
373,293,49753,2,0,L|240:301,1,100
446,194,50214,2,0,L|458:75,1,100
84,293,50676,6,0,L|59:173,1,100
230,192,51137,1,0,0:0:0:0:
478,198,51368,2,0,L|357:189,1,100
139,195,51830,2,0,L|23:184,2,100
446,320,52522,6,0,L|461:205,1,100
318,220,52983,1,0,0:0:0:0:
93,242,53214,2,0,L|232:230,1,100
437,195,53676,2,0,L|323:187,2,100
110,206,54368,6,0,L|93:100,1,100
234,104,54830,1,0,0:0:0:0:
373,119,55061,2,0,L|484:118,1,100
201,146,55522,1,0,0:0:0:0:
451,97,55753,2,0,B|317:101,1,100
57,302,56214,6,0,L|42:175,1,100
229,193,56676,1,0,0:0:0:0:
45,178,56906,1,0,0:0:0:0:
237,167,57137,2,0,L|346:158,1,100
129,181,57599,2,0,L|106:66,1,100
456,269,58060,6,0,L|467:148,1,100
269,166,58522,2,0,L|141:170,1,100
431,100,58983,2,0,L|291:104,1,100
63,105,59445,1,0,0:0:0:0:
439,259,59676,6,0,L|448:142,1,100
270,175,60137,2,0,L|416:157,1,100
44,328,60599,6,0,L|30:212,1,100
212,229,61060,2,0,L|94:228,1,100
452,346,61522,6,0,L|455:218,1,100
167,241,61983,2,0,L|293:230,2,100
487,147,62676,2,0,L|378:152,1,100
345,150,63022,1,0,0:0:0:0:
128,166,63137,2,0,L|110:46,1,100
475,280,63599,6,0,L|484:169,1,100
288,183,64060,2,0,L|157:195,1,100
436,95,64522,2,0,L|316:103,1,100
179,111,64983,1,0,0:0:0:0:
369,184,65214,1,0,0:0:0:0:
47,339,65445,6,0,L|33:225,1,100
198,228,65906,1,0,0:0:0:0:
465,216,66137,2,0,L|477:91,1,100
334,91,66599,2,0,L|221:77,2,100
24,238,67291,6,0,L|34:114,1,100
268,150,67753,1,0,0:0:0:0:
131,144,67983,2,0,L|11:136,1,100
189,91,68445,2,0,L|300:87,2,100
490,300,69137,6,0,L|480:182,1,100
247,223,69599,1,0,0:0:0:0:
381,209,69830,2,0,L|513:197,1,100
324,140,70291,2,0,L|201:128,2,100
36,325,70983,6,0,L|47:206,1,100
324,217,71445,2,0,L|313:98,1,100
9,108,71906,2,0,L|117:108,1,100
317,56,72368,2,0,L|209:56,1,100
266,102,72714,1,0,0:0:0:0:
478,217,72830,6,0,L|488:108,1,100
144,109,73291,2,0,L|31:116,1,100
414,193,73753,2,0,L|293:204,2,100
63,348,74445,6,0,L|44:238,1,100
182,236,74906,1,0,0:0:0:0:
398,213,75137,1,0,0:0:0:0:
103,196,75368,6,0,L|13:116,1,100
166,106,75830,1,0,0:0:0:0:
443,78,76060,1,0,0:0:0:0:
130,296,76291,6,0,L|137:177,1,100
385,180,76753,2,0,L|378:61,1,100
134,169,77214,1,0,0:0:0:0:
472,260,77445,6,0,L|246:273,1,200
64,289,78137,2,0,L|52:188,1,100
392,226,78599,6,0,B|456:214|485:151|463:68|408:41|275:20|272:148|343:249|255:303|148:316|83:268|53:168|60:134,1,650
337,122,80214,6,0,L|454:106,1,100
259,121,80676,2,0,L|142:105,1,100
327,271,81137,2,0,L|336:151,1,100
141,186,81599,2,0,L|132:66,1,100
357,124,82060,6,0,L|256:134,1,100
38,186,82522,2,0,L|139:196,1,100
374,224,82983,2,0,L|392:95,1,100
143,104,83445,1,0,0:0:0:0:
21,113,83676,1,0,0:0:0:0:
413,299,83906,6,0,L|428:186,1,100
194,226,84368,2,0,L|81:235,1,100
140,187,84715,1,0,0:0:0:0:
340,220,84830,2,0,L|354:108,1,100
100,96,85291,1,0,0:0:0:0:
462,214,85522,5,0,0:0:0:0:
256,192,85753,12,0,93137,0:0:0:0:
