osu file format v14

[General]
AudioFilename: audio.mp3
AudioLeadIn: 0
PreviewTime: 46809
Countdown: 0
SampleSet: Soft
StackLeniency: 0.4
Mode: 0
LetterboxInBreaks: 0
WidescreenStoryboard: 1

[Editor]
DistanceSpacing: 2.3
BeatDivisor: 4
GridSize: 4
TimelineZoom: 1

[Metadata]
Title:Orange Iro (TV Size)
TitleUnicode:オレンジ色 (TV Size)
Artist:ChouCho
ArtistUnicode:ChouCho
Creator:Agatsu
Version:Insane
Source:ツルネ ―風舞高校弓道部―
Tags:Tsurune Kazemai Koukou Kyuudoubu Ed Ending Japanese Anime
BeatmapID:1887305
BeatmapSetID:904087

[Difficulty]
HPDrainRate:5.2
CircleSize:4
OverallDifficulty:7.8
ApproachRate:8
SliderMultiplier:1.81
SliderTickRate:1

[Events]
//Background and Video events
0,0,"6ITWeNo.jpg",0,0
Video,-638,"tsurune ed.mp4"
//Break Periods
//Storyboard Layer 0 (Background)
//Storyboard Layer 1 (Fail)
//Storyboard Layer 2 (Pass)
//Storyboard Layer 3 (Foreground)
//Storyboard Sound Samples

[TimingPoints]
328,666.666666666667,4,2,1,40,1,0
328,-111.111111111111,4,2,1,40,0,0
25973,666.666666666667,4,2,1,40,1,0
26976,666.666666666667,4,2,1,45,1,0
26976,-111.111111111111,4,2,1,45,0,0
46280,666.666666666667,4,2,1,45,1,0
46642,666.666666666667,4,2,1,45,1,0
46642,-111.111111111111,4,2,1,45,0,0
48303,666.666666666667,4,2,1,70,1,0
48303,-90.9090909090908,4,2,1,70,0,0
66985,666.666666666667,4,2,1,70,1,0
66985,-90.9090909090909,4,2,1,70,0,0
77653,666.666666666667,4,2,1,70,1,0
77653,-90.9090909090909,4,2,1,70,0,0
83986,-90.9090909090908,4,2,1,45,0,0
85653,-80,4,2,1,45,0,0
86319,-80,4,2,1,30,0,0
86986,-80,4,2,1,20,0,0
87653,-80,4,2,1,10,0,0
88319,-80,4,2,1,5,0,0

[Colours]
Combo1 : 248,139,139
Combo2 : 88,218,98
Combo3 : 218,168,101
Combo4 : 70,128,213

[HitObjects]
110,159,328,6,0,L|123:74,1,81.4499975143433,2|2,0:0|0:0,0:0:0:0:
10,102,994,1,2,0:0:0:0:
223,131,1328,2,0,B|295:138|306:83|389:95,1,162.899995028687,2|0,0:0|0:0,0:0:0:0:
507,239,2328,2,0,L|369:211,1,122.174996271515,2|0,0:0|0:0,0:0:0:0:
313,266,2994,6,0,L|325:353,1,81.4499975143433,2|2,0:0|0:0,0:0:0:0:
195,306,3661,1,2,0:0:0:0:
157,183,3994,2,0,P|75:188|16:246,1,162.899995028687,2|0,0:0|0:0,0:0:0:0:
277,104,4994,2,0,L|259:224,1,122.174996271515,2|0,0:0|0:0,0:0:0:0:
241,311,5661,5,2,0:0:0:0:
373,286,5994,2,0,P|415:278|455:273,1,81.4499975143433,2|0,0:0|0:0,0:0:0:0:
491,46,6661,1,2,0:0:0:0:
491,46,6828,2,0,P|450:52|410:58,1,81.4499975143433,2|0,0:0|0:0,0:0:0:0:
315,35,7328,1,2,0:0:0:0:
315,35,7494,2,0,P|254:44|203:102,1,122.174996271515,2|2,0:0|0:0,0:0:0:0:
281,151,8161,1,2,0:0:0:0:
221,228,8328,6,0,P|215:264|208:324,1,81.4499975143433,2|2,0:0|0:0,0:0:0:0:
116,256,8828,2,0,B|57:262|53:219|-19:226,1,122.174996271515,2|2,0:0|0:0,0:0:0:0:
53,136,9494,2,0,L|32:15,1,122.174996271515,2|0,0:0|0:0,0:0:0:0:
275,92,10328,2,0,L|296:216,1,122.174996271515,2|0,0:0|0:0,0:0:0:0:
314,300,10994,5,2,0:0:0:0:
185,276,11328,1,2,0:0:0:0:
185,276,11494,2,0,P|145:281|98:289,1,81.4499975143433,2|0,0:0|0:0,0:0:0:0:
26,243,11994,1,2,0:0:0:0:
26,243,12161,2,0,P|21:191|17:149,1,81.4499975143433,2|0,0:0|0:0,0:0:0:0:
71,89,12661,1,2,0:0:0:0:
71,89,12828,2,0,B|130:97|139:60|203:71,1,122.174996271515,2|2,0:0|0:0,0:0:0:0:
264,119,13494,1,2,0:0:0:0:
337,67,13661,6,0,P|419:77|475:140,1,162.899995028687,2|2,0:0|0:0,0:0:0:0:
259,278,14661,1,2,0:0:0:0:
368,359,14994,2,0,P|378:311|388:275,1,81.4499975143433,2|2,0:0|0:0,0:0:0:0:
288,78,15661,2,0,P|279:117|269:157,1,81.4499975143433,2|2,0:0|0:0,0:0:0:0:
163,308,16328,6,0,B|90:324|77:266|6:279,1,162.899995028687,2|0,0:0|0:0,0:0:0:0:
191,114,17328,1,2,0:0:0:0:
66,52,17661,2,0,L|97:214,1,162.899995028687,2|2,0:0|0:0,0:0:0:0:
288,330,18661,1,2,0:0:0:0:
163,360,18994,6,0,P|175:313|183:276,1,81.4499975143433,2|0,0:0|0:0,0:0:0:0:
365,180,19661,1,2,0:0:0:0:
229,93,19994,1,2,0:0:0:0:
310,279,20328,2,0,P|381:306|451:239,1,162.899995028687,2|2,0:0|0:0,0:0:0:0:
345,62,21328,1,2,0:0:0:0:
345,62,21494,1,2,0:0:0:0:
270,111,21661,6,0,L|181:97,1,81.4499975143433,2|2,0:0|0:0,0:0:0:0:
119,154,22161,2,0,P|111:214|102:275,1,122.174996271515,2|2,0:0|0:0,0:0:0:0:
151,351,22828,2,0,L|231:363,1,81.4499975143433,2|0,0:0|0:0,0:0:0:0:
330,320,23328,1,2,0:0:0:0:
160,190,23661,1,2,0:0:0:0:
360,90,23994,1,2,0:0:0:0:
248,244,24328,6,0,P|241:280|234:332,1,81.4499975143433,2|2,0:0|0:0,0:0:0:0:
8,231,24994,2,0,P|14:194|22:143,1,81.4499975143433,2|0,0:0|0:0,0:0:0:0:
83,85,25494,1,2,0:0:0:0:
46,2,25661,1,2,0:0:0:0:
269,136,25973,1,8,0:0:0:0:
62,265,26306,1,8,3:0:0:0:
236,362,26639,1,8,3:0:0:0:
126,132,26976,5,6,1:2:0:0:
370,58,27310,1,2,0:0:0:0:
278,30,27476,2,0,P|283:67|292:132,1,81.4499975143433,2|0,0:0|0:0,0:0:0:0:
358,167,27976,1,2,1:2:0:0:
312,244,28143,2,0,B|255:253|244:213|177:222,1,122.174996271515,2|2,0:0|0:0,0:0:0:0:
116,174,28810,1,2,0:0:0:0:
26,177,28976,2,0,P|23:131|14:76,1,81.4499975143433,8|2,0:0|0:0,0:0:0:0:
67,21,29476,1,2,0:0:0:0:
156,20,29643,6,0,P|199:16|242:12,1,81.4499975143433,2|2,1:2|0:0,0:0:0:0:
309,65,30143,2,0,L|296:150,1,81.4499975143433,2|2,0:0|0:0,0:0:0:0:
345,221,30643,1,2,1:2:0:0:
434,214,30810,2,0,P|476:259|464:316,1,122.174996271515,2|2,0:0|0:0,0:0:0:0:
209,190,31643,2,0,L|192:59,1,122.174996271515,10|0,0:0|0:0,0:0:0:0:
123,12,32310,5,2,1:2:0:0:
0,186,32643,1,2,0:0:0:0:
68,243,32810,2,0,L|79:323,1,81.4499975143433,2|0,0:0|0:0,0:0:0:0:
156,368,33310,1,2,1:2:0:0:
234,325,33476,2,0,P|275:319|316:313,1,81.4499975143433,2|0,0:0|0:0,0:0:0:0:
369,242,33976,1,2,0:0:0:0:
323,164,34143,1,2,0:0:0:0:
372,88,34310,2,0,L|380:4,1,81.4499975143433,8|2,0:0|0:0,0:0:0:0:
471,59,34810,1,2,0:0:0:0:
278,37,34976,6,0,L|182:26,2,81.4499975143433,2|2|2,1:2|0:0|0:0,0:0:0:0:
128,189,35976,1,2,1:2:0:0:
244,293,36310,2,0,P|255:249|268:207,1,81.4499975143433,2|2,0:0|1:2,0:0:0:0:
470,94,36976,1,10,0:0:0:0:
468,325,37310,1,10,3:0:0:0:
357,129,37643,6,0,B|299:115|299:115|276:80|276:80|201:62,1,162.899995028687,6|2,1:2|0:0,0:0:0:0:
48,198,38643,1,2,1:2:0:0:
183,254,38976,2,0,P|171:215|161:175,1,81.4499975143433,2|0,0:0|0:0,0:0:0:0:
32,332,39643,1,10,0:0:0:0:
259,384,39976,1,2,0:0:0:0:
173,219,40310,6,0,B|245:213|246:154|319:150,1,162.899995028687,2|2,1:2|0:0,0:0:0:0:
504,250,41310,1,2,1:2:0:0:
408,372,41643,2,0,P|398:332|386:293,1,81.4499975143433,2|2,0:0|0:0,0:0:0:0:
475,96,42310,1,10,0:0:0:0:
250,39,42643,1,2,0:0:0:0:
299,113,42810,1,2,0:0:0:0:
236,177,42976,6,0,L|224:264,1,81.4499975143433,0|2,1:2|0:0,0:0:0:0:
161,321,43476,2,0,P|122:313|76:307,1,81.4499975143433,2|0,0:0|0:0,0:0:0:0:
21,239,43976,1,2,1:2:0:0:
62,159,44143,2,0,P|55:108|47:70,1,81.4499975143433,2|0,0:0|0:0,0:0:0:0:
108,11,44643,1,10,0:0:0:0:
194,33,44810,1,2,0:0:0:0:
216,119,44976,1,8,3:0:0:0:
15,264,45310,1,10,3:2:0:0:
31,171,45476,1,2,0:0:0:0:
49,78,45643,5,8,0:0:0:0:
234,220,45976,1,0,1:0:0:0:
100,346,46280,1,0,1:0:0:0:
165,95,46643,1,12,0:0:0:0:
234,220,46976,2,0,P|228:260|224:300,1,81.4499975143433,2|2,0:0|1:2,0:0:0:0:
36,99,47643,2,0,P|41:58|45:18,1,81.4499975143433,10|2,0:0|0:0,0:0:0:0:
274,118,48303,6,0,B|358:137|381:59|469:82,1,199.10000607605,6|8,1:2|0:0,0:0:0:0:
269,293,49303,1,2,0:0:0:0:
430,361,49636,2,0,P|415:305|403:253,1,99.550003038025,2|0,1:2|1:0,0:0:0:0:
140,137,50303,2,0,P|155:193|167:245,1,99.550003038025,10|0,0:0|0:0,0:0:0:0:
47,209,50803,1,2,0:0:0:0:
257,157,50969,6,0,B|330:135|330:135|354:90|354:90|444:66,1,199.10000607605,0|8,1:0|0:0,0:0:0:0:
169,72,51969,1,2,0:0:0:0:
250,329,52303,1,2,0:0:0:0:
271,238,52469,1,8,0:0:0:0:
292,147,52636,1,2,1:2:0:0:
143,342,52969,1,10,0:0:0:0:
380,216,53303,1,2,0:0:0:0:
122,69,53636,6,0,P|228:67|289:-4,1,199.10000607605,0|8,1:0|0:0,0:0:0:0:
35,155,54636,1,2,0:0:0:0:
241,277,54969,1,2,1:2:0:0:
38,380,55303,1,2,1:2:0:0:
155,193,55636,2,0,P|164:135|168:84,1,99.550003038025,10|0,0:0|0:0,0:0:0:0:
268,149,56136,1,2,0:0:0:0:
70,283,56303,6,0,P|140:239|266:246,1,199.10000607605,0|8,1:0|0:0,0:0:0:0:
470,346,57303,1,0,1:0:0:0:
403,120,57636,1,2,0:0:0:0:
382,211,57803,1,8,0:0:0:0:
361,302,57969,1,2,1:2:0:0:
512,114,58303,1,10,0:0:0:0:
239,246,58636,1,8,0:0:0:0:
361,302,58803,1,10,0:0:0:0:
238,150,58969,6,0,B|132:160|185:228|74:261,1,199.10000607605,4|8,1:2|0:0,0:0:0:0:
361,302,59969,1,2,0:0:0:0:
491,173,60303,2,0,P|500:222|515:278,1,99.550003038025,2|2,0:2|1:2,0:0:0:0:
278,203,60969,1,10,0:0:0:0:
445,71,61303,1,2,1:2:0:0:
248,4,61636,5,0,1:2:0:0:
386,180,61969,2,0,P|395:229|410:285,1,99.550003038025,2|8,0:0|0:0,0:0:0:0:
191,351,62636,2,0,P|203:302|212:253,1,99.550003038025,2|0,1:2|0:0,0:0:0:0:
288,180,63136,1,8,0:2:0:0:
386,180,63303,1,2,1:2:0:0:
69,41,63636,1,10,0:0:0:0:
155,1,63803,1,8,0:0:0:0:
236,59,63969,2,0,L|219:116,1,49.7750015190125,10|0,3:0|0:0,0:0:0:0:
295,201,64303,6,0,P|343:190|394:183,1,99.550003038025,4|0,1:2|0:0,0:0:0:0:
97,134,64969,2,0,P|49:145|-2:152,1,99.550003038025,10|0,0:0|1:0,0:0:0:0:
158,339,65636,1,2,1:2:0:0:
179,248,65802,1,8,0:0:0:0:
200,157,65969,1,0,1:0:0:0:
43,344,66303,1,10,0:0:0:0:
275,216,66636,1,8,0:0:0:0:
200,157,66803,1,8,0:0:0:0:
234,65,66985,5,6,1:2:0:0:
395,194,67319,1,2,0:0:0:0:
361,280,67485,1,0,1:0:0:0:
327,366,67652,1,14,0:0:0:0:
347,89,67985,1,10,0:0:0:0:
457,332,68319,1,10,0:0:0:0:
246,221,68652,1,10,0:0:0:0:
481,42,68985,1,10,0:0:0:0:
512,128,69152,1,8,3:0:0:0:
443,194,69319,2,0,L|395:181,1,49.7750015190125,10|0,3:0|0:0,0:0:0:0:
188,148,69652,6,0,B|287:120|246:60|351:43,1,199.10000607605,4|8,1:2|0:0,0:0:0:0:
105,62,70652,1,2,0:0:0:0:
164,244,70985,2,0,P|176:186|188:144,1,99.550003038025,2|0,1:2|1:0,0:0:0:0:
268,88,71485,1,2,0:0:0:0:
217,8,71652,1,8,0:0:0:0:
280,284,71985,1,2,0:0:0:0:
512,269,72319,6,0,P|448:208|337:195,1,199.10000607605,0|8,1:0|0:0,0:0:0:0:
112,81,73319,1,2,1:2:0:0:
242,40,73652,2,0,P|233:89|226:138,1,99.550003038025,2|2,0:0|1:2,0:0:0:0:
59,201,74319,1,10,0:0:0:0:
243,371,74652,1,2,0:0:0:0:
30,307,74985,6,0,B|114:326|137:248|225:271,1,199.10000607605,0|8,1:0|0:0,0:0:0:0:
405,125,75985,1,2,0:0:0:0:
192,25,76319,1,2,1:2:0:0:
338,234,76652,1,2,1:2:0:0:
309,17,76985,2,0,P|302:66|294:115,1,99.550003038025,10|0,0:0|0:0,0:0:0:0:
407,82,77485,1,2,0:0:0:0:
194,48,77653,6,0,B|89:60|139:120|34:160,1,199.10000607605,0|8,1:0|0:0,0:0:0:0:
285,270,78653,1,2,1:2:0:0:
130,330,78986,1,2,1:2:0:0:
151,239,79152,1,8,0:0:0:0:
172,148,79320,1,2,1:2:0:0:
343,346,79653,1,10,0:0:0:0:
428,113,79986,1,8,0:0:0:0:
482,184,80153,1,10,0:0:0:0:
433,262,80320,5,2,1:2:0:0:
251,122,80653,1,2,0:0:0:0:
475,22,80986,1,10,0:0:0:0:
334,278,81320,2,0,P|338:228|345:179,1,99.550003038025,6|2,1:2|0:0,0:0:0:0:
133,73,81986,1,10,0:0:0:0:
152,296,82320,1,10,3:0:0:0:
239,133,82653,1,10,3:0:0:0:
272,369,82986,5,2,1:2:0:0:
272,369,83653,1,4,0:0:0:0:
434,241,83986,2,0,P|423:287|415:343,1,99.550003038025,2|0,0:0|0:0,0:0:0:0:
231,228,84653,1,2,0:0:0:0:
393,52,84986,2,0,P|344:98|238:105,1,149.325004557037,2|2,0:0|0:0,0:0:0:0:
167,97,85653,6,0,B|169:44|169:44|230:121|230:121|236:172|236:172|323:284|323:284|351:290|351:290|379:364|379:364|312:328|312:328|308:297|308:297|220:182|220:182|168:160|168:160|112:84|112:84|174:100,1,905,4|0,1:2|0:0,0:0:0:0:
