osu file format v14

[General]
AudioFilename: audio.mp3
AudioLeadIn: 0
PreviewTime: 183568
Countdown: 0
SampleSet: Soft
StackLeniency: 0.7
Mode: 0
LetterboxInBreaks: 0
WidescreenStoryboard: 1

[Editor]
DistanceSpacing: 1
BeatDivisor: 4
GridSize: 32
TimelineZoom: 1

[Metadata]
Title:Niji no Asa ni
TitleUnicode:虹の朝に
Artist:ChouCho
ArtistUnicode:ちょうちょ
Creator:timemon
Version:Normal
Source:ましろ色シンフォニー -The color of lovers-
Tags:Authentic Symphony anime full version Mashiro-iro Symphony: The Color of Lovers Mashiroiro
BeatmapID:1718421
BeatmapSetID:819356

[Difficulty]
HPDrainRate:4
CircleSize:3.5
OverallDifficulty:5
ApproachRate:5.2
SliderMultiplier:1
SliderTickRate:1

[Events]
//Background and Video events
0,0,"bg.jpg",0,0
//Break Periods
//Storyboard Layer 0 (Background)
//Storyboard Layer 1 (Fail)
//Storyboard Layer 2 (Pass)
//Storyboard Layer 3 (Foreground)
//Storyboard Sound Samples

[TimingPoints]
11568,400,4,2,1,50,1,0
11568,-100,4,2,1,50,0,0
13168,-100,4,2,1,50,0,0
19568,-100,4,2,1,50,0,0
45168,-100,4,2,1,50,0,0
54568,-100,4,2,1,50,0,0
61168,-100,4,2,1,50,0,1
72368,-100,4,2,1,50,0,0
73968,-100,4,2,1,50,0,1
85568,-100,4,2,1,50,0,0
88368,-100,4,2,1,50,0,0
101168,-100,4,2,1,50,0,0
126768,-100,4,2,1,50,0,0
139668,-100,4,2,1,5,0,0
139768,-100,4,2,1,50,0,0
141268,-100,4,2,1,5,0,0
141368,-100,4,2,1,50,0,0
142168,-100,4,2,1,50,0,0
142768,-100,4,2,1,50,0,1
153968,-100,4,2,1,50,0,0
155568,-100,4,2,1,50,0,1
160468,-100,4,2,1,5,0,1
160568,-100,4,2,1,50,0,1
166568,-100,4,2,1,50,0,0
167468,-100,4,2,1,5,0,0
167568,-100,4,2,1,50,0,0
169968,-100,4,2,1,50,0,0
173168,-100,4,2,1,50,0,0
176368,-100,4,2,1,50,0,0
179568,-100,4,2,1,50,0,0
181868,-100,4,2,1,5,0,0
181968,-100,4,2,1,50,0,0
183168,-100,4,2,1,50,0,0
183201,-100,4,2,1,5,0,0
190768,-100,4,2,1,50,0,0
193768,-100,4,2,1,50,0,0
195568,-100,4,2,1,50,0,0
197168,-100,4,2,1,50,0,1
208168,-100,4,2,1,50,0,0
210768,-100,4,2,1,50,0,0
211568,-100,4,2,1,50,0,0
237168,-100,4,2,1,50,0,0
243568,-100,4,2,1,5,0,0

[Colours]
Combo1 : 255,238,185
Combo2 : 233,233,233
Combo3 : 208,230,255
Combo4 : 255,223,255

[HitObjects]
207,71,11568,6,0,L|201:181,1,100
278,234,12368,1,0,0:0:0:0:
233,323,12768,1,0,0:0:0:0:
325,360,13168,6,0,P|369:368|427:328,1,100
449,305,13768,1,0,0:0:0:0:
449,305,13968,2,0,L|440:201,1,100
388,120,14768,2,0,P|357:92|286:90,1,100
232,158,15568,2,0,L|123:152,1,100
82,148,16168,1,0,0:0:0:0:
82,148,16368,6,0,P|66:100|84:43,2,100
147,223,17568,2,0,L|143:282,1,50
219,337,18168,1,0,0:0:0:0:
219,337,18368,2,0,P|267:346|321:309,1,100
368,241,19168,1,0,0:0:0:0:
304,163,19568,6,0,L|309:48,1,100
348,33,20168,2,0,P|369:45|403:49,2,50
304,7,20768,1,0,0:0:0:0:
217,56,21168,2,0,L|221:155,1,100
270,167,21768,1,0,0:0:0:0:
270,167,21968,2,0,L|265:266,1,100
185,327,22768,6,0,P|129:341|73:313,1,100
56,291,23368,2,0,L|64:185,1,100
69,141,23968,1,0,0:0:0:0:
69,141,24168,1,0,0:0:0:0:
165,113,24568,2,0,L|160:52,1,50
188,21,24968,2,0,P|227:42|291:31,1,100
328,20,25568,1,0,0:0:0:0:
384,102,25968,5,0,0:0:0:0:
324,182,26368,2,0,L|329:241,1,50
368,261,26768,2,0,L|363:320,1,50
325,343,27168,1,0,0:0:0:0:
242,285,27568,2,0,P|213:265|131:268,1,100
109,290,28168,1,0,0:0:0:0:
109,290,28368,2,0,P|80:310|-2:307,1,100
5,265,28968,1,0,0:0:0:0:
5,265,29168,6,0,L|16:161,1,100
60,142,29768,1,0,0:0:0:0:
60,142,29968,2,0,L|49:38,1,100
94,21,30568,2,0,P|139:38|196:30,1,100
266,96,31368,2,0,L|262:162,1,50
216,166,31768,2,0,L|220:232,1,50
259,244,32168,1,0,0:0:0:0:
259,244,32368,6,0,P|306:254|356:224,1,100
431,172,33168,2,0,L|426:287,1,100
349,335,33968,2,0,L|344:235,1,100
325,188,34568,2,0,P|284:215|223:212,1,100
196,183,35168,1,0,0:0:0:0:
118,246,35568,6,0,P|100:211|108:139,1,100
125,107,36168,1,0,0:0:0:0:
68,24,36568,1,0,0:0:0:0:
167,31,36968,2,0,L|278:21,1,100
303,55,37568,1,0,0:0:0:0:
303,55,37768,2,0,P|314:101|296:149,1,100
270,191,38368,1,0,0:0:0:0:
348,251,38768,6,0,L|450:247,2,100
