osu file format v14

[General]
AudioFilename: audio.mp3
AudioLeadIn: 0
PreviewTime: 183568
Countdown: 0
SampleSet: Soft
StackLeniency: 0.7
Mode: 0
LetterboxInBreaks: 0
WidescreenStoryboard: 0

[Editor]
DistanceSpacing: 0.6
BeatDivisor: 4
GridSize: 32
TimelineZoom: 1

[Metadata]
Title:Niji no Asa ni
TitleUnicode:虹の朝に
Artist:ChouCho
ArtistUnicode:ちょうちょ
Creator:timemon
Version:Insane
Source:ましろ色シンフォニー -The color of lovers-
Tags:Authentic Symphony anime full version Mashiro-iro Symphony: The Color of Lovers Mashiroiro
BeatmapID:1717874
BeatmapSetID:819356

[Difficulty]
HPDrainRate:5.8
CircleSize:4
OverallDifficulty:8
ApproachRate:8.5
SliderMultiplier:1.6
SliderTickRate:1

[Events]
//Background and Video events
0,0,"bg.jpg",0,0
//Break Periods
2,88568,100493
2,184368,190093
//Storyboard Layer 0 (Background)
//Storyboard Layer 1 (Fail)
//Storyboard Layer 2 (Pass)
//Storyboard Layer 3 (Foreground)
//Storyboard Sound Samples

[TimingPoints]
11568,400,4,2,1,50,1,0
11568,-133.333333333333,4,2,1,40,0,0
13168,-100,4,2,1,50,0,0
19568,-100,4,2,1,50,0,0
45168,-100,4,2,1,50,0,0
54568,-100,4,2,1,50,0,0
61168,-90.9090909090909,4,2,1,60,0,1
72368,-90.9090909090909,4,2,1,60,0,0
73968,-90.9090909090909,4,2,1,60,0,1
85568,-133.333333333333,4,2,1,50,0,0
86768,-133.333333333333,4,2,1,25,0,0
87768,-133.333333333333,4,2,1,50,0,0
88368,-133.333333333333,4,2,1,50,0,0
101168,-100,4,2,1,50,0,0
126768,-100,4,2,1,50,0,0
139668,-100,4,2,1,5,0,0
139768,-100,4,2,1,50,0,0
141268,-100,4,2,1,5,0,0
141368,-100,4,2,1,50,0,0
142168,-100,4,2,1,40,0,0
142768,-90.9090909090909,4,2,1,60,0,1
153968,-90.9090909090909,4,2,1,60,0,0
155568,-90.9090909090909,4,2,1,60,0,1
160468,-90.9090909090909,4,2,1,5,0,1
160568,-90.9090909090909,4,2,1,60,0,1
166568,-100,4,2,1,50,0,0
167468,-100,4,2,1,5,0,0
167568,-100,4,2,1,50,0,0
169968,-83.3333333333333,4,2,1,60,0,0
173168,-100,4,2,1,50,0,0
176368,-83.3333333333333,4,2,1,60,0,0
179568,-100,4,2,1,50,0,0
181868,-100,4,2,1,5,0,0
181968,-100,4,2,1,50,0,0
183168,-100,4,2,1,25,0,0
183201,-100,4,2,1,5,0,0
190768,-133.333333333333,4,2,1,30,0,0
193768,-83.3333333333333,4,2,1,40,0,0
194068,-83.3333333333333,4,2,1,5,0,0
194168,-83.3333333333333,4,2,1,50,0,0
195568,-83.3333333333333,4,2,1,50,0,0
197168,-90.9090909090909,4,2,1,60,0,1
208168,-133.333333333333,4,2,1,50,0,0
209968,-133.333333333333,4,2,1,25,0,0
210768,-133.333333333333,4,2,1,50,0,0
211568,-100,4,2,1,50,0,0
237168,-100,4,2,1,30,0,0
243568,-100,4,2,1,5,0,0

[Colours]
Combo1 : 255,238,185
Combo2 : 233,233,233
Combo3 : 208,230,255
Combo4 : 255,223,255

[HitObjects]
87,106,11568,5,0,1:0:0:0:
85,129,11968,1,0,1:0:0:0:
26,205,12368,2,0,L|28:247,3,30.0000011444092,8|8|8|8,0:0|0:0|0:0|0:0,0:0:0:0:
101,285,12768,2,0,L|99:327,3,30.0000011444092,8|8|8|8,0:0|0:0|0:0|0:0,0:0:0:0:
180,247,13168,6,0,P|241:261|318:199,1,160,4|8,0:0|0:0,0:0:0:0:
171,345,13768,2,0,P|136:323|88:314,1,80,0|0,1:0|1:0,0:0:0:0:
1,275,14168,2,0,P|37:255|69:218,1,80,0|8,0:0|0:0,0:0:0:0:
137,127,14568,1,0,0:0:0:0:
137,127,14668,1,0,0:0:0:0:
137,127,14768,6,0,P|198:141|275:79,1,160,0|8,1:0|0:0,0:0:0:0:
358,155,15368,1,0,1:0:0:0:
358,155,15568,2,0,L|346:319,1,160,0|8,1:0|0:0,0:0:0:0:
252,166,16168,1,0,3:0:0:0:
196,249,16368,6,0,P|234:263|287:262,1,80,4|0,0:0|0:0,0:0:0:0:
153,151,16768,2,0,P|115:165|62:164,1,80,8|0,0:0|0:0,0:0:0:0:
260,15,17168,1,8,0:0:0:0:
259,34,17268,1,8,0:0:0:0:
258,54,17368,1,8,0:0:0:0:
257,74,17468,1,8,0:0:0:0:
256,94,17568,1,8,0:0:0:0:
368,49,17768,1,0,1:0:0:0:
368,49,18168,5,0,1:0:0:0:
168,102,18368,2,0,P|124:122|28:76,1,160,4|8,0:0|3:0,0:0:0:0:
6,200,18968,1,8,0:0:0:0:
6,200,19068,1,8,0:0:0:0:
6,200,19168,2,0,L|11:244,3,40,8|8|8|8,0:0|0:0|0:0|0:0,0:0:0:0:
73,284,19568,6,0,P|106:239|202:240,1,160,4|8,0:0|0:0,0:0:0:0:
261,364,20168,1,0,1:0:0:0:
323,290,20368,2,0,L|414:299,1,80,0|0,1:0|0:0,0:0:0:0:
286,152,20768,2,0,L|195:161,1,80,8|0,0:0|0:0,0:0:0:0:
317,59,21168,6,0,P|364:81|465:37,1,160,0|8,1:0|0:0,0:0:0:0:
286,152,21768,1,0,1:0:0:0:
286,152,21968,2,0,P|217:114|143:137,1,160,0|8,1:0|0:0,0:0:0:0:
88,216,22568,1,0,0:0:0:0:
184,264,22768,6,0,P|195:302|197:350,1,80,0|0,1:0|0:0,0:0:0:0:
75,294,23168,1,8,0:0:0:0:
75,294,23368,2,0,P|77:254|88:215,1,80,0|0,1:0|1:0,0:0:0:0:
258,237,23768,2,0,P|222:254|183:264,1,80,0|8,0:0|0:0,0:0:0:0:
188,86,24168,6,0,P|254:100|335:36,1,160,0|0,1:0|0:0,0:0:0:0:
473,127,24768,1,8,0:0:0:0:
398,196,24968,2,0,L|413:355,1,160,0|0,1:0|1:0,0:0:0:0:
493,272,25568,1,8,0:0:0:0:
324,338,25768,1,0,1:0:0:0:
324,338,25868,1,0,1:0:0:0:
324,338,25968,5,0,1:0:0:0:
162,150,26368,2,0,L|79:157,2,80,8|0|0,0:0|1:0|1:0,0:0:0:0:
231,72,26968,1,0,0:0:0:0:
304,146,27168,2,0,P|317:184|317:229,1,80,8|0,0:0|0:0,0:0:0:0:
97,352,27568,6,0,P|153:291|225:302,1,160,0|8,1:0|0:0,0:0:0:0:
341,306,28168,1,0,1:0:0:0:
341,306,28368,2,0,P|260:288|233:220,1,160,0|8,1:0|0:0,0:0:0:0:
291,41,28968,1,0,0:0:0:0:
224,109,29168,6,0,L|64:98,1,160,0|8,1:0|0:0,0:0:0:0:
181,303,29768,1,0,1:0:0:0:
233,222,29968,2,0,L|393:211,1,160,0|8,1:0|0:0,0:0:0:0:
332,20,30568,6,0,L|326:99,1,80,0|0,1:0|0:0,0:0:0:0:
233,222,30968,2,0,L|227:142,1,80,0|8,1:0|0:0,0:0:0:0:
159,67,31368,1,8,0:0:0:0:
159,67,31468,1,8,0:0:0:0:
159,67,31568,1,8,1:2:0:0:
76,168,31768,2,0,P|38:181|-11:172,1,80,0|8,1:0|0:0,0:0:0:0:
136,268,32168,1,0,0:0:0:0:
136,268,32268,1,0,0:0:0:0:
136,268,32368,6,0,P|186:277|279:210,1,160,4|8,0:0|0:0,0:0:0:0:
330,35,32968,1,0,1:0:0:0:
386,152,33168,1,0,1:0:0:0:
245,86,33368,1,0,0:0:0:0:
406,70,33568,2,0,L|504:61,1,80,8|0,0:0|0:0,0:0:0:0:
273,220,33968,6,0,L|92:203,1,160,0|8,1:0|0:0,0:0:0:0:
282,307,34568,1,0,1:0:0:0:
282,307,34768,2,0,P|328:293|352:184,1,160,0|8,1:0|0:0,0:0:0:0:
222,79,35368,1,0,0:0:0:0:
222,79,35568,6,0,P|263:69|298:39,1,80,0|0,1:0|0:0,0:0:0:0:
101,157,35968,1,8,0:0:0:0:
101,157,36068,1,0,0:0:0:0:
101,157,36168,2,0,P|77:125|68:86,1,80,0|0,1:0|1:0,0:0:0:0:
205,199,36568,2,0,P|189:235|160:262,1,80,0|8,0:0|0:0,0:0:0:0:
414,313,36968,6,0,P|342:342|270:313,1,160,0|0,1:0|1:0,0:0:0:0:
318,142,37568,1,8,0:0:0:0:
205,199,37768,1,8,0:0:0:0:
205,199,37868,1,8,0:0:0:0:
205,199,37968,1,8,0:0:0:0:
343,253,38168,1,0,1:0:0:0:
324,62,38368,2,0,L|317:144,1,80,8|0,0:0|0:0,0:0:0:0:
116,254,38768,6,0,L|109:174,1,80,0|0,1:0|0:0,0:0:0:0:
248,366,39168,2,0,L|254:286,1,80,8|0,0:0|1:0,0:0:0:0:
62,319,39568,2,0,P|95:336|144:333,1,80,0|0,1:0|0:0,0:0:0:0:
342,222,39968,1,8,0:0:0:0:
253,286,40168,6,0,P|251:248|224:207,1,80,0|0,0:0|1:0,0:0:0:0:
421,214,40568,2,0,L|335:222,1,80,0|8,0:0|0:0,0:0:0:0:
253,104,40968,1,0,1:0:0:0:
253,104,41168,2,0,L|339:112,1,80,0|0,1:0|0:0,0:0:0:0:
190,7,41568,2,0,L|104:15,1,80,8|0,0:0|0:0,0:0:0:0:
8,148,41968,5,0,1:0:0:0:
8,148,42368,1,8,0:0:0:0:
133,97,42568,1,0,1:0:0:0:
89,211,42768,1,0,1:0:0:0:
48,0,42968,2,0,L|57:89,1,80,0|8,0:0|0:0,0:0:0:0:
179,1,43368,1,4,0:0:0:0:
336,101,43768,5,0,1:0:0:0:
398,174,43968,2,0,L|390:257,1,80,8|0,0:0|0:0,0:0:0:0:
265,258,44368,2,0,L|273:341,1,80,0|8,1:0|0:0,0:0:0:0:
276,369,44668,1,8,0:0:0:0:
251,348,44768,1,8,0:0:0:0:
220,339,44868,1,8,0:0:0:0:
188,343,44968,1,8,3:2:0:0:
159,356,45068,1,8,3:2:0:0:
128,366,45168,6,0,P|79:375|-7:310,2,160,4|8|0,0:0|0:0|1:0,0:0:0:0:
87,267,46168,2,0,L|95:184,1,80,0|8,0:0|0:0,0:0:0:0:
202,125,46568,1,0,0:0:0:0:
202,125,46768,2,0,L|194:42,1,80,0|0,1:0|0:0,0:0:0:0:
268,202,47168,6,0,P|234:221|186:225,1,80,8|0,0:0|1:0,0:0:0:0:
302,107,47568,2,0,P|335:126|362:166,1,80,0|0,1:0|0:0,0:0:0:0:
202,125,47968,2,0,P|202:86|223:42,1,80,8|0,0:0|0:0,0:0:0:0:
436,72,48368,6,0,P|391:117|285:91,1,160,0|8,1:0|0:0,0:0:0:0:
58,36,48968,1,0,1:0:0:0:
58,36,49168,2,0,L|221:49,1,160,0|8,1:0|0:0,0:0:0:0:
308,241,49768,6,0,P|248:191|173:206,1,160,0|0,1:0|1:0,0:0:0:0:
112,282,50368,1,8,0:0:0:0:
72,145,50568,1,0,3:0:0:0:
72,145,50668,1,0,3:0:0:0:
72,145,50768,1,0,3:0:0:0:
172,206,50968,1,12,0:0:0:0:
24,256,51168,1,12,0:0:0:0:
142,365,51368,1,0,1:0:0:0:
261,137,51568,6,0,P|301:202|272:274,2,160,4|8|0,0:0|0:0|1:0,0:0:0:0:
97,42,52568,2,0,P|168:70|234:30,1,160
114,155,53168,6,0,L|119:239,1,80,0|0,1:0|0:0,0:0:0:0:
237,262,53568,2,0,L|232:346,1,80,8|0,0:0|1:0,0:0:0:0:
313,196,53968,1,0,3:2:0:0:
340,208,54068,1,0,3:2:0:0:
369,211,54168,1,0,3:2:0:0:
399,204,54268,1,0,3:2:0:0:
424,189,54368,1,8,3:2:0:0:
237,262,54568,5,0,1:0:0:0:
369,40,54968,1,8,0:0:0:0:
369,40,55168,2,0,L|363:130,1,80,8|0,0:0|1:0,0:0:0:0:
178,76,55568,2,0,L|257:70,1,80,8|0,0:0|0:0,0:0:0:0:
257,70,55968,1,0,1:0:0:0:
87,26,56168,6,0,B|107:101|47:95|77:183,1,160,4|0,0:0|1:0,0:0:0:0:
123,321,56768,1,8,0:0:0:0:
39,250,56968,2,0,L|0:256,2,40,0|0|0,3:0|3:0|3:0,0:0:0:0:
183,219,57368,2,0,L|222:225,2,40,8|8|8,0:0|0:0|0:0,0:0:0:0:
244,92,57768,6,0,P|204:131|103:119,1,160,4|0,0:0|1:0,0:0:0:0:
329,23,58368,2,0,L|411:31,1,80,8|0,0:0|0:0,0:0:0:0:
502,130,58768,2,0,L|420:138,1,80,8|0,3:0|0:0,0:0:0:0:
422,137,59068,1,8,0:0:0:0:
422,137,59168,1,8,0:0:0:0:
390,369,59368,6,0,P|406:293|360:231,1,160,0|0,1:0|1:0,0:0:0:0:
240,373,59968,1,8,0:0:0:0:
209,239,60168,1,0,1:0:0:0:
104,333,60368,1,8,0:0:0:0:
40,202,60568,5,0,3:0:0:0:
42,182,60668,1,0,3:0:0:0:
44,162,60768,1,0,3:0:0:0:
47,142,60868,1,0,3:0:0:0:
49,122,60968,1,0,3:0:0:0:
52,102,61068,1,0,3:0:0:0:
54,82,61168,6,0,P|106:97|180:7,1,176.000005371094,6|10,0:0|0:0,0:0:0:0:
311,138,61768,2,0,L|214:132,1,88.000002685547,2|0,1:2|1:0,0:0:0:0:
371,24,62168,2,0,L|468:18,1,88.000002685547,2|8,0:0|0:0,0:0:0:0:
510,114,62568,1,2,0:0:0:0:
446,199,62768,6,0,P|418:254|425:373,1,176.000005371094,0|8,1:0|0:0,0:0:0:0:
299,205,63368,1,0,1:0:0:0:
238,283,63568,2,0,P|280:304|325:299,1,88.000002685547,2|2,1:2|0:0,0:0:0:0:
218,142,63968,2,0,P|176:163|131:158,1,88.000002685547,10|2,0:0|0:0,0:0:0:0:
251,20,64368,5,0,1:0:0:0:
299,205,64568,1,2,0:0:0:0:
422,115,64768,2,0,L|330:123,1,88.000002685547,10|0,0:0|1:0,0:0:0:0:
251,20,65168,1,2,1:2:0:0:
195,156,65368,1,2,0:0:0:0:
157,46,65568,1,10,0:0:0:0:
318,108,65768,1,2,0:0:0:0:
59,222,65968,6,0,P|108:233|197:148,1,176.000005371094,0|10,1:0|0:0,0:0:0:0:
260,263,66568,1,0,1:0:0:0:
260,263,66768,2,0,L|250:354,1,88.000002685547,2|0,1:2|0:0,0:0:0:0:
377,194,67168,2,0,L|367:103,1,88.000002685547,10|0,0:0|0:0,0:0:0:0:
260,263,67568,6,0,P|207:281|109:203,1,176.000005371094,2|8,1:2|0:0,0:0:0:0:
317,348,68168,1,0,1:0:0:0:
317,348,68368,2,0,P|356:325|409:321,1,88.000002685547,2|0,1:2|0:0,0:0:0:0:
280,185,68768,2,0,P|236:179|199:156,1,88.000002685547,10|0,0:0|0:0,0:0:0:0:
413,27,69168,5,2,1:2:0:0:
396,172,69368,1,2,0:0:0:0:
337,71,69568,1,10,0:0:0:0:
512,107,69768,1,2,1:2:0:0:
378,374,70168,1,0,1:0:0:0:
361,207,70368,1,8,0:0:0:0:
461,310,70568,1,2,1:2:0:0:
298,304,70768,6,0,L|205:298,1,88.000002685547,4|2,0:0|0:0,0:0:0:0:
361,207,71168,2,0,L|454:201,1,88.000002685547,10|2,0:0|1:2,0:0:0:0:
272,107,71568,2,0,P|305:75|319:28,1,88.000002685547,2|0,1:2|0:0,0:0:0:0:
180,217,71968,2,0,P|165:175|133:146,1,88.000002685547,10|0,0:0|0:0,0:0:0:0:
272,107,72368,6,0,P|356:113|401:41,1,176.000005371094,0|8,1:0|0:0,0:0:0:0:
340,210,72968,2,0,B|342:222|318:36,1,176.000005371094,4|0,0:0|1:0,0:0:0:0:
318,37,73568,1,8,0:0:0:0:
176,153,73768,1,8,0:0:0:0:
176,153,73868,1,8,0:0:0:0:
176,153,73968,6,0,L|74:148,1,88.000002685547,6|0,0:0|0:0,0:0:0:0:
237,245,74368,1,10,0:0:0:0:
296,122,74568,2,0,P|305:79|288:25,1,88.000002685547,2|0,1:2|1:0,0:0:0:0:
435,162,74968,2,0,P|424:204|433:247,1,88.000002685547,2|8,0:0|0:0,0:0:0:0:
303,333,75368,1,2,0:0:0:0:
303,333,75568,6,0,P|250:357|139:302,1,176.000005371094,0|8,1:0|0:0,0:0:0:0:
178,124,76168,1,0,1:0:0:0:
105,200,76368,2,0,L|17:193,1,88.000002685547,2|2,1:2|0:0,0:0:0:0:
171,36,76768,2,0,L|178:124,1,88.000002685547,10|2,0:0|0:0,0:0:0:0:
426,10,77168,6,0,P|368:72|284:65,1,176.000005371094,0|10,1:0|0:0,0:0:0:0:
171,36,77768,1,0,1:0:0:0:
171,36,77968,2,0,L|83:43,1,88.000002685547,2|2,1:2|0:0,0:0:0:0:
29,196,78368,1,10,0:0:0:0:
110,142,78568,6,0,P|149:121|204:128,1,88.000002685547,2|0,0:0|1:0,0:0:0:0:
227,367,78968,1,2,0:0:0:0:
162,295,79168,2,0,B|170:195,1,88.000002685547,10|0,0:0|1:0,0:0:0:0:
12,297,79568,2,0,B|19:384,1,88.000002685547,2|0,1:2|0:0,0:0:0:0:
243,314,79968,2,0,P|200:315|162:295,1,88.000002685547,10|0,0:0|0:0,0:0:0:0:
293,162,80368,5,2,1:2:0:0:
293,162,80768,2,0,L|380:169,1,88.000002685547,8|0,0:0|1:0,0:0:0:0:
234,44,81168,2,0,L|147:51,1,88.000002685547,2|0,1:2|0:0,0:0:0:0:
155,242,81568,2,0,L|162:155,1,88.000002685547,10|0,0:0|0:0,0:0:0:0:
222,320,81968,6,0,P|171:344|68:297,1,176.000005371094,2|8,1:2|0:0,0:0:0:0:
222,320,82568,2,0,P|273:296|376:343,1,176.000005371094,2|0,1:2|1:0,0:0:0:0:
391,221,83168,2,0,P|430:242|486:239,1,88.000002685547,10|2,0:0|0:0,0:0:0:0:
368,100,83568,5,0,1:0:0:0:
226,163,83768,1,0,1:0:0:0:
238,14,83968,1,8,0:0:0:0:
319,180,84168,1,0,3:0:0:0:
319,180,84268,1,0,3:0:0:0:
319,180,84368,1,8,3:0:0:0:
127,74,84568,1,8,3:2:0:0:
127,74,84668,1,8,3:2:0:0:
127,74,84768,1,8,3:2:0:0:
330,26,84968,5,0,1:0:0:0:
330,26,85368,1,0,0:0:0:0:
267,97,85568,6,0,B|208:101|184:59|184:59|188:123|146:160|63:157|32:106|65:38|117:46|128:75,1,360.000013732911,4|2,0:0|0:0,0:0:0:0:
47,186,87768,6,0,L|51:229,1,30.0000011444092,0|0,3:0|3:0,3:0:0:0:
137,256,87968,2,0,L|133:299,3,30.0000011444092,8|8|8|8,0:0|0:0|3:0|3:0,0:0:0:0:
62,348,88368,5,4,0:0:0:0:
420,100,101168,6,0,L|411:259,1,160,4|8,0:0|0:0,0:0:0:0:
306,224,101768,1,0,1:0:0:0:
323,328,101968,2,0,P|285:313|242:308,1,80,0|0,1:0|0:0,0:0:0:0:
131,249,102368,2,0,P|169:234|212:229,1,80,8|0,0:0|0:0,0:0:0:0:
142,142,102768,6,0,P|94:165|2:120,1,160,0|8,1:0|0:0,0:0:0:0:
158,43,103368,1,0,1:0:0:0:
158,43,103568,2,0,P|206:20|298:65,1,160,0|8,1:0|0:0,0:0:0:0:
340,147,104168,1,0,0:0:0:0:
405,76,104368,6,0,L|401:-5,1,80,0|0,1:0|0:0,0:0:0:0:
512,116,104768,1,8,0:0:0:0:
512,116,104968,2,0,L|508:195,1,80,0|0,1:0|1:0,0:0:0:0:
358,249,105368,2,0,P|397:254|434:269,1,80,0|8,0:0|0:0,0:0:0:0:
371,351,105768,1,0,1:0:0:0:
132,162,106168,5,0,1:0:0:0:
98,268,106368,1,8,0:0:0:0:
24,183,106568,1,8,0:0:0:0:
24,183,106668,1,8,0:0:0:0:
24,183,106768,2,0,L|31:92,1,80,8|0,1:2|1:0,0:0:0:0:
209,159,107168,2,0,P|170:170|132:162,1,80,8|0,0:0|1:0,0:0:0:0:
264,74,107568,6,0,P|316:87|412:43,1,160,0|8,1:0|0:0,0:0:0:0:
491,127,108168,2,0,L|482:209,2,80,0|0|0,1:0|1:0|0:0,0:0:0:0:
387,264,108768,2,0,L|396:346,1,80,8|0,0:0|0:0,0:0:0:0:
298,193,109168,6,0,P|246:206|150:162,1,160,0|8,1:0|0:0,0:0:0:0:
195,69,109768,1,0,1:0:0:0:
105,15,109968,2,0,L|21:25,1,80,0|0,1:0|0:0,0:0:0:0:
195,69,110368,1,8,0:0:0:0:
152,164,110568,1,0,0:0:0:0:
34,101,110768,6,0,L|53:266,1,160,0|8,1:0|0:0,0:0:0:0:
179,264,111368,1,0,0:0:0:0:
179,264,111568,2,0,L|169:367,2,80,0|0|8,1:0|1:0|0:0,0:0:0:0:
385,132,112168,6,0,P|335:190|258:186,1,160,0|0,1:0|1:0,0:0:0:0:
175,110,112768,1,8,0:0:0:0:
147,267,112968,1,0,1:0:0:0:
82,157,113168,1,8,0:0:0:0:
258,186,113368,1,0,3:2:0:0:
281,197,113468,1,0,3:2:0:0:
307,202,113568,1,0,3:2:0:0:
334,200,113668,1,0,3:2:0:0:
358,190,113768,1,0,3:2:0:0:
379,174,113868,1,0,3:2:0:0:
395,152,113968,6,0,P|411:91|339:10,1,160,4|8,0:0|0:0,0:0:0:0:
480,36,114568,1,0,1:0:0:0:
321,99,114768,2,0,L|221:86,1,80,0|0,1:0|0:0,0:0:0:0:
88,30,115168,2,0,L|188:17,1,80,8|0,0:0|0:0,0:0:0:0:
36,132,115568,6,0,B|80:114|80:114|73:228,1,160,0|8,1:0|0:0,0:0:0:0:
7,323,116168,1,0,1:0:0:0:
7,323,116368,2,0,L|171:312,1,160,0|8,1:0|0:0,0:0:0:0:
341,198,116968,1,0,0:0:0:0:
415,270,117168,6,0,P|423:310|410:351,1,80,0|0,1:0|0:0,0:0:0:0:
341,198,117568,1,8,0:0:0:0:
411,122,117768,2,0,L|490:128,1,80,0|0,1:0|1:0,0:0:0:0:
356,33,118168,2,0,L|276:39,1,80,0|8,0:0|0:0,0:0:0:0:
154,120,118568,6,0,P|111:141|24:61,1,160,0|0,1:0|1:0,0:0:0:0:
26,84,119168,1,8,0:0:0:0:
140,243,119368,2,0,P|143:195|256:159,1,160,0|0,1:0|1:0,0:0:0:0:
314,217,119968,1,8,0:0:0:0:
344,83,120168,1,0,1:0:0:0:
469,174,120368,6,0,L|389:168,1,80,4|0,0:0|0:0,0:0:0:0:
254,313,120768,2,0,L|334:307,1,80,8|0,0:0|1:0,0:0:0:0:
182,379,121168,2,0,P|162:337|212:231,1,160,0|8,1:0|0:0,0:0:0:0:
61,287,121768,1,0,0:0:0:0:
42,146,121968,6,0,P|82:212|61:287,1,160,0|8,1:0|0:0,0:0:0:0:
201,237,122568,1,0,1:0:0:0:
121,140,122768,2,0,L|32:146,1,80,0|0,1:0|0:0,0:0:0:0:
196,31,123168,2,0,L|285:37,1,80,8|0,0:0|0:0,0:0:0:0:
403,131,123568,5,0,1:0:0:0:
403,131,123968,1,8,0:0:0:0:
459,20,124168,1,0,0:0:0:0:
499,189,124368,1,0,1:0:0:0:
299,42,124568,2,0,P|338:54|383:47,1,80,8|8,3:0|0:0,0:0:0:0:
499,189,124968,1,4,0:0:0:0:
281,363,125368,5,0,1:0:0:0:
210,286,125568,2,0,L|217:190,1,80,8|0,0:0|0:0,0:0:0:0:
300,146,125968,2,0,L|293:50,1,80,8|0,0:0|0:0,0:0:0:0:
227,23,126268,1,0,3:0:0:0:
227,23,126368,2,0,L|186:25,3,40,0|0|0|0,3:0|3:0|3:0|3:0,0:0:0:0:
133,83,126768,6,0,P|86:105|-8:53,2,160,4|8|0,0:0|0:0|1:0,0:0:0:0:
227,233,127768,1,0,0:0:0:0:
119,268,127968,2,0,L|128:182,1,80,8|0,0:0|0:0,0:0:0:0:
13,354,128368,2,0,L|5:275,1,80,0|0,1:0|0:0,0:0:0:0:
119,268,128768,6,0,P|157:258|190:230,1,80,8|0,0:0|1:0,0:0:0:0:
68,143,129168,2,0,P|30:133|-3:105,1,80,0|0,1:0|0:0,0:0:0:0:
193,5,129568,2,0,L|184:84,1,80,8|0,0:0|0:0,0:0:0:0:
400,130,129968,6,0,P|355:181|259:172,1,160,0|8,1:0|0:0,0:0:0:0:
184,84,130568,1,0,1:0:0:0:
148,231,130768,1,0,1:0:0:0:
57,134,130968,2,0,L|48:54,1,80,0|8,0:0|0:0,0:0:0:0:
107,305,131368,6,0,P|154:318|227:231,1,160,0|0,1:0|1:0,0:0:0:0:
279,358,131968,2,0,L|364:350,1,80,8|0,0:0|0:0,0:0:0:0:
358,350,132268,1,8,0:0:0:0:
358,350,132368,1,8,0:0:0:0:
480,228,132568,1,12,0:0:0:0:
331,130,132768,1,12,0:0:0:0:
368,266,132968,1,0,1:0:0:0:
394,70,133168,6,0,P|343:44|250:92,2,160,4|8|0,0:0|0:0|1:0,0:0:0:0:
368,266,134168,2,0,L|283:258,1,80,0|8,0:0|0:0,0:0:0:0:
209,336,134568,1,0,0:0:0:0:
128,191,134768,6,0,L|213:183,1,80,0|0,1:0|0:0,0:0:0:0:
120,341,135168,2,0,P|98:308|57:286,1,80,8|0,0:0|0:0,0:0:0:0:
207,183,135568,1,4,3:0:0:0:
22,145,135768,1,0,3:0:0:0:
22,145,135868,1,0,3:0:0:0:
22,145,135968,1,0,3:0:0:0:
157,32,136168,6,0,P|219:57|313:26,1,160,0|0,1:0|1:0,0:0:0:0:
207,183,136768,2,0,P|173:162|124:156,1,80,12|0,0:0|0:0,0:0:0:0:
246,281,137168,1,0,1:0:0:0:
312,201,137368,1,0,1:0:0:0:
280,101,137568,1,8,0:0:0:0:
435,167,137768,1,0,1:0:0:0:
202,373,138168,5,0,1:0:0:0:
123,304,138368,2,0,L|38:313,1,80,8|0,0:0|0:0,0:0:0:0:
43,312,138668,1,8,0:0:0:0:
43,312,138768,1,8,0:0:0:0:
86,213,138968,1,8,0:0:0:0:
86,213,139068,1,8,0:0:0:0:
86,213,139168,1,8,0:0:0:0:
202,373,139368,6,0,P|259:372|311:325,1,120,4|0,0:0|0:0,0:0:0:0:
320,303,139768,1,8,0:0:0:0:
227,269,139968,2,0,L|218:189,1,80,8|0,0:0|0:0,0:0:0:0:
381,235,140368,2,0,L|390:155,1,80,8|0,0:0|0:0,0:0:0:0:
395,131,140668,1,8,0:0:0:0:
399,107,140768,1,8,0:0:0:0:
290,100,140968,6,0,P|229:132|159:111,1,120,0|0,1:0|0:0,0:0:0:0:
153,106,141368,1,0,3:0:0:0:
207,17,141568,1,8,0:0:0:0:
6,222,141768,2,0,P|81:201|152:234,1,160,4|2,0:0|0:0,0:0:0:0:
152,234,142768,6,0,L|245:227,1,88.000002685547,6|0,0:0|0:0,0:0:0:0:
202,336,143168,1,10,0:0:0:0:
294,158,143368,2,0,P|319:192|325:243,1,88.000002685547,2|0,1:2|1:0,0:0:0:0:
202,336,143768,2,0,L|109:329,1,88.000002685547,2|8,0:0|0:0,0:0:0:0:
325,236,144168,6,0,P|376:246|457:155,1,176.000005371094,2|0,0:0|0:0,0:0:0:0:
326,23,144768,1,8,0:0:0:0:
355,136,144968,1,0,1:0:0:0:
166,78,145168,2,0,L|259:85,1,88.000002685547,2|2,1:2|0:0,0:0:0:0:
108,185,145568,2,0,L|15:192,1,88.000002685547,10|2,0:0|0:0,0:0:0:0:
98,350,145968,5,0,1:0:0:0:
192,242,146168,1,2,0:0:0:0:
294,302,146368,2,0,P|339:310|383:293,1,88.000002685547,10|0,0:0|1:0,0:0:0:0:
247,376,146768,1,2,1:2:0:0:
331,227,146968,1,2,0:0:0:0:
228,157,147168,2,0,P|183:149|139:166,1,88.000002685547,10|2,0:0|0:0,0:0:0:0:
342,28,147568,6,0,L|336:117,1,88.000002685547,0|2,1:0|0:0,0:0:0:0:
430,273,147968,2,0,L|424:184,1,88.000002685547,10|0,0:0|1:0,0:0:0:0:
241,249,148368,2,0,L|330:255,1,88.000002685547,2|0,1:2|0:0,0:0:0:0:
512,180,148768,2,0,L|424:185,1,88.000002685547,10|0,0:0|0:0,0:0:0:0:
276,80,149168,6,0,P|231:113|121:75,1,176.000005371094,2|8,1:2|0:0,0:0:0:0:
23,194,149768,1,0,1:0:0:0:
114,246,149968,2,0,P|159:256|214:234,1,88.000002685547,2|0,1:2|0:0,0:0:0:0:
84,356,150368,2,0,P|39:366|-16:344,1,88.000002685547,10|0,0:0|0:0,0:0:0:0:
198,244,150768,5,2,1:2:0:0:
133,128,150968,1,2,0:0:0:0:
65,281,151168,1,10,0:0:0:0:
0,96,151368,1,2,1:2:0:0:
356,153,151768,1,0,1:0:0:0:
226,86,151968,1,8,0:0:0:0:
340,18,152168,1,2,1:2:0:0:
235,212,152368,6,0,L|147:203,1,88.000002685547,4|2,0:0|0:0,0:0:0:0:
319,327,152768,2,0,L|407:318,1,88.000002685547,10|2,0:0|1:2,0:0:0:0:
356,153,153168,2,0,P|322:123|304:80,1,88.000002685547,2|0,1:2|0:0,0:0:0:0:
440,239,153568,2,0,P|431:283|402:320,1,88.000002685547,10|0,0:0|0:0,0:0:0:0:
206,197,153968,6,0,P|276:212|360:140,1,176.000005371094,4|8,0:0|0:0,0:0:0:0:
89,38,154568,2,0,B|133:20|133:20|121:156,1,176.000005371094,4|0,0:0|1:0,0:0:0:0:
110,262,155168,1,8,0:0:0:0:
254,120,155368,1,8,0:0:0:0:
254,120,155468,1,8,0:0:0:0:
254,120,155568,6,0,L|341:115,1,88.000002685547,6|0,0:0|0:0,0:0:0:0:
149,352,155968,1,10,0:0:0:0:
197,267,156168,2,0,L|110:262,1,88.000002685547,2|0,1:2|1:0,0:0:0:0:
330,382,156568,2,0,P|337:338|327:292,1,88.000002685547,2|8,0:0|0:0,0:0:0:0:
254,120,156968,1,2,0:0:0:0:
254,120,157168,6,0,P|312:139|407:66,1,176.000005371094,0|8,1:0|0:0,0:0:0:0:
311,34,157768,1,0,1:0:0:0:
487,139,157968,2,0,L|477:230,1,88.000002685547,2|2,1:2|0:0,0:0:0:0:
347,277,158368,2,0,L|357:368,1,88.000002685547,10|2,0:0|0:0,0:0:0:0:
216,206,158768,5,0,1:0:0:0:
290,119,158968,1,2,0:0:0:0:
112,46,159168,2,0,P|149:63|198:61,1,88.000002685547,10|0,0:0|1:0,0:0:0:0:
216,206,159568,1,2,1:2:0:0:
120,160,159768,1,2,0:0:0:0:
65,250,159968,1,10,0:0:0:0:
138,326,160168,6,0,L|280:321,1,132.00000402832,2|0,0:0|0:0,0:0:0:0:
297,304,160568,1,2,0:0:0:0:
373,219,160768,2,0,P|412:198|467:205,1,88.000002685547,10|0,0:0|1:0,0:0:0:0:
438,363,161168,2,0,L|431:273,1,88.000002685547,2|0,1:2|0:0,0:0:0:0:
291,219,161568,2,0,L|298:129,1,88.000002685547,10|0,0:0|0:0,0:0:0:0:
390,21,161968,6,0,P|325:88|250:57,1,176.000005371094,2|8,1:2|0:0,0:0:0:0:
102,193,162568,1,0,1:0:0:0:
45,103,162768,2,0,L|51:11,1,88.000002685547,2|0,1:2|0:0,0:0:0:0:
206,161,163168,2,0,L|211:248,1,88.000002685547,10|0,0:0|0:0,0:0:0:0:
0,346,163568,6,0,P|51:370|161:314,1,176.000005371094,2|8,1:2|0:0,0:0:0:0:
364,270,164168,2,0,P|291:224|209:249,1,176.000005371094,2|0,1:2|1:0,0:0:0:0:
58,124,164768,2,0,P|93:142|146:138,1,88.000002685547,10|2,0:0|0:0,0:0:0:0:
316,19,165168,5,0,1:0:0:0:
297,174,165368,1,0,1:0:0:0:
459,97,165568,2,0,L|371:89,1,88.000002685547,8|0,0:0|0:0,0:0:0:0:
197,68,165968,1,8,3:0:0:0:
287,266,166168,1,0,3:0:0:0:
287,266,166268,1,0,3:0:0:0:
287,266,166368,1,0,3:0:0:0:
298,138,166568,5,0,1:0:0:0:
185,344,166968,1,0,1:0:0:0:
185,344,167168,2,0,P|138:358|70:316,1,120,4|0,0:0|0:0,0:0:0:0:
59,306,167568,1,8,3:0:0:0:
132,231,167768,2,0,L|175:233,2,40,8|8|8,0:0|0:0|0:0,0:0:0:0:
15,162,168168,1,4,0:0:0:0:
226,15,168568,5,0,1:0:0:0:
157,93,168768,2,0,L|163:183,1,80,4|8,0:0|0:0,0:0:0:0:
165,196,169068,1,8,0:0:0:0:
167,219,169168,1,8,0:0:0:0:
272,133,169368,1,8,0:0:0:0:
294,146,169468,1,8,0:0:0:0:
320,153,169568,1,8,0:0:0:0:
347,152,169668,1,8,0:0:0:0:
372,143,169768,1,8,0:0:0:0:
394,128,169868,1,8,0:0:0:0:
411,107,169968,6,0,L|405:6,1,95.9999970703126,4|0,0:0|1:0,0:0:0:0:
511,174,170368,1,8,0:0:0:0:
292,324,170568,2,0,P|332:261|459:275,1,191.999994140625,4|0,0:0|1:0,0:0:0:0:
292,162,171168,1,8,0:0:0:0:
164,259,171368,5,8,0:0:0:0:
167,290,171468,1,8,0:0:0:0:
170,321,171568,1,8,0:0:0:0:
59,204,171768,1,0,1:0:0:0:
174,113,171968,1,8,0:0:0:0:
5,14,172168,2,0,P|47:47|179:11,1,191.999994140625,4|0,0:0|1:0,0:0:0:0:
59,204,172768,1,8,0:0:0:0:
230,314,172968,1,0,0:0:0:0:
230,314,173068,1,0,0:0:0:0:
230,314,173168,6,0,L|318:308,1,80,0|0,1:0|0:0,0:0:0:0:
138,209,173568,2,0,L|50:203,1,80,8|0,0:0|0:0,0:0:0:0:
8,145,173868,1,0,0:0:0:0:
8,145,173968,2,0,P|3:101|24:55,1,80,0|0,1:0|1:0,0:0:0:0:
211,92,174368,1,8,0:0:0:0:
138,209,174568,1,0,0:0:0:0:
103,17,174768,5,0,1:0:0:0:
298,65,174968,1,8,0:0:0:0:
298,65,175068,1,8,0:0:0:0:
298,65,175168,1,8,0:0:0:0:
138,209,175368,2,0,L|129:120,1,80,0|0,1:0|0:0,0:0:0:0:
281,230,175768,2,0,L|272:319,1,80,4|8,1:2|0:0,0:0:0:0:
271,333,176068,1,8,0:0:0:0:
268,356,176168,1,8,0:0:0:0:
409,122,176368,5,4,0:0:0:0:
281,230,176568,1,0,1:0:0:0:
491,281,176768,1,8,0:0:0:0:
320,87,176968,2,0,P|389:27|477:53,1,191.999994140625,4|0,0:0|1:0,0:0:0:0:
281,230,177568,1,8,0:0:0:0:
189,88,177768,5,8,3:0:0:0:
189,88,177868,1,8,3:0:0:0:
189,88,177968,1,8,3:0:0:0:
53,278,178168,1,8,3:0:0:0:
48,239,178268,1,8,3:0:0:0:
43,200,178368,1,8,3:0:0:0:
193,337,178568,2,0,P|275:358|356:281,1,191.999994140625,4|0,0:0|1:0,0:0:0:0:
245,158,179168,2,0,L|257:254,1,95.9999970703126,8|0,0:0|0:0,0:0:0:0:
321,79,179568,6,0,P|362:92|406:85,1,80,0|0,1:0|1:0,0:0:0:0:
201,14,179968,2,0,P|161:10|123:22,1,80,8|0,0:0|0:0,0:0:0:0:
64,177,180368,1,8,3:0:0:0:
16,62,180568,1,8,0:0:0:0:
16,62,180668,1,8,0:0:0:0:
16,62,180768,1,8,0:0:0:0:
67,259,180968,5,0,1:0:0:0:
67,259,181368,1,0,1:0:0:0:
169,151,181568,2,0,P|214:115|285:120,1,120,4|0,0:0|0:0,0:0:0:0:
306,135,181968,1,8,3:0:0:0:
389,52,182168,2,0,L|385:7,2,40,8|8|8,0:0|0:0|0:0,0:0:0:0:
466,229,182568,5,8,0:0:0:0:
466,229,183168,6,0,L|466:251,1,13.3333333333333,2|0,0:0|0:0,0:0:0:0:
204,273,190768,6,0,P|162:287|88:251,2,120.000004577637,2|0|2,0:0|0:0|0:0,0:0:0:0:
293,160,191968,2,0,L|286:89,1,60.0000022888184,2|0,0:0|0:0,0:0:0:0:
208,68,192368,2,0,L|215:-3,2,60.0000022888184,2|2|2,0:0|0:0|0:0,0:0:0:0:
143,122,192968,2,0,P|111:128|36:83,1,120.000004577637,2|0,0:0|0:0,0:0:0:0:
38,86,193568,1,0,0:0:0:0:
126,219,193768,6,0,L|272:212,1,143.999995605469,0|0,1:0|0:0,0:0:0:0:
293,190,194168,1,0,1:0:0:0:
254,324,194368,1,0,1:0:0:0:
196,131,194568,1,0,1:0:0:0:
322,272,194768,1,8,0:0:0:0:
68,144,195168,5,4,1:0:0:0:
300,55,195568,6,0,P|368:82|449:0,1,191.999994140625,4|8,0:0|0:0,0:0:0:0:
376,191,196168,2,0,L|364:0,1,191.999994140625,0|0,1:0|1:0,0:0:0:0:
483,113,196768,1,8,0:0:0:0:
318,273,196968,1,8,0:0:0:0:
318,273,197068,1,8,0:0:0:0:
318,273,197168,6,0,L|227:268,1,88.000002685547,6|0,0:0|0:0,0:0:0:0:
151,183,197568,1,10,0:0:0:0:
74,267,197768,2,0,P|82:310|114:344,1,88.000002685547,2|0,1:2|1:0,0:0:0:0:
175,179,198168,2,0,P|218:171|252:139,1,88.000002685547,2|8,0:0|0:0,0:0:0:0:
0,71,198568,1,2,0:0:0:0:
0,71,198768,6,0,L|181:90,1,176.000005371094,0|8,1:0|0:0,0:0:0:0:
326,12,199368,1,0,1:0:0:0:
402,96,199568,2,0,P|437:69|489:62,1,88.000002685547,2|2,1:2|0:0,0:0:0:0:
375,204,199968,2,0,P|334:187|302:145,1,88.000002685547,10|2,0:0|0:0,0:0:0:0:
477,156,200368,5,0,1:0:0:0:
477,156,200568,1,2,0:0:0:0:
383,291,200768,2,0,L|374:201,1,88.000002685547,10|0,0:0|1:0,0:0:0:0:
308,363,201168,1,2,1:2:0:0:
308,363,201368,1,2,0:0:0:0:
221,244,201568,2,0,L|212:331,1,88.000002685547,10|2,0:0|0:0,0:0:0:0:
147,157,201968,5,0,1:0:0:0:
224,72,202168,1,2,0:0:0:0:
115,34,202368,2,0,P|70:45|22:33,1,88.000002685547,10|0,0:0|1:0,0:0:0:0:
224,72,202768,2,0,P|269:83|317:71,1,88.000002685547,2|0,1:2|0:0,0:0:0:0:
155,244,203168,2,0,L|146:156,1,88.000002685547,10|0,0:0|0:0,0:0:0:0:
96,321,203568,6,0,P|143:340|245:281,1,176.000005371094,2|8,1:2|0:0,0:0:0:0:
300,193,204168,1,0,1:0:0:0:
361,278,204368,2,0,L|449:269,1,88.000002685547,2|0,1:2|0:0,0:0:0:0:
296,107,204768,2,0,P|289:150|300:193,1,88.000002685547,10|0,0:0|0:0,0:0:0:0:
376,49,205168,5,2,1:2:0:0:
202,99,205368,1,8,0:0:0:0:
202,99,205468,1,8,0:0:0:0:
202,99,205568,1,8,0:0:0:0:
380,230,205768,2,0,P|343:273|235:250,1,176.000005371094,6|0,0:0|1:0,0:0:0:0:
92,365,206368,2,0,L|98:272,1,88.000002685547,10|2,0:0|0:0,0:0:0:0:
112,98,206768,5,0,1:0:0:0:
180,206,206968,1,8,0:0:0:0:
180,206,207068,1,8,0:0:0:0:
180,206,207168,1,8,0:0:0:0:
231,59,207368,1,8,3:0:0:0:
250,37,207468,1,8,3:0:0:0:
276,22,207568,1,8,3:0:0:0:
304,16,207668,1,8,3:0:0:0:
333,17,207768,1,8,3:0:0:0:
361,28,207868,1,8,3:0:0:0:
384,45,207968,1,8,3:0:0:0:
314,119,208168,5,0,1:0:0:0:
205,358,208568,1,0,1:0:0:0:
254,279,208768,6,0,B|313:275|337:317|337:317|333:253|375:216|458:219|489:270|456:338|404:330|393:301,1,360.000013732911,4|2,0:0|0:0,0:0:0:0:
119,362,210768,6,0,L|115:319,1,30.0000011444092,8|0,3:0|0:0,0:0:0:0:
37,287,210968,2,0,L|41:244,3,30.0000011444092,8|8|8|8,0:0|0:0|0:0|0:0,0:0:0:0:
112,195,211368,2,0,L|108:152,1,30.0000011444092,8|8,3:0|3:0,0:0:0:0:
34,116,211568,6,0,P|72:81|180:109,1,160,4|8,0:0|0:0,0:0:0:0:
250,30,212168,1,0,1:0:0:0:
250,30,212368,2,0,L|332:38,1,80,0|0,1:0|0:0,0:0:0:0:
223,177,212768,2,0,L|141:185,1,80,8|0,0:0|0:0,0:0:0:0:
264,306,213168,5,0,1:0:0:0:
343,238,213368,1,0,0:0:0:0:
428,297,213568,2,0,P|466:307|517:298,1,80,8|0,0:0|1:0,0:0:0:0:
387,152,213968,2,0,P|349:142|298:151,1,80,0|0,1:0|0:0,0:0:0:0:
461,11,214368,2,0,L|468:90,1,80,8|0,0:0|0:0,0:0:0:0:
309,146,214768,6,0,P|256:169|163:130,1,160,0|8,1:0|0:0,0:0:0:0:
65,85,215368,1,0,1:0:0:0:
65,85,215568,2,0,L|81:260,1,160,0|8,1:0|0:0,0:0:0:0:
74,371,216168,2,0,P|45:341|1:325,1,80,0|0,0:0|1:0,0:0:0:0:
79,244,216568,5,0,0:0:0:0:
180,319,216768,1,8,0:0:0:0:
206,178,216968,1,8,0:0:0:0:
206,178,217068,1,8,0:0:0:0:
206,178,217168,1,8,0:0:0:0:
285,268,217368,1,12,0:0:0:0:
250,383,217568,1,12,0:0:0:0:
398,257,217768,1,0,1:0:0:0:
152,295,217968,6,0,P|201:318|286:263,1,160,4|8,0:0|0:0,0:0:0:0:
217,78,218568,1,0,1:0:0:0:
217,78,218768,2,0,L|209:239,1,160,0|8,1:0|0:0,0:0:0:0:
22,112,219368,1,0,0:0:0:0:
22,112,219468,1,0,0:0:0:0:
22,112,219568,6,0,L|29:195,1,80,0|0,1:0|0:0,0:0:0:0:
128,221,219968,2,0,L|121:304,1,80,8|0,0:0|1:0,0:0:0:0:
201,151,220368,2,0,P|234:173|279:177,1,80,0|0,1:0|0:0,0:0:0:0:
156,30,220768,2,0,P|116:34|83:56,1,80,8|0,0:0|0:0,0:0:0:0:
273,177,221168,6,0,P|233:172|201:151,1,80,0|0,1:0|0:0,0:0:0:0:
345,5,221568,2,0,P|321:37|286:54,1,80,8|0,0:0|1:0,0:0:0:0:
464,97,221968,1,0,1:0:0:0:
419,191,222168,1,0,0:0:0:0:
458,287,222368,1,8,0:0:0:0:
339,362,222568,1,0,1:0:0:0:
339,362,222968,5,0,1:0:0:0:
265,287,223168,2,0,L|268:197,1,80,4|0,0:0|0:0,0:0:0:0:
267,207,223468,1,8,0:0:0:0:
267,207,223568,1,8,0:0:0:0:
360,159,223768,2,0,L|417:160,1,40,8|8,0:0|0:0,0:0:0:0:
286,67,223968,2,0,L|228:68,3,40,0|0|0|0,3:0|3:0|3:0|3:0,0:0:0:0:
181,143,224368,5,4,0:0:0:0:
127,11,224568,1,0,1:0:0:0:
31,206,224768,1,8,0:0:0:0:
116,93,224968,1,0,1:0:0:0:
18,287,225168,2,0,P|57:281|91:260,1,80,0|0,1:0|0:0,0:0:0:0:
254,364,225568,2,0,P|214:358|181:336,1,80,8|0,0:0|0:0,0:0:0:0:
267,237,225968,6,0,P|308:199|419:217,1,160,0|8,1:0|0:0,0:0:0:0:
257,104,226568,1,0,1:0:0:0:
257,104,226768,2,0,P|216:142|105:124,1,160,0|8,1:0|0:0,0:0:0:0:
8,226,227368,1,0,0:0:0:0:
8,226,227468,1,0,0:0:0:0:
8,226,227568,6,0,L|105:219,1,80,0|0,1:0|0:0,0:0:0:0:
209,324,227968,2,0,L|112:317,1,80,8|0,0:0|1:0,0:0:0:0:
179,144,228368,2,0,L|184:223,2,80,0|0|8,1:0|0:0|0:0,0:0:0:0:
300,48,228968,6,0,P|262:59|224:50,1,80,0|0,0:0|1:0,0:0:0:0:
101,9,229368,1,0,1:0:0:0:
86,146,229568,1,8,0:0:0:0:
0,65,229768,1,8,0:0:0:0:
0,65,229868,1,8,0:0:0:0:
0,65,229968,1,8,0:0:0:0:
165,78,230168,1,12,0:0:0:0:
28,201,230368,1,12,0:0:0:0:
101,9,230568,1,0,1:0:0:0:
172,238,230768,6,0,L|168:149,1,80,4|0,0:0|0:0,0:0:0:0:
318,227,231168,2,0,L|314:306,1,80,8|0,0:0|1:0,0:0:0:0:
115,293,231568,2,0,P|152:316|201:313,1,80,0|0,1:0|0:0,0:0:0:0:
300,150,231968,2,0,P|261:170|239:214,1,80,8|0,0:0|0:0,0:0:0:0:
156,98,232368,6,0,L|160:19,1,80,0|0,1:0|0:0,0:0:0:0:
28,109,232768,2,0,L|32:188,1,80,8|0,0:0|1:0,0:0:0:0:
32,188,233068,1,0,1:0:0:0:
32,188,233168,1,0,1:0:0:0:
156,98,233368,1,0,0:0:0:0:
220,168,233568,2,0,L|299:172,1,80,8|0,0:0|0:0,0:0:0:0:
446,59,233968,5,0,1:0:0:0:
428,208,234168,1,8,3:0:0:0:
428,208,234268,1,8,3:0:0:0:
428,208,234368,1,8,3:0:0:0:
311,106,234568,1,0,3:0:0:0:
285,127,234668,1,0,3:0:0:0:
254,139,234768,1,0,3:0:0:0:
221,140,234868,1,0,3:0:0:0:
190,129,234968,1,0,3:0:0:0:
164,108,235068,1,0,3:0:0:0:
147,80,235168,1,0,3:0:0:0:
96,267,235368,5,0,1:0:0:0:
96,267,235768,1,0,1:0:0:0:
164,333,235968,2,0,L|256:328,1,80,4|8,0:0|0:0,0:0:0:0:
267,328,236268,1,8,0:0:0:0:
290,327,236368,1,8,0:0:0:0:
313,325,236468,1,8,0:0:0:0:
336,324,236568,6,0,P|399:265|377:371,1,240,0|2,1:0|0:0,0:0:0:0:
256,192,237268,12,0,243568,0:0:0:0:
