osu file format v14

[General]
AudioFilename: audio.mp3
AudioLeadIn: 0
PreviewTime: 62684
Countdown: 0
SampleSet: Drum
StackLeniency: 0.7
Mode: 2
LetterboxInBreaks: 0
WidescreenStoryboard: 0

[Editor]
DistanceSpacing: 1.1
BeatDivisor: 4
GridSize: 4
TimelineZoom: 1.9

[Metadata]
Title:Million of Bravery
TitleUnicode:Million of Bravery
Artist:ChouCho
ArtistUnicode:ChouCho
Creator:alienflybot
Version:Triumph
Source:拡散性ミリオンアーサー
Tags:ちょうちょ Hyadain 前山田健一 Kenichi Maeyamada flyleaf Lantis Kaku-San-Sei San Sei Million Arthur opening SQUARE ENIX utaite butterfly AFB
BeatmapID:2176808
BeatmapSetID:1041534

[Difficulty]
HPDrainRate:6
CircleSize:4
OverallDifficulty:8.8
ApproachRate:8.8
SliderMultiplier:2
SliderTickRate:2

[Events]
//Background and Video events
0,0,"Hanasa.jpg",0,0
//Break Periods
//Storyboard Layer 0 (Background)
//Storyboard Layer 1 (Fail)
//Storyboard Layer 2 (Pass)
//Storyboard Layer 3 (Foreground)
//Storyboard Layer 4 (Overlay)
//Storyboard Sound Samples

[TimingPoints]
1184,375,4,2,1,30,1,0
11871,-100,4,3,20,30,0,0
12809,-100,4,3,20,10,0,0
13184,-100,4,3,20,30,0,0
13934,-100,4,3,20,50,0,0
14309,-100,4,3,20,70,0,0
14684,-100,4,3,1,60,0,0
26684,-100,4,2,1,30,0,0
29684,-100,4,3,1,60,0,0
50496,-100,4,2,1,30,0,0
55746,-100,4,3,1,60,0,0
62309,-100,4,3,1,30,0,0
62684,-100,4,3,1,80,0,1
74684,-100,4,3,1,80,0,0
75434,-100,4,3,1,30,0,0
75621,-100,4,3,1,60,0,1
76184,-100,4,3,1,80,0,1
89309,-100,4,3,1,50,0,1
89684,-100,4,2,1,30,0,0
100184,-100,4,2,1,60,0,0
101309,-100,4,2,1,30,0,0
113684,-100,4,3,1,60,0,0
137309,-100,4,3,1,30,0,0
137684,-100,4,3,1,80,0,1
149684,-100,4,3,1,80,0,0
150434,-100,4,3,1,30,0,0
150621,-100,4,3,1,60,0,1
151184,-100,4,3,1,80,0,1
164309,-100,4,3,1,80,0,0
164684,-100,4,3,1,60,0,1
164871,-100,4,3,1,60,0,0
191684,-100,4,2,1,30,0,0
214371,-100,4,3,40,30,0,0
215684,-100,4,3,40,50,0,0
216809,-100,4,3,40,70,0,0
217184,-100,4,2,1,30,0,0
219059,-100,4,2,1,10,0,0
219434,-100,4,2,1,30,0,0
220184,-100,4,3,20,30,0,0
220934,-100,4,3,20,50,0,0
221309,-100,4,3,20,70,0,0
221684,-100,4,2,1,60,0,0
224684,-100,4,3,1,80,0,1
233684,-100,4,3,1,80,0,0
234434,-100,4,3,1,30,0,0
234621,-100,4,3,1,60,0,1
235184,-100,4,3,1,80,0,1
248309,-100,4,3,1,50,0,1
248684,-100,4,2,1,30,0,0
250559,-100,4,2,1,10,0,0
250934,-100,4,2,1,30,0,0
251684,-100,4,3,40,30,0,0

[Colours]
Combo1 : 242,210,145
Combo2 : 54,57,136
Combo3 : 106,76,136
Combo4 : 96,73,59

[HitObjects]
64,364,1184,6,0,P|13:288|76:221,1,200,2|0,0:0|0:0,0:0:0:0:
192,160,1746,1,0,0:0:0:0:
12,188,1934,2,0,L|4:88,1,100,2|0,0:0|0:0,0:0:0:0:
116,28,2309,2,0,L|16:20,1,100
196,120,2684,6,0,L|396:104,1,200,2|0,0:0|0:0,0:0:0:0:
280,36,3246,1,0,0:0:0:0:
460,136,3434,2,0,L|468:236,1,100,2|0,0:0|0:0,0:0:0:0:
288,204,3809,2,0,L|280:304,1,100,2|0,0:0|0:0,0:0:0:0:
460,368,4184,6,0,P|511:292|448:225,1,200,2|0,0:0|0:0,0:0:0:0:
332,192,4746,1,0,0:0:0:0:
152,128,4934,2,0,L|352:112,1,200,2|2,0:0|0:0,0:0:0:0:
92,48,5684,5,2,0:0:0:0:
32,100,5871,1,0,0:0:0:0:
8,176,6059,1,2,0:0:0:0:
32,252,6247,1,0,0:0:0:0:
92,304,6434,1,2,0:0:0:0:
256,336,6809,2,0,L|156:344,1,100
336,376,7184,6,0,P|387:300|324:233,1,200,2|0,0:0|0:0,0:0:0:0:
208,200,7746,1,0,0:0:0:0:
396,168,7934,2,0,L|296:160,1,100,2|0,0:0|0:0,0:0:0:0:
416,136,8309,2,0,L|424:36,1,100
244,4,8684,6,0,L|44:20,1,200,2|0,0:0|0:0,0:0:0:0:
156,52,9246,1,0,0:0:0:0:
336,84,9434,2,0,P|387:160|324:227,1,200,2|0,0:0|0:0,0:0:0:0:
208,260,9996,1,0,0:0:0:0:
388,324,10184,6,0,L|396:224,1,100,2|0,0:0|0:0,0:0:0:0:
284,192,10559,2,0,L|276:92,1,100,2|0,0:0|0:0,0:0:0:0:
456,124,10934,2,0,L|272:44,2,200,2|2|2,0:0|0:0|0:0,0:0:0:0:
256,192,11871,12,0,14309,0:0:0:0:
228,344,14684,6,0,L|328:336,2,100,4|0|8,0:2|0:0|0:0,0:0:0:0:
408,280,15246,2,0,L|416:180,1,100,0|2,0:0|0:0,0:0:0:0:
236,116,15621,2,0,L|136:108,1,100,0|8,0:0|0:0,0:0:0:0:
384,44,15996,6,0,L|484:36,2,100,0|2|0,0:0|0:0|0:0,0:0:0:0:
204,112,16559,2,0,L|196:212,1,100,8|0,0:0|0:0,0:0:0:0:
308,276,16934,2,0,L|208:284,1,100,2|0,0:0|0:0,0:0:0:0:
28,348,17309,1,8,0:0:0:0:
276,348,17496,1,4,0:2:0:0:
28,348,17684,6,0,L|20:248,1,100,4|0,0:2|0:0,0:0:0:0:
132,216,18059,1,8,0:0:0:0:
312,280,18246,2,0,L|320:180,1,100,0|2,0:0|0:0,0:0:0:0:
208,116,18621,2,0,L|200:16,1,100,0|8,0:0|0:0,0:0:0:0:
448,80,18996,5,0,0:0:0:0:
348,87,19184,1,2,0:0:0:0:
248,94,19371,1,0,0:0:0:0:
428,156,19559,2,0,L|436:256,1,100,8|0,0:0|0:0,0:0:0:0:
324,288,19934,1,2,0:0:0:0:
144,320,20121,1,4,0:2:0:0:
392,320,20309,1,8,0:0:0:0:
144,320,20496,1,4,0:2:0:0:
392,320,20684,6,0,L|492:312,2,100,4|0|8,0:2|0:0|0:0,0:0:0:0:
212,256,21246,2,0,L|204:156,1,100,0|2,0:0|0:0,0:0:0:0:
384,124,21621,2,0,L|392:24,1,100,0|8,0:0|0:0,0:0:0:0:
144,56,21996,6,0,L|44:64,1,100,0|2,0:0|0:0,0:0:0:0:
224,132,22371,2,0,L|232:232,1,100,0|8,0:0|0:0,0:0:0:0:
120,264,22746,2,0,L|220:272,1,100,0|2,0:0|0:0,0:0:0:0:
400,328,23121,1,4,0:2:0:0:
152,328,23309,1,8,0:0:0:0:
400,328,23496,1,4,0:2:0:0:
152,328,23684,6,0,L|52:320,2,100,4|0|8,0:2|0:0|0:0,0:0:0:0:
400,296,24246,2,0,L|408:196,1,100,4|2,0:2|0:0,0:0:0:0:
228,228,24621,2,0,L|220:128,1,100,0|8,0:0|0:0,0:0:0:0:
468,64,24996,6,0,L|268:48,1,200,4|0,0:2|0:0,0:0:0:0:
20,16,25559,1,8,0:0:0:0:
336,16,25746,1,4,0:2:0:0:
48,16,26684,6,0,P|89:104|180:140,1,200,4|0,0:0|0:0,0:0:0:0:
428,204,27246,2,0,L|228:220,1,200,4|0,0:0|0:0,0:0:0:0:
116,288,27809,1,0,0:0:0:0:
360,352,27996,6,0,P|450:316|492:228,1,200,4|0,0:0|0:0,0:0:0:0:
380,196,28559,1,0,0:0:0:0:
132,164,28746,1,4,0:0:0:0:
296,100,29121,2,0,L|396:92,2,100
44,36,29684,6,0,L|36:136,1,100,2|0,0:2|0:0,0:0:0:0:
216,200,30059,2,0,L|224:300,1,100,8|0,0:0|0:0,0:0:0:0:
112,364,30434,2,0,L|12:356,2,100,2|0|8,0:0|0:0|0:0,0:0:0:0:
360,332,30996,6,0,L|368:232,1,100,0|2,0:0|0:0,0:0:0:0:
188,168,31371,2,0,L|88:160,1,100,0|8,0:0|0:0,0:0:0:0:
268,200,31746,2,0,L|276:100,1,100,0|2,0:0|0:0,0:0:0:0:
96,36,32121,1,4,0:2:0:0:
344,68,32309,2,0,L|444:60,1,100,8|4,0:0|0:2,0:0:0:0:
196,4,32684,6,0,P|145:80|208:147,1,200,4|8,0:2|0:0,0:0:0:0:
392,180,33246,2,0,P|443:256|380:323,1,200
264,356,33809,1,8,0:0:0:0:
20,292,33996,6,0,L|220:276,1,200
104,212,34559,1,8,0:0:0:0:
348,308,34746,2,0,L|364:108,1,200,4|0,0:2|0:0,0:0:0:0:
116,176,35309,2,0,L|108:76,1,100,8|0,0:0|0:0,0:0:0:0:
396,212,35684,6,0,L|196:196,1,200,4|8,0:2|0:0,0:0:0:0:
376,132,36246,2,0,L|476:124,2,100,0|2|0,0:0|0:0|0:0,0:0:0:0:
196,68,36809,1,8,0:0:0:0:
440,340,36996,6,0,P|432:243|366:170,1,200,4|0,0:2|0:0,0:0:0:0:
120,136,37559,1,8,0:0:0:0:
436,136,37746,1,4,0:2:0:0:
248,344,38496,2,0,L|236:296,1,50
356,264,38684,5,2,0:0:0:0:
416,212,38871,1,0,0:0:0:0:
440,136,39059,1,0,0:0:0:0:
416,60,39247,1,0,0:0:0:0:
236,8,39434,1,2,0:0:0:0:
176,60,39621,1,0,0:0:0:0:
152,136,39809,1,0,0:0:0:0:
176,212,39997,1,0,0:0:0:0:
356,296,40184,6,0,L|371:197,1,100,2|0,0:0|0:0,0:0:0:0:
192,164,40559,2,0,L|192:64,1,100,2|0,0:0|0:0,0:0:0:0:
12,32,40934,1,2,0:0:0:0:
192,96,41121,2,0,L|292:88,2,100
440,160,41684,6,0,P|399:248|308:284,1,200,4|8,0:2|0:0,0:0:0:0:
128,348,42246,2,0,L|228:340,1,100,0|2,0:0|0:0,0:0:0:0:
408,252,42621,2,0,L|308:244,1,100,0|8,0:0|0:0,0:0:0:0:
60,276,42996,6,0,L|52:176,1,100,4|2,0:2|0:0,0:0:0:0:
164,112,43371,1,0,0:0:0:0:
52,48,43559,1,8,0:0:0:0:
296,208,43746,2,0,L|396:200,1,100,4|2,0:2|0:0,0:0:0:0:
284,136,44121,1,0,0:0:0:0:
104,72,44309,1,8,0:0:0:0:
352,72,44496,1,4,0:2:0:0:
104,72,44684,6,0,P|37:144|29:242,1,200,4|8,0:2|0:0,0:0:0:0:
212,308,45246,2,0,L|312:316,2,100,0|2|0,0:0|0:0|0:0,0:0:0:0:
32,372,45809,1,8,0:0:0:0:
280,372,45996,6,0,L|296:172,1,200,4|0,0:2|0:0,0:0:0:0:
180,208,46559,1,8,0:0:0:0:
428,232,46746,2,0,P|387:144|296:108,1,200,4|0,0:2|0:0,0:0:0:0:
120,52,47309,1,8,0:0:0:0:
368,52,47496,1,4,0:2:0:0:
84,20,47684,6,0,L|76:120,1,100,4|0,0:2|0:0,0:0:0:0:
188,184,48059,1,8,0:0:0:0:
368,216,48246,2,0,L|376:316,1,100,4|0,0:2|0:0,0:0:0:0:
196,348,48621,2,0,L|296:356,1,100,0|8,0:0|0:0,0:0:0:0:
48,384,48996,6,0,L|40:284,1,100,4|2,0:2|0:0,0:0:0:0:
288,220,49371,2,0,L|296:120,1,100,4|8,0:2|0:0,0:0:0:0:
112,56,49746,1,4,0:2:0:0:
360,88,49934,1,2,0:0:0:0:
472,120,50121,2,0,L|480:20,1,100,4|8,0:2|0:0,0:0:0:0:
300,23,50496,6,0,P|186:109|216:248,1,300,2|0,0:0|0:0,0:0:0:0:
396,312,51246,2,0,L|412:112,1,200,2|2,0:0|0:0,0:0:0:0:
300,80,51809,1,2,0:0:0:0:
120,48,51996,6,0,P|90:186|203:272,1,300,2|0,0:0|0:0,0:0:0:0:
384,336,52746,2,0,L|184:352,1,200,2|2,0:0|0:0,0:0:0:0:
72,320,53309,1,2,0:0:0:0:
252,288,53496,6,0,P|303:212|240:145,1,200,2|0,0:0|0:0,0:0:0:0:
124,112,54059,1,2,0:0:0:0:
304,176,54246,2,0,L|312:76,1,100,2|0,0:0|0:0,0:0:0:0:
200,44,54621,2,0,L|300:36,1,100,2|0,0:0|0:0,0:0:0:0:
480,12,54996,6,0,P|439:100|348:136,1,200,2|0,0:0|0:0,0:0:0:0:
232,168,55559,1,2,0:0:0:0:
52,232,55746,1,4,0:2:0:0:
484,232,56121,1,4,0:2:0:0:
52,232,56496,6,0,L|44:132,1,100,4|2,0:2|0:0,0:0:0:0:
156,100,56871,1,0,0:0:0:0:
404,164,57059,1,4,0:2:0:0:
304,172,57246,1,0,0:0:0:0:
204,180,57434,1,2,0:0:0:0:
452,244,57621,2,0,L|352:252,1,100,4|0,0:2|0:0,0:0:0:0:
104,376,57996,6,0,P|53:300|116:233,1,200,4|0,0:2|0:0,0:0:0:0:
368,200,58559,1,4,0:2:0:0:
256,192,58746,1,0,0:0:0:0:
144,184,58934,1,0,0:0:0:0:
392,136,59121,2,0,L|400:36,1,100,4|8,0:2|0:0,0:0:0:0:
108,4,59496,6,0,L|8:12,2,100,4|2|0,0:2|0:0|0:0,0:0:0:0:
356,72,60059,1,4,0:2:0:0:
256,80,60246,1,0,0:0:0:0:
156,88,60434,1,2,0:0:0:0:
400,156,60621,2,0,L|500:164,1,100,4|8,0:2|0:0,0:0:0:0:
252,332,60996,6,0,P|185:260|177:162,1,200,4|4,0:2|0:2,0:0:0:0:
428,128,61559,1,8,0:0:0:0:
112,128,61746,1,4,0:2:0:0:
28,312,62309,2,0,L|20:288,6,25
252,244,62684,6,0,L|352:236,1,100,4|0,0:2|0:0,0:0:0:0:
464,172,63059,2,0,L|364:164,1,100,8|0,0:0|0:0,0:0:0:0:
184,276,63434,1,2,0:0:0:0:
296,208,63621,2,0,L|304:108,1,100,0|8,0:0|0:0,0:0:0:0:
56,208,63996,6,0,L|48:108,1,100,0|2,0:0|0:0,0:0:0:0:
160,44,64371,1,0,0:0:0:0:
340,12,64559,2,0,L|440:20,1,100,8|0,0:0|0:0,0:0:0:0:
260,84,64934,2,0,L|252:184,1,100,2|0,0:0|0:0,0:0:0:0:
432,216,65309,2,0,L|440:316,1,100,8|0,0:0|0:0,0:0:0:0:
176,348,65684,6,0,L|376:332,1,200,4|8,0:2|0:0,0:0:0:0:
196,268,66246,2,0,L|188:168,1,100,0|2,0:0|0:0,0:0:0:0:
368,200,66621,2,0,L|376:100,1,100,0|8,0:0|0:0,0:0:0:0:
128,4,66996,6,0,P|77:80|140:147,1,200,4|0,0:2|0:0,0:0:0:0:
324,116,67559,2,0,L|332:216,1,100,8|0,0:0|0:0,0:0:0:0:
152,280,67934,2,0,L|52:288,1,100,2|0,0:0|0:0,0:0:0:0:
300,364,68309,2,0,L|308:264,1,100,8|0,0:0|0:0,0:0:0:0:
60,332,68684,6,0,L|44:132,1,200,4|8,0:2|0:0,0:0:0:0:
224,196,69246,2,0,L|324:188,1,100,0|2,0:0|0:0,0:0:0:0:
144,124,69621,2,0,L|244:116,1,100,0|8,0:0|0:0,0:0:0:0:
492,52,69996,6,0,L|500:152,1,100,4|2,0:2|0:0,0:0:0:0:
388,184,70371,1,0,0:0:0:0:
208,248,70559,2,0,L|108:256,1,100,8|0,0:0|0:0,0:0:0:0:
288,320,70934,2,0,L|296:220,1,100,2|0,0:0|0:0,0:0:0:0:
116,156,71309,1,8,0:0:0:0:
416,248,71496,2,0,L|424:148,1,100,4|2,0:2|0:0,0:0:0:0:
244,280,71871,5,0,0:0:0:0:
184,228,72059,1,8,0:0:0:0:
160,152,72246,1,0,0:0:0:0:
184,76,72434,1,2,0:0:0:0:
244,24,72621,1,0,0:0:0:0:
64,92,72809,1,8,0:0:0:0:
344,60,72996,6,0,P|395:136|332:203,1,200,4|0,0:2|0:0,0:0:0:0:
216,236,73559,1,8,0:0:0:0:
464,172,73746,2,0,L|472:272,1,100,4|2,0:2|0:0,0:0:0:0:
360,340,74121,1,0,0:0:0:0:
180,308,74309,1,8,0:0:0:0:
428,308,74496,1,0,0:0:0:0:
180,308,74684,5,4,0:2:0:0:
288,272,75434,1,2,0:0:0:0:
40,308,75621,2,0,L|32:208,1,100,4|0,0:2|0:0,0:0:0:0:
280,176,75996,1,4,0:2:0:0:
392,140,76184,6,0,L|292:132,1,100,2|0,0:0|0:0,0:0:0:0:
112,68,76559,2,0,L|104:168,1,100,8|0,0:0|0:0,0:0:0:0:
284,200,76934,2,0,L|184:208,1,100,2|0,0:0|0:0,0:0:0:0:
432,240,77309,2,0,L|440:340,1,100,8|0,0:0|0:0,0:0:0:0:
168,372,77684,6,0,P|117:296|180:229,1,200,4|8,0:2|0:0,0:0:0:0:
360,196,78246,2,0,L|368:96,1,100,4|2,0:2|0:0,0:0:0:0:
80,124,78621,2,0,L|72:24,1,100,0|8,0:0|0:0,0:0:0:0:
320,372,78996,6,0,P|371:296|308:229,1,200,4|0,0:2|0:0,0:0:0:0:
192,196,79559,1,8,0:0:0:0:
440,128,79746,2,0,L|240:112,1,200,4|0,0:2|0:0,0:0:0:0:
488,48,80309,1,4,0:2:0:0:
188,16,80871,6,0,L|88:8,2,100,0|8|0,0:0|0:0|0:0,0:0:0:0:
368,48,81434,2,0,L|376:148,1,100
264,180,81809,1,8,0:0:0:0:
444,244,81996,1,0,0:0:0:0:
196,308,82184,5,4,0:2:0:0:
84,340,82371,2,0,L|76:240,1,100,0|8,0:0|0:0,0:0:0:0:
256,176,82746,2,0,L|356:168,2,100,4|0|0,0:2|0:0|0:0,0:0:0:0:
76,112,83309,1,8,0:0:0:0:
324,48,83496,1,0,0:0:0:0:
76,24,83684,6,0,L|68:124,1,100,4|0,0:2|0:0,0:0:0:0:
248,156,84059,2,0,L|256:256,1,100,8|0,0:0|0:0,0:0:0:0:
144,288,84434,1,2,0:0:0:0:
392,356,84621,2,0,L|492:348,1,100,0|8,0:0|0:0,0:0:0:0:
244,284,84996,6,0,P|153:247|111:159,1,200,4|0,0:2|0:0,0:0:0:0:
292,96,85559,1,8,0:0:0:0:
472,140,85934,2,0,L|372:132,2,100,2|0|4,0:0|0:0|0:2,0:0:0:0:
188,204,86496,5,0,0:0:0:0:
76,172,86684,2,0,L|68:72,1,100,2|0,0:0|0:0,0:0:0:0:
248,40,87059,2,0,L|348:48,1,100,8|0,0:0|0:0,0:0:0:0:
236,116,87434,2,0,L|136:124,2,100,2|0|8,0:0|0:0|0:0,0:0:0:0:
484,84,87996,6,0,P|442:172|351:209,1,200,4|0,0:2|0:0,0:0:0:0:
172,240,88559,1,8,0:0:0:0:
420,240,88746,1,0,0:0:0:0:
172,240,88934,2,0,P|81:276|39:365,1,200,4|0,0:2|0:0,0:0:0:0:
328,364,89684,5,2,0:0:0:0:
336,332,89871,1,0,0:0:0:0:
344,300,90059,1,0,0:0:0:0:
352,268,90246,1,0,0:0:0:0:
172,268,90434,1,2,0:3:0:0:
352,268,90621,1,2,0:0:0:0:
360,236,90809,1,2,0:0:0:0:
368,204,90996,1,0,0:0:0:0:
188,204,91184,5,2,0:3:0:0:
8,204,91371,1,0,0:0:0:0:
16,172,91559,1,0,0:0:0:0:
24,140,91746,1,0,0:0:0:0:
204,140,91934,1,2,0:3:0:0:
212,108,92121,1,0,0:0:0:0:
32,108,92309,1,2,0:0:0:0:
24,140,92496,1,2,0:0:0:0:
204,44,92684,5,2,0:3:0:0:
212,76,92871,1,0,0:0:0:0:
220,108,93059,1,0,0:0:0:0:
228,140,93246,1,0,0:0:0:0:
48,140,93434,1,2,0:3:0:0:
228,140,93621,1,2,0:0:0:0:
220,172,93809,1,0,0:0:0:0:
212,204,93996,1,2,0:0:0:0:
392,204,94184,5,2,0:3:0:0:
212,204,94371,1,0,0:0:0:0:
204,236,94559,1,0,0:0:0:0:
196,268,94746,1,0,0:0:0:0:
376,300,94934,1,2,0:3:0:0:
400,224,95122,1,0,0:0:0:0:
376,148,95310,1,2,0:0:0:0:
316,96,95497,1,2,0:0:0:0:
136,32,95684,5,2,0:3:0:0:
128,64,95871,1,0,0:0:0:0:
120,96,96059,1,0,0:0:0:0:
112,128,96246,1,0,0:0:0:0:
292,128,96434,1,2,0:3:0:0:
112,128,96621,1,2,0:0:0:0:
104,160,96809,1,2,0:0:0:0:
96,192,96996,1,0,0:0:0:0:
276,192,97184,5,2,0:3:0:0:
456,192,97371,1,0,0:0:0:0:
464,224,97559,1,0,0:0:0:0:
472,256,97746,1,0,0:0:0:0:
292,256,97934,1,2,0:3:0:0:
300,288,98121,1,0,0:0:0:0:
480,288,98309,1,2,0:0:0:0:
472,256,98496,1,2,0:0:0:0:
292,352,98684,5,2,0:3:0:0:
256,192,100184,12,4,101309,0:0:0:0:
476,352,101684,6,0,P|435:264|344:228,1,200,2|0,0:0|0:0,0:0:0:0:
164,296,102246,2,0,P|73:260|31:172,1,200,2|0,0:0|0:0,0:0:0:0:
212,108,102809,1,0,0:0:0:0:
32,352,102996,6,0,P|74:263|165:227,1,200,2|0,0:0|0:0,0:0:0:0:
348,164,103559,1,0,0:0:0:0:
236,100,103746,2,0,L|436:84,2,200,2|2|2,0:0|0:0|0:0,0:0:0:0:
416,36,104684,6,0,P|467:112|404:179,1,200,2|0,0:0|0:0,0:0:0:0:
224,244,105246,2,0,L|424:260,1,200,2|0,0:0|0:0,0:0:0:0:
308,292,105809,1,2,0:0:0:0:
128,360,105996,2,0,L|120:260,1,100,2|0,0:0|0:0,0:0:0:0:
300,196,106371,6,0,L|400:188,1,100,2|0,0:0|0:0,0:0:0:0:
284,124,106746,2,0,L|484:108,1,200,2|0,0:0|0:0,0:0:0:0:
304,44,107309,2,0,L|204:52,1,100,2|0,0:0|0:0,0:0:0:0:
24,20,107684,6,0,P|32:117|98:190,1,200,2|0,0:0|0:0,0:0:0:0:
280,252,108246,2,0,L|80:268,1,200,2|0,0:0|0:0,0:0:0:0:
196,300,108809,1,0,0:0:0:0:
16,368,108996,6,0,L|32:168,1,200,2|0,0:0|0:0,0:0:0:0:
212,136,109559,1,2,0:0:0:0:
112,232,109746,2,0,P|82:94|195:8,1,300,2|0,0:0|0:0,0:0:0:0:
480,168,110684,6,0,L|496:368,1,200,2|0,0:0|0:0,0:0:0:0:
316,304,111246,2,0,P|265:228|328:161,1,200,2|0,0:0|0:0,0:0:0:0:
444,192,111809,1,0,0:0:0:0:
264,128,111996,6,0,L|64:112,1,200,2|0,0:0|0:0,0:0:0:0:
244,48,112559,2,0,L|344:40,1,100,2|2,0:0|0:0,0:0:0:0:
448,24,113684,6,0,P|405:112|314:148,1,200,4|0,0:2|0:0,0:0:0:0:
68,216,114246,2,0,P|110:304|201:340,1,200,4|0,0:2|0:0,0:0:0:0:
316,308,114809,1,0,0:0:0:0:
72,376,114996,6,0,P|21:300|84:233,1,200,4|0,0:2|0:0,0:0:0:0:
200,200,115559,1,0,0:0:0:0:
444,264,115746,2,0,P|494:186|430:120,1,200,4|0,0:2|0:0,0:0:0:0:
248,56,116309,2,0,L|148:48,1,100
396,16,116684,6,0,L|404:116,1,100,4|0,0:2|0:0,0:0:0:0:
224,180,117059,2,0,L|124:188,1,100,8|0,0:0|0:0,0:0:0:0:
240,252,117434,2,0,L|140:260,1,100,2|0,0:0|0:0,0:0:0:0:
28,328,117809,1,8,0:0:0:0:
272,360,117996,6,0,L|280:260,1,100,4|2,0:2|0:0,0:0:0:0:
168,196,118371,2,0,L|160:96,1,100,0|8,0:0|0:0,0:0:0:0:
408,64,118746,2,0,L|508:56,2,100,4|2|0,0:2|0:0|0:0,0:0:0:0:
228,160,119309,1,8,0:0:0:0:
476,96,119496,1,4,0:2:0:0:
228,32,119684,6,0,P|236:129|303:201,1,200,4|8,0:2|0:0,0:0:0:0:
484,264,120246,2,0,L|284:280,1,200
400,312,120809,1,8,0:0:0:0:
156,344,120996,6,0,P|89:272|80:174,1,200,4|0,0:2|0:0,0:0:0:0:
196,144,121559,1,8,0:0:0:0:
440,80,121746,2,0,L|240:64,1,200,4|0,0:2|0:0,0:0:0:0:
488,8,122309,2,0,L|496:108,1,100,8|0,0:0|0:0,0:0:0:0:
248,172,122684,6,0,L|240:272,1,100,4|0,0:2|0:0,0:0:0:0:
352,304,123059,1,8,0:0:0:0:
108,368,123246,2,0,L|208:360,1,100,4|0,0:2|0:0,0:0:0:0:
320,272,123621,2,0,L|328:172,1,100,0|8,0:0|0:0,0:0:0:0:
64,108,123996,6,0,L|56:8,1,100,4|0,0:2|0:0,0:0:0:0:
304,72,124371,2,0,L|404:80,1,100,4|8,0:2|0:0,0:0:0:0:
224,144,124746,1,4,0:2:0:0:
472,176,124934,1,2,0:0:0:0:
360,240,125121,2,0,L|460:248,1,100,4|8,0:2|0:0,0:0:0:0:
212,312,125496,5,4,0:2:0:0:
208,264,125590,1,0,0:0:0:0:
204,216,125684,1,2,0:0:0:0:
316,184,125871,2,0,L|324:84,1,100,0|8,0:0|0:0,0:0:0:0:
144,52,126246,1,0,0:0:0:0:
256,44,126434,1,2,0:0:0:0:
368,36,126621,1,0,0:0:0:0:
188,136,126809,1,8,0:0:0:0:
436,104,126996,6,0,L|444:204,1,100,4|2,0:2|0:0,0:0:0:0:
332,236,127371,1,0,0:0:0:0:
444,268,127559,1,8,0:0:0:0:
264,336,127746,2,0,L|164:328,2,100,0|2|0,0:0|0:0|0:0,0:0:0:0:
444,268,128309,1,8,0:0:0:0:
196,200,128496,6,0,P|105:164|63:76,1,200,4|0,0:2|0:0,0:0:0:0:
180,44,129059,1,8,0:0:0:0:
424,12,129246,2,0,P|382:100|291:135,1,200,4|0,0:2|0:0,0:0:0:0:
176,168,129809,1,8,0:0:0:0:
424,104,129996,6,0,P|474:182|410:248,1,200,4|0,0:2|0:0,0:0:0:0:
296,280,130559,1,8,0:0:0:0:
476,312,130746,1,4,0:2:0:0:
44,312,131121,1,4,0:2:0:0:
476,312,131496,6,0,L|460:112,1,200,4|0,0:2|0:0,0:0:0:0:
212,176,132059,2,0,L|204:76,1,100,4|0,0:2|0:0,0:0:0:0:
316,44,132434,1,2,0:0:0:0:
36,12,132621,2,0,L|136:4,1,100,4|8,0:2|0:0,0:0:0:0:
404,76,132996,6,0,L|504:68,2,100,4|2|0,0:2|0:0|0:0,0:0:0:0:
156,140,133559,1,4,0:2:0:0:
268,204,133746,2,0,L|276:304,1,100,0|2,0:0|0:0,0:0:0:0:
28,336,134121,2,0,L|36:236,1,100,4|8,0:2|0:0,0:0:0:0:
380,172,134496,5,4,0:2:0:0:
492,108,134684,2,0,L|392:100,1,100,2|0,0:0|0:0,0:0:0:0:
144,36,135059,1,4,0:2:0:0:
256,28,135246,1,0,0:0:0:0:
368,20,135434,1,2,0:0:0:0:
120,116,135621,2,0,L|20:124,1,100,4|8,0:2|0:0,0:0:0:0:
268,92,135996,6,0,P|335:164|343:262,1,200,4|4,0:2|0:2,0:0:0:0:
92,296,136559,1,8,0:0:0:0:
408,296,136746,1,4,0:2:0:0:
228,360,137309,1,0,0:0:0:0:
200,336,137355,1,0,0:0:0:0:
180,308,137402,1,0,0:0:0:0:
176,272,137449,1,0,0:0:0:0:
180,236,137497,1,0,0:0:0:0:
200,208,137544,1,0,0:0:0:0:
228,184,137590,1,0,0:0:0:0:
452,220,137684,6,0,L|460:120,1,100,4|0,0:2|0:0,0:0:0:0:
348,152,138059,2,0,L|340:52,1,100,8|0,0:0|0:0,0:0:0:0:
160,20,138434,1,2,0:0:0:0:
48,84,138621,2,0,L|148:92,1,100,0|8,0:0|0:0,0:0:0:0:
396,152,138996,6,0,L|296:160,2,100,0|2|0,0:0|0:0|0:0,0:0:0:0:
212,132,139559,2,0,L|204:232,1,100,8|0,0:0|0:0,0:0:0:0:
388,296,139934,2,0,L|288:304,1,100,2|0,0:0|0:0,0:0:0:0:
108,364,140309,2,0,L|8:372,1,100,8|0,0:0|0:0,0:0:0:0:
256,340,140684,6,0,P|307:264|244:197,1,200,4|8,0:2|0:0,0:0:0:0:
64,132,141246,2,0,L|56:32,1,100,0|2,0:0|0:0,0:0:0:0:
232,164,141621,2,0,L|132:172,1,100,0|8,0:0|0:0,0:0:0:0:
380,236,141996,6,0,P|470:271|512:359,1,200,4|0,0:2|0:0,0:0:0:0:
396,328,142559,2,0,L|296:320,1,100,8|0,0:0|0:0,0:0:0:0:
480,256,142934,2,0,L|488:156,1,100,4|0,0:2|0:0,0:0:0:0:
140,188,143309,2,0,L|132:88,1,100,8|0,0:0|0:0,0:0:0:0:
416,24,143684,6,0,L|216:8,1,200,4|8,0:2|0:0,0:0:0:0:
36,40,144246,2,0,L|20:138,1,100,0|2,0:0|0:0,0:0:0:0:
204,204,144621,2,0,L|204:304,1,100,0|8,0:0|0:0,0:0:0:0:
452,368,144996,6,0,P|503:292|440:225,1,200,4|0,0:2|0:0,0:0:0:0:
256,160,145559,2,0,L|156:152,1,100,8|0,0:0|0:0,0:0:0:0:
340,84,145934,2,0,L|440:76,1,100,2|0,0:0|0:0,0:0:0:0:
260,44,146309,1,8,0:0:0:0:
16,12,146496,2,0,L|8:112,1,100,4|2,0:2|0:0,0:0:0:0:
188,80,146871,5,0,0:0:0:0:
248,132,147059,1,8,0:0:0:0:
272,208,147246,1,0,0:0:0:0:
248,284,147434,1,2,0:0:0:0:
188,336,147621,1,0,0:0:0:0:
8,268,147809,1,8,0:0:0:0:
256,368,147996,6,0,L|272:168,1,200,4|0,0:2|0:0,0:0:0:0:
160,136,148559,1,8,0:0:0:0:
404,204,148746,2,0,L|504:196,2,100,4|2|0,0:2|0:0|0:0,0:0:0:0:
156,268,149309,1,8,0:0:0:0:
404,332,149496,1,0,0:0:0:0:
156,268,149684,5,4,0:2:0:0:
272,204,150434,1,2,0:0:0:0:
24,136,150621,2,0,L|124:128,1,100,4|0,0:2|0:0,0:0:0:0:
372,64,150996,1,4,0:2:0:0:
260,32,151184,6,0,L|252:132,1,100,2|0,0:0|0:0,0:0:0:0:
436,164,151559,2,0,L|444:264,1,100,8|0,0:0|0:0,0:0:0:0:
260,328,151934,2,0,L|360:336,1,100,2|0,0:0|0:0,0:0:0:0:
112,200,152309,2,0,L|12:208,1,100,8|0,0:0|0:0,0:0:0:0:
260,328,152684,6,0,P|350:291|392:203,1,200,4|8,0:2|0:0,0:0:0:0:
212,168,153246,2,0,L|204:68,1,100,4|2,0:2|0:0,0:0:0:0:
452,56,153621,2,0,L|460:156,1,100,0|8,0:0|0:0,0:0:0:0:
176,220,153996,6,0,L|376:236,1,200,4|0,0:2|0:0,0:0:0:0:
260,268,154559,1,8,0:0:0:0:
16,332,154746,2,0,P|58:243|148:207,1,200,4|0,0:2|0:0,0:0:0:0:
432,112,155309,1,4,0:2:0:0:
168,32,155871,6,0,L|176:132,1,100,0|8,0:0|0:0,0:0:0:0:
288,164,156246,1,0,0:0:0:0:
108,228,156434,2,0,L|116:328,1,100,2|0,0:0|0:0,0:0:0:0:
228,360,156809,1,8,0:0:0:0:
48,328,156996,1,0,0:0:0:0:
332,360,157184,5,4,0:2:0:0:
444,328,157371,2,0,L|344:320,1,100,0|8,0:0|0:0,0:0:0:0:
164,256,157746,2,0,L|156:156,1,100,4|2,0:2|0:0,0:0:0:0:
268,124,158121,1,0,0:0:0:0:
448,96,158309,1,8,0:0:0:0:
200,32,158496,1,0,0:0:0:0:
448,96,158684,6,0,L|456:196,1,100,4|0,0:2|0:0,0:0:0:0:
276,260,159059,2,0,L|176:268,1,100,8|0,0:0|0:0,0:0:0:0:
292,300,159434,1,2,0:0:0:0:
112,364,159621,2,0,L|104:264,1,100,0|8,0:0|0:0,0:0:0:0:
352,200,159996,6,0,P|403:124|340:57,1,200,4|0,0:2|0:0,0:0:0:0:
156,24,160559,1,8,0:0:0:0:
332,88,160934,1,2,0:0:0:0:
220,100,161121,1,0,0:0:0:0:
108,112,161309,1,4,0:2:0:0:
388,176,161496,5,0,0:0:0:0:
500,208,161684,2,0,L|508:308,1,100,2|0,0:0|0:0,0:0:0:0:
260,340,162059,2,0,L|252:240,1,100,8|0,0:0|0:0,0:0:0:0:
364,176,162434,2,0,L|464:168,2,100,2|0|8,0:0|0:0|0:0,0:0:0:0:
80,308,162996,6,0,P|122:220|213:183,1,200,4|0,0:2|0:0,0:0:0:0:
324,148,163559,1,8,0:0:0:0:
76,116,163746,1,0,0:0:0:0:
324,148,163934,2,0,L|332:48,1,100,4|0,0:2|0:0,0:0:0:0:
152,16,164309,2,0,L|140:165,1,150
312,64,164684,6,0,P|363:140|300:207,1,200,4|8,0:2|0:0,0:0:0:0:
120,276,165246,2,0,L|320:292,1,200,4|0,0:2|0:0,0:0:0:0:
432,328,165809,1,8,0:0:0:0:
184,360,165996,6,0,P|133:284|196:217,1,200,4|0,0:2|0:0,0:0:0:0:
312,184,166559,2,0,L|320:84,1,100,8|0,0:0|0:0,0:0:0:0:
140,20,166934,2,0,L|40:28,1,100,2|0,0:0|0:0,0:0:0:0:
288,92,167309,2,0,L|388:100,1,100,4|0,0:2|0:0,0:0:0:0:
68,164,167684,6,0,P|17:240|80:307,1,200,4|8,0:2|0:0,0:0:0:0:
260,340,168246,2,0,L|276:140,1,200,4|0,0:2|0:0,0:0:0:0:
164,108,168809,1,8,0:0:0:0:
412,208,168996,6,0,P|463:132|400:65,1,200,4|0,0:2|0:0,0:0:0:0:
284,32,169559,2,0,L|184:40,1,100,8|0,0:0|0:0,0:0:0:0:
468,104,169934,2,0,L|476:204,1,100,4|0,0:2|0:0,0:0:0:0:
296,268,170309,1,4,0:2:0:0:
476,332,170496,1,0,0:0:0:0:
192,364,170684,6,0,L|92:356,2,100,4|0|8,0:2|0:0|0:0,0:0:0:0:
372,300,171246,2,0,P|364:203|298:130,1,200,4|0,0:2|0:0,0:0:0:0:
412,96,171809,1,8,0:0:0:0:
164,192,171996,6,0,P|172:94|239:21,1,200,4|0,0:2|0:0,0:0:0:0:
60,56,172559,1,8,0:0:0:0:
56,88,172621,1,0,0:0:0:0:
52,120,172684,1,0,0:0:0:0:
48,152,172746,1,0,0:0:0:0:
160,184,172934,1,2,0:0:0:0:
164,216,172996,1,0,0:0:0:0:
72,248,173121,2,0,L|172:256,1,100,0|8,0:0|0:0,0:0:0:0:
496,320,173496,6,0,L|512:120,1,200,4|0,0:2|0:0,0:0:0:0:
400,88,174059,1,8,0:0:0:0:
156,216,174246,2,0,L|356:200,1,200,4|0,0:2|0:0,0:0:0:0:
468,168,174809,1,8,0:0:0:0:
224,312,174996,6,0,P|133:275|91:187,1,200,4|0,0:2|0:0,0:0:0:0:
272,120,175559,1,8,0:0:0:0:
28,312,175746,2,0,P|70:223|160:187,1,200,4|0,0:2|0:0,0:0:0:0:
340,120,176309,1,4,0:2:0:0:
160,52,176496,1,0,0:0:0:0:
444,20,176684,5,4,0:2:0:0:
104,20,177621,1,4,0:2:0:0:
352,84,177809,1,4,0:2:0:0:
72,148,177996,6,0,P|80:245|146:318,1,200,4|0,0:2|0:0,0:0:0:0:
32,352,178559,1,8,0:0:0:0:
280,352,178746,2,0,P|309:212|195:127,1,300,4|8,0:2|0:0,0:0:0:0:
480,32,179684,6,0,L|280:48,1,200,4|8,0:2|0:0,0:0:0:0:
32,112,180246,2,0,L|232:128,1,200,4|0,0:2|0:0,0:0:0:0:
344,160,180809,1,8,0:0:0:0:
60,92,180996,6,0,P|101:180|191:217,1,200,4|0,0:2|0:0,0:0:0:0:
76,252,181559,1,8,0:0:0:0:
324,332,181746,2,0,P|414:295|456:206,1,200,4|0,0:2|0:0,0:0:0:0:
144,144,182309,1,4,0:2:0:0:
256,176,182496,5,0,0:0:0:0:
284,144,182559,1,0,0:0:0:0:
296,100,182621,1,0,0:0:0:0:
284,56,182684,1,2,0:0:0:0:
184,24,182824,1,0,0:0:0:0:
160,56,182871,1,0,0:0:0:0:
148,100,182934,1,0,0:0:0:0:
364,100,183059,5,8,0:0:0:0:
416,112,183152,1,0,0:0:0:0:
460,148,183246,1,0,0:0:0:0:
476,180,183309,1,0,0:0:0:0:
480,252,183434,1,2,0:0:0:0:
456,300,183527,1,0,0:0:0:0:
412,332,183621,1,0,0:0:0:0:
356,340,183715,1,0,0:0:0:0:
184,316,183809,5,8,0:0:0:0:
140,284,183902,1,0,0:0:0:0:
124,232,183996,1,0,0:0:0:0:
136,188,184059,1,0,0:0:0:0:
164,156,184122,1,0,0:0:0:0:
336,188,184184,5,4,0:2:0:0:
356,156,184247,1,0,0:0:0:0:
364,116,184309,1,0,0:0:0:0:
352,72,184372,1,0,0:0:0:0:
324,40,184434,1,0,0:0:0:0:
108,52,184559,5,8,0:0:0:0:
76,72,184622,1,0,0:0:0:0:
52,104,184684,1,0,0:0:0:0:
48,144,184747,1,0,0:0:0:0:
56,184,184809,1,0,0:0:0:0:
80,216,184871,1,0,0:0:0:0:
116,232,184934,1,2,0:0:0:0:
364,336,185121,5,8,0:0:0:0:
216,272,185309,1,8,0:0:0:0:
364,204,185496,1,2,0:0:0:0:
108,140,185684,6,0,L|8:132,1,100,4|0,0:2|0:0,0:0:0:0:
188,68,186059,2,0,L|288:60,2,100,8|0|2,0:0|0:0|0:0,0:0:0:0:
436,36,186621,2,0,L|444:136,1,100,4|8,0:2|0:0,0:0:0:0:
184,168,186996,6,0,P|225:256|315:293,1,200,4|2,0:2|0:0,0:0:0:0:
496,328,187559,2,0,L|504:228,1,100,8|0,0:0|0:0,0:0:0:0:
324,196,187934,2,0,L|424:188,1,100,2|0,0:0|0:0,0:0:0:0:
176,276,188309,6,0,P|86:239|44:150,1,200,4|2,0:2|0:0,0:0:0:0:
156,116,188871,1,0,0:0:0:0:
420,180,189059,2,0,L|428:80,1,100,4|0,0:2|0:0,0:0:0:0:
248,12,189434,2,0,L|148:20,1,100,4|0,0:2|0:0,0:0:0:0:
328,88,189809,1,8,0:0:0:0:
84,56,189996,6,0,L|68:256,1,200,4|0,0:2|0:0,0:0:0:0:
316,288,190559,2,0,L|324:188,1,100,4|0,0:2|0:0,0:0:0:0:
16,352,190934,1,4,0:2:0:0:
280,352,191684,6,0,P|414:244|271:148,1,400,2|2,0:0|0:0,0:0:0:0:
131,83,192809,1,0,0:0:0:0:
411,19,193184,2,0,L|427:219,1,200,2|0,0:0|0:0,0:0:0:0:
288,280,193934,1,2,0:0:0:0:
428,344,194309,2,0,L|328:352,1,100,2|0,0:0|0:0,0:0:0:0:
148,320,194684,6,0,P|97:244|160:177,1,200,2|0,0:0|0:0,0:0:0:0:
300,240,195434,2,0,P|351:164|288:97,1,200,2|0,0:0|0:0,0:0:0:0:
8,128,196184,2,0,L|192:48,2,200,2|2|2,0:0|0:0|0:0,0:0:0:0:
148,96,197309,2,0,L|248:104,1,100,2|0,0:0|0:0,0:0:0:0:
428,40,197684,6,0,P|360:221|176:280,1,400,2|2,0:0|0:0,0:0:0:0:
316,312,198809,1,0,0:0:0:0:
36,344,199184,2,0,L|20:144,1,200,2|0,0:0|0:0,0:0:0:0:
160,80,199934,1,2,0:0:0:0:
20,16,200309,2,0,L|120:8,1,100,2|0,0:0|0:0,0:0:0:0:
300,40,200684,6,0,P|351:116|288:183,1,200,2|0,0:0|0:0,0:0:0:0:
148,248,201434,2,0,L|48:256,2,100,2|0|2,0:0|0:0|0:0,0:0:0:0:
428,312,202184,1,2,0:0:0:0:
428,312,202934,5,2,0:0:0:0:
452,288,203026,1,0,0:0:0:0:
468,256,203120,1,2,0:0:0:0:
472,220,203214,1,0,0:0:0:0:
468,184,203308,1,2,0:0:0:0:
452,152,203402,1,0,0:0:0:0:
428,128,203496,1,2,0:0:0:0:
400,108,203589,1,0,0:0:0:0:
280,76,203684,6,0,L|180:68,2,100,2|0|2,0:0|0:0|0:3,0:0:0:0:
140,140,204434,2,0,L|40:148,1,100,2|0,0:0|0:0,0:0:0:0:
156,216,204809,2,0,L|256:224,1,100,2|0,0:3|0:0,0:0:0:0:
76,292,205184,6,0,P|25:216|88:149,1,200,2|2,0:0|0:3,0:0:0:0:
188,116,205746,1,0,0:0:0:0:
368,52,205934,2,0,L|168:36,1,200,2|2,0:0|0:3,0:0:0:0:
268,100,206496,1,0,0:0:0:0:
448,132,206684,6,0,L|464:332,1,200,2|2,0:0|0:3,0:0:0:0:
364,364,207246,1,0,0:0:0:0:
184,300,207434,2,0,L|384:284,1,200,2|2,0:0|0:0,0:0:0:0:
124,332,208184,5,2,0:0:0:0:
64,280,208371,1,0,0:0:0:0:
40,204,208559,1,2,0:0:0:0:
64,128,208747,1,0,0:0:0:0:
124,76,208934,1,2,0:0:0:0:
288,44,209309,2,0,L|296:144,1,100,2|0,0:0|0:0,0:0:0:0:
116,112,209684,6,0,P|65:188|128:255,1,200,2|2,0:0|0:3,0:0:0:0:
232,288,210246,1,0,0:0:0:0:
412,320,210434,1,2,0:0:0:0:
312,256,210621,1,0,0:0:0:0:
412,192,210809,2,0,L|420:92,1,100,2|0,0:3|0:0,0:0:0:0:
240,28,211184,6,0,P|149:64|107:152,1,200,2|2,0:0|0:3,0:0:0:0:
208,184,211746,1,0,0:0:0:0:
28,216,211934,2,0,P|70:304|161:340,1,200,2|2,0:0|0:3,0:0:0:0:
60,372,212496,1,0,0:0:0:0:
240,340,212684,6,0,L|256:140,1,200,2|2,0:0|0:0,0:0:0:0:
116,240,213434,2,0,L|100:40,1,200,2|2,0:0|0:0,0:0:0:0:
380,8,214184,5,2,0:0:0:0:
256,192,214371,12,0,216996,0:0:0:0:
388,8,217184,5,2,0:0:0:0:
124,8,217934,1,2,0:0:0:0:
456,8,218684,6,0,P|507:84|444:151,1,200,2|0,0:0|0:0,0:0:0:0:
300,120,219434,2,0,L|200:128,1,100,2|2,0:0|0:0,0:0:0:0:
480,224,219996,5,2,0:0:0:0:
256,192,220184,12,0,221309,0:0:0:0:
128,284,221684,5,4,0:2:0:0:
384,284,222434,1,4,0:2:0:0:
128,284,222621,1,4,0:2:0:0:
312,284,222996,6,0,P|341:144|227:59,1,300,4|0,0:2|0:0,0:0:0:0:
48,124,223746,1,0,0:0:0:0:
44,76,223840,1,0,0:0:0:0:
40,28,223934,1,4,0:2:0:0:
472,28,224309,1,4,0:2:0:0:
40,28,224684,6,0,P|82:116|173:152,1,200,4|8,0:2|0:0,0:0:0:0:
352,120,225246,2,0,L|360:220,1,100,0|2,0:0|0:0,0:0:0:0:
180,252,225621,2,0,L|80:260,1,100,0|8,0:0|0:0,0:0:0:0:
352,320,225996,6,0,P|442:284|485:195,1,200,4|0,0:2|0:0,0:0:0:0:
372,132,226559,2,0,L|272:124,1,100,8|0,0:0|0:0,0:0:0:0:
92,156,226934,2,0,L|84:56,1,100,2|0,0:0|0:0,0:0:0:0:
368,24,227309,2,0,L|376:124,1,100,8|0,0:0|0:0,0:0:0:0:
128,188,227684,6,0,L|328:204,1,200,4|8,0:2|0:0,0:0:0:0:
148,272,228246,2,0,L|156:372,1,100,0|2,0:0|0:0,0:0:0:0:
336,340,228621,2,0,L|344:240,1,100,0|8,0:0|0:0,0:0:0:0:
96,236,228996,6,0,P|46:158|110:92,1,200,4|0,0:2|0:0,0:0:0:0:
292,124,229559,2,0,L|300:24,1,100,8|0,0:0|0:0,0:0:0:0:
120,188,229934,2,0,L|20:180,1,100,2|0,0:0|0:0,0:0:0:0:
200,116,230309,1,8,0:0:0:0:
456,84,230496,2,0,L|464:184,1,100,4|2,0:2|0:0,0:0:0:0:
284,52,230871,5,0,0:0:0:0:
224,104,231058,1,8,0:0:0:0:
200,180,231246,1,0,0:0:0:0:
224,256,231434,1,2,0:0:0:0:
284,308,231621,1,0,0:0:0:0:
464,340,231809,1,8,0:0:0:0:
216,372,231996,6,0,P|151:305|201:227,1,200,4|0,0:2|0:0,0:0:0:0:
312,196,232559,1,8,0:0:0:0:
64,264,232746,2,0,L|56:164,1,100,4|2,0:2|0:0,0:0:0:0:
168,132,233121,1,0,0:0:0:0:
348,100,233309,1,8,0:0:0:0:
100,100,233496,1,0,0:0:0:0:
348,100,233684,1,4,0:2:0:0:
232,100,234434,5,2,0:0:0:0:
480,168,234621,2,0,L|472:268,1,100,4|0,0:2|0:0,0:0:0:0:
224,336,234996,1,4,0:2:0:0:
112,304,235184,6,0,L|104:204,1,100,2|0,0:0|0:0,0:0:0:0:
284,140,235559,2,0,L|292:40,1,100,8|0,0:0|0:0,0:0:0:0:
112,104,235934,2,0,L|212:96,1,100,2|0,0:0|0:0,0:0:0:0:
460,32,236309,2,0,L|360:24,1,100,8|0,0:0|0:0,0:0:0:0:
76,32,236684,6,0,P|26:110|91:176,1,200,4|8,0:2|0:0,0:0:0:0:
272,240,237246,2,0,L|372:248,1,100,4|2,0:2|0:0,0:0:0:0:
124,312,237621,2,0,L|24:320,1,100,0|8,0:0|0:0,0:0:0:0:
308,352,237996,6,0,P|299:254|233:181,1,200,4|0,0:2|0:0,0:0:0:0:
120,152,238559,1,8,0:0:0:0:
400,212,238746,2,0,P|466:139|474:41,1,200,4|0,0:2|0:0,0:0:0:0:
188,8,239309,1,4,0:2:0:0:
452,72,239871,6,0,L|352:80,2,100,0|8|0,0:0|0:0|0:0,0:0:0:0:
272,136,240434,2,0,L|264:236,1,100,2|0,0:0|0:0,0:0:0:0:
376,268,240809,1,8,0:0:0:0:
196,300,240996,1,0,0:0:0:0:
444,332,241184,5,4,0:2:0:0:
332,268,241371,2,0,L|232:260,2,100,0|8|4,0:0|0:0|0:2,0:0:0:0:
152,204,241934,2,0,L|144:104,1,100,2|0,0:0|0:0,0:0:0:0:
324,72,242309,1,8,0:0:0:0:
76,40,242496,1,0,0:0:0:0:
324,72,242684,6,0,L|424:80,1,100,4|0,0:2|0:0,0:0:0:0:
244,144,243059,2,0,L|144:152,1,100,8|0,0:0|0:0,0:0:0:0:
256,216,243434,1,2,0:0:0:0:
436,284,243621,2,0,L|336:292,1,100,0|8,0:0|0:0,0:0:0:0:
88,324,243996,6,0,L|72:124,1,200,4|0,0:2|0:0,0:0:0:0:
252,92,244559,1,8,0:0:0:0:
72,28,244934,2,0,L|172:20,2,100,2|0|4,0:0|0:0|0:2,0:0:0:0:
356,60,245496,5,0,0:0:0:0:
468,92,245684,2,0,L|476:192,1,100,2|0,0:0|0:0,0:0:0:0:
296,256,246059,2,0,L|196:264,1,100,8|0,0:0|0:0,0:0:0:0:
312,332,246434,2,0,L|412:324,2,100,2|0|8,0:0|0:0|0:0,0:0:0:0:
64,364,246996,6,0,P|106:276|197:239,1,200,4|0,0:2|0:0,0:0:0:0:
376,208,247559,1,8,0:0:0:0:
128,208,247746,1,0,0:0:0:0:
376,208,247934,2,0,P|466:171|508:83,1,200,4|0,0:2|0:0,0:0:0:0:
212,16,248684,6,0,L|196:216,1,200,2|2,0:0|0:0,0:0:0:0:
364,120,249621,1,2,0:0:0:0:
84,88,249996,6,0,P|54:227|168:312,1,300,2|0,0:0|0:0,0:0:0:0:
348,248,250934,2,0,L|164:168,1,200,2|2,0:0|0:0,0:0:0:0:
344,100,251496,5,2,0:0:0:0:
256,192,251684,12,0,253934,0:0:0:0:
