osu file format v14

[General]
AudioFilename: audio.mp3
AudioLeadIn: 0
PreviewTime: 48307
Countdown: 0
SampleSet: Soft
StackLeniency: 0.7
Mode: 0
LetterboxInBreaks: 0
WidescreenStoryboard: 1

[Editor]
DistanceSpacing: 1.1
BeatDivisor: 4
GridSize: 4
TimelineZoom: 2.2

[Metadata]
Title:Kuusou Triangle
TitleUnicode:空想トライアングル
Artist:ChouCho
ArtistUnicode:ChouCho
Creator:Agatsu
Version:Hard
Source:ハルチカ〜ハルタとチカは青春する〜
Tags:haruchika haruta to chika wa seishun suru ending tv size
BeatmapID:1568315
BeatmapSetID:743714

[Difficulty]
HPDrainRate:5
CircleSize:4
OverallDifficulty:6
ApproachRate:7
SliderMultiplier:1.5
SliderTickRate:1

[Events]
//Background and Video events
0,0,"bg.jpg",0,0
//Break Periods
//Storyboard Layer 0 (Background)
//Storyboard Layer 1 (Fail)
//Storyboard Layer 2 (Pass)
//Storyboard Layer 3 (Foreground)
//Storyboard Sound Samples

[TimingPoints]
194,444.444444444444,4,2,1,30,1,0
21527,-100,4,2,2,40,0,0
35749,-125,4,2,1,30,0,0
42860,-100,4,2,2,50,0,0
48638,-125,4,2,1,50,0,0
49971,-100,4,2,2,70,0,1
63749,-100,4,2,2,70,0,0
64193,-100,4,2,2,70,0,1
78416,-100,4,2,2,70,0,0
85638,-100,4,2,2,5,0,0

[Colours]
Combo1 : 255,255,149
Combo2 : 184,184,220
Combo3 : 255,149,149
Combo4 : 255,184,149

[HitObjects]
106,292,194,6,0,P|86:217|76:139,1,150,2|2,0:0|0:0,0:0:0:0:
205,42,1082,2,0,P|190:91|178:170,1,112.5,2|2,0:0|0:0,0:0:0:0:
293,199,1749,6,0,B|366:180|364:248|451:211,2,150,2|2|2,0:0|0:0|0:0,0:0:0:0:
427,290,3082,1,2,0:0:0:0:
427,290,3305,2,0,P|433:251|437:207,1,75,2|0,0:0|0:0,0:0:0:0:
480,147,3749,6,0,P|434:96|347:94,1,150,2|2,0:0|0:0,0:0:0:0:
208,17,4638,2,0,P|218:77|230:144,1,112.5,2|2,0:0|0:0,0:0:0:0:
106,155,5305,6,0,P|96:215|75:306,2,150,2|2|2,0:0|0:0|0:0,0:0:0:0:
202,288,6638,2,0,L|245:280,2,37.5,2|0|2,0:0|0:0|0:0,0:0:0:0:
292,218,7082,1,0,0:0:0:0:
370,243,7305,6,0,P|384:170|385:85,1,150,2|2,0:0|0:0,0:0:0:0:
328,34,7971,1,2,0:0:0:0:
328,34,8193,2,0,P|288:36|254:57,1,75,2|0,0:0|0:0,0:0:0:0:
232,131,8638,1,2,0:0:0:0:
154,103,8860,6,0,B|81:93|84:147|10:127,2,150,2|2|2,0:0|0:0|0:0,0:0:0:0:
90,255,10193,1,2,0:0:0:0:
90,255,10416,2,0,P|122:272|159:273,1,75,2|0,0:0|0:0,0:0:0:0:
200,345,10860,6,0,P|205:259|220:184,1,150,2|2,0:0|0:0,0:0:0:0:
274,137,11527,2,0,P|314:125|355:125,1,75,0|2,0:0|0:0,0:0:0:0:
394,56,11971,1,2,0:0:0:0:
331,2,12193,1,0,0:0:0:0:
252,29,12416,6,0,B|179:12|177:75|103:53,2,150,2|2|2,0:0|0:0|0:0,0:0:0:0:
187,181,13749,1,2,0:0:0:0:
187,181,13971,2,0,P|174:219|174:259,1,75,2|0,0:0|0:0,0:0:0:0:
220,321,14416,6,0,P|290:328|342:275,1,150,2|2,0:0|0:0,0:0:0:0:
335,192,15082,1,0,0:0:0:0:
335,192,15305,2,0,P|339:151|346:117,1,75,2|0,0:0|0:0,0:0:0:0:
285,61,15749,1,2,0:0:0:0:
210,97,15971,6,0,P|134:81|45:66,2,150,2|2|2,0:0|0:0|0:0,0:0:0:0:
386,15,17305,1,2,0:0:0:0:
386,15,17527,2,0,P|402:49|399:94,1,75,2|0,0:0|0:0,0:0:0:0:
367,160,17971,6,0,P|366:197|382:230,1,75,2|0,0:0|0:0,0:0:0:0:
454,272,18416,1,2,0:0:0:0:
425,349,18638,2,0,P|345:363|296:317,1,150,2|2,0:0|0:0,0:0:0:0:
283,239,19305,1,2,0:0:0:0:
385,191,19527,1,2,0:0:0:0:
187,207,20193,5,2,0:0:0:0:
187,207,20416,2,0,P|148:150|188:86,1,150,2|2,0:0|0:0,0:0:0:0:
265,104,21082,2,0,L|258:146,2,37.5,2|0|2,0:0|0:0|0:0,0:0:0:0:
332,55,21527,6,0,P|403:54|459:106,1,150,2|2,0:0|0:0,0:0:0:0:
412,173,22193,1,0,0:0:0:0:
412,173,22416,2,0,P|417:213|402:253,1,75,2|0,0:0|0:0,0:0:0:0:
328,270,22860,1,2,0:0:0:0:
280,202,23082,6,0,B|212:182|211:249|126:213,1,150,2|0,0:3|0:0,0:0:0:0:
55,235,23749,1,2,0:0:0:0:
55,235,23971,2,0,P|16:178|56:114,1,150,0|0,0:0|0:0,0:0:0:0:
126,76,24638,1,2,0:0:0:0:
218,111,24860,1,2,0:3:0:0:
308,48,25082,6,0,P|376:39|470:34,1,150,2|2,0:0|0:0,0:0:0:0:
493,108,25749,1,0,0:0:0:0:
493,108,25971,2,0,P|486:148|480:189,1,75,2|0,0:0|0:0,0:0:0:0:
419,237,26416,1,2,0:0:0:0:
338,218,26638,6,0,P|300:278|339:337,2,150,2|0|0,0:3|0:0|0:0,0:0:0:0:
419,237,27749,1,2,0:0:0:0:
480,182,27971,1,0,0:0:0:0:
480,182,28193,2,0,P|494:142|486:99,1,75,2|2,0:0|0:3,0:0:0:0:
432,51,28638,6,0,B|365:31|357:91|284:61,1,150,2|2,0:0|0:0,0:0:0:0:
212,97,29305,1,0,0:0:0:0:
212,97,29527,2,0,P|178:81|138:82,1,75,2|0,0:0|0:0,0:0:0:0:
71,125,29971,1,2,0:0:0:0:
108,198,30193,6,0,P|117:277|136:366,1,150,2|0,0:3|0:0,0:0:0:0:
213,339,30860,1,2,0:0:0:0:
213,339,31082,2,0,P|274:365|337:310,1,150,0|0,0:0|0:0,0:0:0:0:
375,246,31749,1,2,0:0:0:0:
310,194,31971,1,2,0:3:0:0:
229,211,32193,6,0,P|164:197|71:173,1,150,2|2,0:0|0:0,0:0:0:0:
0,255,32860,2,0,P|73:270|145:289,1,150,0|0,0:0|0:0,0:0:0:0:
227,303,33527,1,2,0:0:0:0:
302,269,33749,6,0,B|367:249|375:317|450:283,2,150,2|0|0,0:3|0:0|0:0,0:0:0:0:
266,290,34749,1,0,0:0:0:0:
266,290,34860,1,2,0:0:0:0:
216,224,35082,1,0,0:0:0:0:
265,157,35305,2,0,P|275:118|266:82,1,75,2|0,0:0|0:0,0:0:0:0:
208,28,35749,6,0,P|149:23|93:72,1,120,2|2,0:0|0:0,0:0:0:0:
149,179,36638,2,0,P|208:184|279:192,1,120,2|2,0:0|0:0,0:0:0:0:
347,162,37305,1,2,0:0:0:0:
405,222,37527,6,0,L|416:291,1,60,2|2,0:0|0:0,0:0:0:0:
336,312,37971,2,0,L|326:252,1,60,2|2,0:0|0:0,0:0:0:0:
268,190,38416,2,0,P|205:178|136:166,1,120,2|8,0:0|0:0,0:0:0:0:
137,0,39305,6,0,P|196:10|255:21,1,120,2|0,0:0|0:0,0:0:0:0:
391,118,40193,2,0,P|415:173|396:231,1,120,2|2,0:0|0:0,0:0:0:0:
325,270,40860,1,0,0:0:0:0:
249,232,41082,6,0,P|225:177|244:119,2,120,0|0|0,0:0|0:0|0:0,0:0:0:0:
325,270,42193,1,0,0:0:0:0:
398,228,42416,2,0,L|449:218,2,30,4|0|0,0:3|0:0|0:0,0:0:0:0:
320,169,42860,6,0,B|249:152|245:211|167:181,1,150,4|2,0:0|0:0,0:0:0:0:
174,183,43749,2,0,P|157:148|162:107,1,75,2|0,0:0|0:0,0:0:0:0:
209,47,44193,1,8,0:0:0:0:
291,58,44416,6,0,P|354:50|447:41,1,150,2|2,0:0|0:0,0:0:0:0:
504,188,45305,2,0,P|429:195|354:204,1,150,0|0,0:0|0:0,0:0:0:0:
295,261,45971,1,8,0:0:0:0:
373,287,46193,1,0,0:0:0:0:
355,204,46416,6,0,L|373:124,1,75,2|0,0:0|0:0,0:0:0:0:
301,47,46860,2,0,L|284:120,1,75,8|0,0:0|0:0,0:0:0:0:
215,166,47305,1,8,0:0:0:0:
137,107,47527,1,0,0:0:0:0:
56,182,47749,2,0,L|39:255,1,75,8|4,0:0|0:0,0:0:0:0:
178,327,48416,5,0,0:0:0:0:
178,327,48638,2,0,P|215:320|257:317,1,60,2|0,0:0|0:0,0:0:0:0:
304,368,49082,2,0,P|327:338|358:309,1,60,2|0,0:0|0:0,0:0:0:0:
427,331,49527,2,0,P|426:293|430:251,1,60,2|0,0:0|0:0,0:0:0:0:
441,153,49971,6,0,B|370:141|369:198|294:175,1,150,6|8,0:0|0:0,0:0:0:0:
270,28,50638,2,0,L|256:102,1,75,0|2,0:0|0:0,0:0:0:0:
184,147,51082,2,0,P|147:133|106:140,1,75,0|8,0:0|0:0,0:0:0:0:
67,207,51527,6,0,P|128:243|206:226,1,150,0|0,0:0|0:0,0:0:0:0:
262,171,52193,1,8,0:0:0:0:
203,78,52416,2,0,P|184:110|186:154,1,75,0|2,0:0|0:0,0:0:0:0:
262,171,52860,1,0,0:0:0:0:
340,195,53082,2,0,P|359:163|357:119,1,75,8|0,0:0|0:0,0:0:0:0:
262,171,53527,6,0,P|246:241|293:316,1,150,2|8,0:0|0:0,0:0:0:0:
359,333,54193,1,0,0:0:0:0:
428,279,54416,2,0,P|444:209|397:134,1,150,2|8,0:0|0:0,0:0:0:0:
330,116,55082,1,0,0:0:0:0:
408,142,55305,6,0,L|496:124,1,75,2|0,0:0|0:0,0:0:0:0:
330,116,55749,2,0,L|256:131,1,75,8|0,0:0|0:0,0:0:0:0:
188,84,56193,2,0,L|177:3,1,75,2|0,0:0|0:0,0:0:0:0:
115,145,56638,1,8,0:0:0:0:
213,177,56860,1,0,0:0:0:0:
213,177,56971,1,0,0:0:0:0:
213,177,57082,6,0,B|281:163|285:224|359:203,1,150,2|8,0:0|0:0,0:0:0:0:
426,161,57749,2,0,P|443:125|438:82,1,75,0|2,0:0|0:0,0:0:0:0:
346,55,58193,2,0,P|329:91|334:134,1,75,0|8,0:0|0:0,0:0:0:0:
355,203,58638,1,0,0:0:0:0:
282,242,58860,6,0,P|230:192|157:199,1,150,2|8,0:0|0:0,0:0:0:0:
210,303,59527,2,0,P|217:339|214:376,1,75,0|2,0:0|0:0,0:0:0:0:
303,328,59971,2,0,L|393:318,1,75,0|8,0:0|0:0,0:0:0:0:
434,259,60416,6,0,P|432:213|441:179,1,75,0|2,0:0|0:0,0:0:0:0:
433,102,60860,1,0,0:0:0:0:
365,54,61082,2,0,P|321:40|292:20,1,75,8|0,0:0|0:0,0:0:0:0:
223,62,61527,2,0,L|212:146,1,75,2|0,0:0|0:0,0:0:0:0:
154,16,61971,2,0,P|122:35|86:45,1,75,8|0,0:0|0:0,0:0:0:0:
120,147,62416,6,0,L|109:227,1,75,6|0,0:0|0:0,0:0:0:0:
195,268,62860,2,0,L|238:261,2,37.5,8|0|2,0:0|0:0|0:0,0:0:0:0:
280,186,63305,1,2,0:0:0:0:
298,189,63416,1,0,0:0:0:0:
315,196,63527,1,2,0:0:0:0:
328,208,63638,1,0,0:0:0:0:
337,224,63749,2,0,L|344:277,3,37.5,8|0|8|0,0:0|0:0|0:0|0:0,0:0:0:0:
351,277,64193,6,0,P|385:260|431:267,1,75,2|0,0:0|0:0,0:0:0:0:
469,329,64638,2,0,P|405:368|326:354,1,150,12|2,0:0|0:0,0:0:0:0:
271,303,65305,2,0,L|197:288,1,75,0|8,0:0|0:0,0:0:0:0:
351,277,65749,6,0,P|361:199|371:116,1,150,0|0,0:0|0:0,0:0:0:0:
321,60,66416,1,8,0:0:0:0:
240,78,66638,2,0,P|205:63|165:67,1,75,0|2,0:0|0:0,0:0:0:0:
150,146,67082,1,0,0:0:0:0:
137,227,67305,2,0,P|172:242|212:238,1,75,8|0,0:0|0:0,0:0:0:0:
150,146,67749,6,0,P|71:143|18:200,1,150,2|8,0:0|0:0,0:0:0:0:
5,270,68416,1,0,0:0:0:0:
59,332,68638,2,0,P|138:335|191:278,1,150,2|8,0:0|0:0,0:0:0:0:
193,206,69305,1,0,0:0:0:0:
186,288,69527,6,0,L|271:302,1,75,2|0,0:0|0:0,0:0:0:0:
193,206,69971,2,0,L|118:193,1,75,8|0,0:0|0:0,0:0:0:0:
54,141,70416,2,0,P|55:97|66:66,1,75,2|0,0:0|0:0,0:0:0:0:
11,230,70860,1,8,0:0:0:0:
92,283,71082,1,0,0:0:0:0:
172,218,71305,6,0,B|245:206|244:262|321:232,1,150,2|8,0:0|0:0,0:0:0:0:
375,175,71971,1,0,0:0:0:0:
456,188,72193,2,0,P|471:220|471:266,1,75,2|0,0:0|0:0,0:0:0:0:
399,298,72638,2,0,L|390:377,1,75,8|0,0:0|0:0,0:0:0:0:
305,308,73082,6,0,P|255:262|173:273,1,150,2|8,0:0|0:0,0:0:0:0:
115,324,73749,1,0,0:0:0:0:
40,288,73971,2,0,L|26:205,1,75,2|0,0:0|0:0,0:0:0:0:
6,133,74416,1,8,0:0:0:0:
65,76,74638,1,0,0:0:0:0:
143,100,74860,6,0,P|181:102|227:98,1,75,2|0,0:0|0:0,0:0:0:0:
323,185,75305,2,0,P|285:183|239:187,1,75,8|0,0:0|0:0,0:0:0:0:
199,251,75749,2,0,L|189:330,1,75,2|0,0:0|0:0,0:0:0:0:
284,302,76193,1,8,0:0:0:0:
369,336,76416,1,0,0:0:0:0:
369,336,76527,1,0,0:0:0:0:
369,336,76638,6,0,L|420:327,2,37.5,2|0|2,0:0|0:0|0:0,0:0:0:0:
459,257,77082,1,8,0:0:0:0:
467,240,77193,1,0,0:0:0:0:
470,221,77305,1,2,0:0:0:0:
470,202,77416,1,0,0:0:0:0:
460,185,77527,6,0,P|434:177|407:177,3,37.5,0|0|0|0,0:0|0:0|0:0|0:0,0:0:0:0:
387,194,77971,2,0,P|361:202|334:202,3,37.5,8|0|0|0,0:0|0:0|0:0|0:0,0:0:0:0:
312,187,78416,6,0,P|299:116|295:30,2,150,4|8|2,0:0|0:0|0:0,0:0:0:0:
253,245,79527,1,0,0:0:0:0:
183,200,79749,2,0,L|103:188,1,75,8|0,0:0|0:0,0:0:0:0:
26,255,80193,6,0,L|185:281,2,150,2|8|2,0:0|0:0|0:0,0:0:0:0:
80,98,81527,2,0,L|154:109,1,75,8|0,0:0|0:0,0:0:0:0:
229,75,81971,6,0,L|303:86,1,75,2|0,0:0|0:0,0:0:0:0:
385,79,82416,2,0,P|398:111|398:160,1,75,8|0,0:0|0:0,0:0:0:0:
389,167,82749,1,0,0:0:0:0:
389,167,82860,1,2,0:0:0:0:
308,222,83082,1,0,0:0:0:0:
240,135,83305,1,8,0:0:0:0:
131,170,83527,6,0,P|92:223|133:295,1,150,0|0,0:0|0:0,0:0:0:0:
221,317,84193,1,8,0:0:0:0:
236,306,84305,1,0,0:0:0:0:
253,298,84416,1,0,0:0:0:0:
271,294,84527,1,0,0:0:0:0:
289,295,84638,1,8,0:0:0:0:
373,343,84860,1,8,0:0:0:0:
441,274,85082,2,0,L|485:270,2,37.5,8|0|0,0:0|0:0|0:0,0:0:0:0:
351,181,85527,5,4,0:0:0:0:
256,192,85638,12,0,89082,0:0:0:0:
