osu file format v14

[General]
AudioFilename: choucho.mp3
AudioLeadIn: 0
PreviewTime: 211467
Countdown: 0
SampleSet: Soft
StackLeniency: 0.7
Mode: 0
LetterboxInBreaks: 0
WidescreenStoryboard: 0

[Editor]
DistanceSpacing: 1.7
BeatDivisor: 4
GridSize: 4
TimelineZoom: 1

[Metadata]
Title:Kimi e Okuru Mahou
TitleUnicode:君へ贈る魔法
Artist:ChouCho
ArtistUnicode:ChouCho
Creator:Kibbleru
Version:Hard
Source:サンタ・カンパニー
Tags:Santa Company christmas ending song ed ちょうちょ
BeatmapID:819697
BeatmapSetID:373070

[Difficulty]
HPDrainRate:5
CircleSize:4
OverallDifficulty:5.5
ApproachRate:7
SliderMultiplier:1.4
SliderTickRate:1

[Events]
//Background and Video events
0,0,"shibuyarin.jpg",0,0
//Break Periods
2,92605,97130
2,175105,178926
2,196667,202363
//Storyboard Layer 0 (Background)
//Storyboard Layer 1 (Fail)
//Storyboard Layer 2 (Pass)
//Storyboard Layer 3 (Foreground)
//Storyboard Sound Samples

[TimingPoints]
530,468.75,4,2,1,60,1,0
530,-111.111111111111,4,2,1,60,0,0
15061,-125,4,2,1,60,0,0
15530,-142.857142857143,4,2,1,40,0,0
26780,-111.111111111111,4,2,1,60,0,0
30530,-142.857142857143,4,2,1,50,0,0
45530,-142.857142857143,4,2,1,50,0,0
56545,-142.857142857143,4,2,1,60,0,0
57483,-125,4,2,1,60,0,0
58420,-111.111111111111,4,2,1,60,0,0
60530,-100,4,2,3,70,0,1
60647,-100,4,2,1,70,0,1
74592,-100,4,2,1,70,0,0
75530,-100,4,2,3,70,0,1
75647,-100,4,2,1,70,0,1
89123,-100,4,2,1,60,0,0
98030,-142.857142857143,4,2,1,50,0,0
109280,-111.111111111111,4,2,1,60,0,0
113030,-142.857142857143,4,2,1,50,0,0
118420,-111.111111111111,4,2,1,60,0,0
128030,-142.857142857143,4,2,1,50,0,0
139045,-142.857142857143,4,2,1,60,0,0
139983,-125,4,2,1,60,0,0
140920,-111.111111111111,4,2,1,60,0,0
143030,-99.9999999999999,4,2,3,70,0,1
143147,-99.9999999999999,4,2,1,70,0,1
157092,-99.9999999999999,4,2,1,70,0,0
158030,-99.9999999999999,4,2,3,70,0,1
158147,-99.9999999999999,4,2,1,70,0,1
173030,-99.9999999999999,4,2,1,60,0,0
181467,468.75,4,2,1,60,1,0
196467,-100,4,2,1,40,0,0
203967,-142.857142857143,4,2,1,60,0,0
207717,-111.111111111111,4,2,1,60,0,0
210998,-76.9230769230769,4,2,3,70,0,0
211467,-100,4,2,1,70,0,1
225529,-100,4,2,1,70,0,0
226467,-100,4,2,3,70,0,1
226584,-100,4,2,1,70,0,1
240060,-100,4,2,1,60,0,0
241467,-111.111111111111,4,2,1,60,0,0
258107,-111.111111111111,4,2,1,60,0,0
258108,-161.290322580645,4,2,1,60,0,0
258342,-161.290322580645,4,2,1,60,0,0
258576,-161.290322580645,4,2,2,25,0,0
259045,-161.290322580645,4,2,2,25,0,0
259513,-161.290322580645,4,2,2,20,0,0
259982,-161.290322580645,4,2,2,20,0,0
260451,-161.290322580645,4,2,2,15,0,0
260920,-161.290322580645,4,2,2,15,0,0
261388,-161.290322580645,4,2,2,10,0,0
261857,-161.290322580645,4,2,2,10,0,0
262326,-161.290322580645,4,2,2,5,0,0
262795,-161.290322580645,4,2,2,5,0,0
263732,-161.290322580645,4,2,2,5,0,0

[Colours]
Combo1 : 198,222,225
Combo2 : 128,49,223
Combo3 : 80,225,245

[HitObjects]
368,76,530,6,0,L|284:56,1,62.9999980773926,12|0,0:1|0:0,0:0:0:0:
288,135,998,2,0,P|264:153|247:182,1,62.9999980773926,8|0,1:0|0:0,0:0:0:0:
280,260,1467,1,8,0:1:0:0:
280,260,1701,2,0,P|306:272|340:271,1,62.9999980773926,0|8,0:0|0:1,0:0:0:0:
299,359,2170,6,0,P|239:340|176:347,1,125.999996154785,0|0,0:0|0:0,0:0:0:0:
104,264,2873,2,0,L|172:256,1,62.9999980773926,8|0,1:1|0:0,0:0:0:0:
239,223,3342,2,0,P|266:240|297:241,1,62.9999980773926,8|0,0:1|0:0,0:0:0:0:
364,192,3811,2,0,P|365:160|350:133,1,62.9999980773926,8|0,0:1|0:0,0:0:0:0:
296,72,4280,5,8,0:1:0:0:
296,72,4514,1,0,0:0:0:0:
224,108,4748,2,0,L|148:92,1,62.9999980773926,8|0,1:1|0:0,0:0:0:0:
104,152,5217,1,8,0:1:0:0:
144,224,5451,2,0,L|156:296,1,62.9999980773926,0|8,0:0|0:1,0:0:0:0:
228,324,5920,6,0,P|288:336|352:300,1,125.999996154785,0|0,0:0|0:0,0:0:0:0:
376,232,6623,2,0,P|405:221|435:211,1,62.9999980773926,8|0,1:1|0:0,0:0:0:0:
400,140,7092,2,0,L|400:64,1,62.9999980773926,8|0,0:1|0:0,0:0:0:0:
320,68,7561,2,0,L|320:131,1,62.9999980773926,10|2,0:1|0:0,0:0:0:0:
260,188,8030,5,12,0:1:0:0:
260,188,8264,1,0,0:0:0:0:
192,232,8498,2,0,P|142:239|64:196,1,125.999996154785,8|8,1:1|0:1,0:0:0:0:
32,276,9201,2,0,P|23:310|28:352,1,62.9999980773926,0|8,0:0|0:1,0:0:0:0:
104,364,9670,6,0,L|244:348,1,125.999996154785,0|0,0:0|0:0,0:0:0:0:
304,316,10373,2,0,L|376:328,1,62.9999980773926,8|0,1:1|0:0,0:0:0:0:
444,300,10842,1,8,0:1:0:0:
464,220,11076,1,0,0:0:0:0:
404,164,11311,2,0,L|392:80,1,62.9999980773926,8|0,0:1|0:0,0:0:0:0:
272,88,11780,6,0,L|280:150,1,62.9999980773926,8|0,0:1|0:0,0:0:0:0:
236,216,12248,2,0,P|176:196|114:200,1,125.999996154785,8|8,1:1|0:1,0:0:0:0:
72,268,12951,2,0,P|60:312|64:340,1,62.9999980773926,0|8,0:0|0:1,0:0:0:0:
140,352,13420,6,0,L|288:336,1,125.999996154785,0|0,0:0|0:0,0:0:0:0:
328,284,14123,2,0,L|404:300,1,62.9999980773926,8|0,1:1|0:0,0:0:0:0:
252,236,14592,2,0,L|189:242,1,62.9999980773926,8|0,0:1|0:0,0:0:0:0:
120,200,15061,6,0,P|104:132|124:76,1,112,10|12,0:1|0:1,0:0:0:0:
300,52,16233,1,8,0:1:0:0:
300,52,16936,1,8,0:0:0:0:
400,132,17405,5,8,0:1:0:0:
400,132,18108,1,8,0:1:0:0:
400,132,18811,2,0,L|404:196,1,48.9999985046387,8|8,0:0|0:1,0:0:0:0:
344,252,19280,5,8,0:1:0:0:
344,252,19983,1,8,0:1:0:0:
344,252,20686,1,8,0:0:0:0:
268,152,21155,5,8,0:1:0:0:
268,152,21858,1,8,0:1:0:0:
268,152,22561,6,0,L|160:168,1,97.9999970092774,2|8,0:0|0:1,0:0:0:0:
72,332,23733,1,10,0:1:0:0:
72,332,23850,1,2,0:0:0:0:
72,332,23967,2,0,L|84:268,1,48.9999985046387,2|2,0:0|0:0,0:0:0:0:
156,312,24436,2,0,L|164:368,1,48.9999985046387,10|2,0:0|0:0,0:0:0:0:
236,336,24905,6,0,P|264:296|268:244,1,97.9999970092774,8|0,0:1|0:0,0:0:0:0:
216,188,25608,1,8,0:1:0:0:
272,136,25842,1,2,0:0:0:0:
348,156,26076,2,0,L|344:208,1,48.9999985046387,0|8,0:0|0:0,0:0:0:0:
432,200,26545,1,2,0:0:0:0:
432,200,26662,1,2,0:0:0:0:
432,200,26780,6,0,P|456:164|448:68,1,125.999996154785,12|0,0:1|0:0,0:0:0:0:
384,43,27483,2,0,L|244:56,1,125.999996154785,10|0,0:1|0:0,0:0:0:0:
208,120,28186,1,0,1:2:0:0:
152,180,28420,6,0,P|165:241|176:303,1,125.999996154785,10|0,0:1|0:0,0:0:0:0:
255,332,29123,2,0,P|262:301|267:270,1,62.9999980773926,0|8,0:0|0:1,0:0:0:0:
344,244,29592,2,0,P|350:274|355:305,1,62.9999980773926,0|8,0:0|0:1,0:0:0:0:
436,324,30061,1,8,0:0:0:0:
496,272,30295,1,2,0:0:0:0:
496,272,30412,1,2,0:0:0:0:
496,272,30530,5,12,0:1:0:0:
444,204,30764,2,0,P|459:184|473:164,1,48.9999985046387,0|0,0:0|0:0,0:0:0:0:
428,96,31233,2,0,P|376:76|320:88,1,97.9999970092774,10|0,0:1|0:0,0:0:0:0:
292,152,31936,1,8,0:0:0:0:
216,116,32170,6,0,P|164:124|107:95,1,97.9999970092774,10|0,0:1|0:0,0:0:0:0:
68,172,32873,1,0,0:0:0:0:
128,232,33108,2,0,L|116:348,1,97.9999970092774,10|8,0:1|0:1,0:0:0:0:
216,360,33811,2,0,L|204:292,1,48.9999985046387,8|0,1:2|0:0,0:0:0:0:
264,248,34280,5,10,0:1:0:0:
336,292,34514,2,0,P|359:298|383:299,1,48.9999985046387,0|0,0:0|0:0,0:0:0:0:
455,264,34983,2,0,P|466:216|452:169,1,97.9999970092774,10|0,0:1|0:0,0:0:0:0:
380,128,35686,1,8,0:0:0:0:
300,148,35920,6,0,L|312:36,1,97.9999970092774,10|8,0:1|0:1,0:0:0:0:
228,68,36623,1,0,0:0:0:0:
168,128,36858,2,0,P|115:131|66:102,1,97.9999970092774,10|8,0:1|0:1,0:0:0:0:
12,164,37561,1,8,1:1:0:0:
12,248,37795,1,8,0:1:0:0:
92,272,38030,6,0,L|84:376,1,97.9999970092774,12|0,0:1|0:0,0:0:0:0:
168,364,38733,1,8,0:1:0:0:
216,296,38967,2,0,L|332:280,1,97.9999970092774,2|8,0:0|0:0,0:0:0:0:
376,228,39670,6,0,L|384:168,1,48.9999985046387,10|0,0:1|0:0,0:0:0:0:
320,124,40139,2,0,L|312:72,1,48.9999985046387,2|0,0:0|0:0,0:0:0:0:
216,64,40608,2,0,P|227:111|214:158,1,97.9999970092774,10|0,0:1|0:0,0:0:0:0:
120,168,41311,2,0,L|56:156,1,48.9999985046387,8|0,1:2|0:0,0:0:0:0:
36,232,41780,6,0,L|132:250,1,97.9999970092774,10|0,0:1|0:0,0:0:0:0:
204,292,42483,2,0,L|212:356,1,48.9999985046387,8|2,0:1|0:0,0:0:0:0:
292,316,42951,1,0,0:0:0:0:
368,280,43186,1,10,0:0:0:0:
448,300,43420,6,0,P|464:254|456:206,1,97.9999970092774,10|0,0:1|0:0,0:0:0:0:
496,132,44123,1,0,0:0:0:0:
496,132,44358,2,0,P|447:127|398:124,1,97.9999970092774,10|8,0:1|0:1,0:0:0:0:
376,44,45061,2,0,L|324:68,1,48.9999985046387,8|0,1:2|0:0,0:0:0:0:
264,108,45530,6,0,P|220:87|171:90,1,97.9999970092774,12|0,0:1|0:0,0:0:0:0:
156,188,46233,2,0,P|199:208|248:205,1,97.9999970092774,10|0,0:1|0:0,0:0:0:0:
328,176,46936,1,8,0:0:0:0:
400,220,47170,6,0,P|424:268|412:328,1,97.9999970092774,10|0,0:1|0:0,0:0:0:0:
320,356,47873,2,0,L|324:296,1,48.9999985046387,2|8,0:0|0:1,0:0:0:0:
240,292,48342,2,0,L|268:237,1,48.9999985046387,2|8,0:0|0:1,0:0:0:0:
192,200,48811,2,0,L|243:161,1,48.9999985046387,8|0,1:2|0:0,0:0:0:0:
192,95,49280,6,0,P|238:80|286:87,1,97.9999970092774,10|0,0:1|0:0,0:0:0:0:
360,128,49983,2,0,L|356:248,1,97.9999970092774,10|0,0:1|0:0,0:0:0:0:
440,212,50686,1,8,0:0:0:0:
420,291,50920,6,0,P|375:316|323:310,1,97.9999970092774,10|0,0:1|0:0,0:0:0:0:
272,256,51623,1,0,0:0:0:0:
196,292,51858,2,0,L|188:356,1,48.9999985046387,10|0,0:1|0:0,0:0:0:0:
200,212,52326,1,8,0:0:0:0:
200,212,52561,2,0,L|193:163,1,48.9999985046387,8|8,1:1|0:1,0:0:0:0:
204,80,53030,6,0,P|250:95|298:91,1,97.9999970092774,12|0,0:1|0:0,0:0:0:0:
380,76,53733,2,0,L|364:176,1,97.9999970092774,10|0,0:1|0:0,0:0:0:0:
432,220,54436,1,8,0:0:0:0:
376,280,54670,6,0,P|329:264|281:268,1,97.9999970092774,10|0,0:1|0:0,0:0:0:0:
216,324,55373,1,0,0:0:0:0:
144,284,55608,2,0,P|136:228|156:180,1,97.9999970092774,10|8,0:1|0:3,0:0:0:0:
252,136,56311,1,4,1:3:0:0:
180,72,56545,6,0,P|134:55|86:63,1,97.9999970092774,12|8,0:1|0:1,0:0:0:0:
176,200,57248,1,8,0:0:0:0:
264,144,57483,6,0,P|315:124|368:138,1,112,12|8,0:1|0:1,0:0:0:0:
264,272,58186,1,8,0:0:0:0:
168,220,58420,6,0,P|112:192|51:202,1,125.999996154785,12|8,0:1|0:1,0:0:0:0:
156,344,59123,1,8,0:0:0:0:
240,292,59358,5,12,0:1:0:0:
304,364,59592,1,8,0:0:0:0:
304,364,59709,1,8,0:0:0:0:
304,364,59826,2,0,L|380:348,1,62.9999980773926,8|8,0:1|0:1,0:0:0:0:
424,288,60295,1,8,0:0:0:0:
424,288,60412,1,8,0:0:0:0:
424,288,60530,6,0,P|432:244|424:208,1,70,14|0,0:1|0:0,0:0:0:0:
376,156,60998,1,8,0:0:0:0:
300,124,61233,2,0,L|228:140,1,70,2|8,0:0|0:1,0:0:0:0:
160,96,61701,2,0,L|80:80,1,70,10|8,0:1|0:0,0:0:0:0:
156,184,62170,6,0,P|177:226|172:320,1,140,10|8,0:1|0:1,0:0:0:0:
244,364,62873,1,8,0:0:0:0:
308,308,63108,2,0,P|369:320|448:284,1,140,10|8,0:1|0:1,0:0:0:0:
440,208,63811,2,0,L|444:136,1,70,8|0,1:2|0:0,0:0:0:0:
384,80,64280,5,12,0:1:0:0:
312,124,64514,1,0,0:0:0:0:
240,80,64748,1,8,0:0:0:0:
163,116,64983,2,0,P|150:148|150:183,1,70,2|8,0:0|0:1,0:0:0:0:
260,260,65451,2,0,P|260:225|246:192,1,70,10|8,0:1|0:0,0:0:0:0:
380,172,65920,6,0,P|352:235|364:303,1,140,12|8,0:1|0:1,0:0:0:0:
440,336,66623,1,8,0:0:0:0:
292,348,66858,2,0,L|148:360,1,140,12|8,0:1|0:1,0:0:0:0:
104,264,67561,2,0,L|173:271,1,70,8|0,1:2|0:0,0:0:0:0:
248,232,68030,6,0,P|272:184|252:96,1,140,12|8,0:1|0:0,0:0:0:0:
188,52,68733,2,0,B|260:72|260:32|325:51,1,140,10|8,0:1|0:1,0:0:0:0:
404,80,69436,1,8,0:0:0:0:
428,160,69670,6,0,L|448:316,1,140,10|8,0:1|0:1,0:0:0:0:
364,320,70373,1,8,0:0:0:0:
308,256,70608,2,0,B|224:244|224:244|201:266|200:292,1,140,10|8,0:1|0:1,0:0:0:0:
120,312,71311,1,8,1:2:0:0:
88,236,71545,1,2,0:0:0:0:
88,236,71662,1,2,0:0:0:0:
88,236,71780,6,0,L|80:160,1,70,12|0,0:1|0:0,0:0:0:0:
40,92,72248,1,8,0:0:0:0:
40,92,72483,2,0,P|96:128|167:122,1,140,12|8,0:1|0:1,0:0:0:0:
240,56,73186,1,8,0:0:0:0:
324,112,73420,6,0,L|308:204,1,70,12|0,0:1|0:0,0:0:0:0:
368,244,73889,1,8,0:0:0:0:
368,244,74006,1,8,0:0:0:0:
368,244,74123,1,8,0:3:0:0:
308,304,74358,1,8,0:1:0:0:
236,260,74592,6,0,B|148:245|148:245|132:293,1,140,8|0,0:0|1:2,0:0:0:0:
92,128,75530,6,0,P|124:142|159:141,1,70,14|0,0:1|0:0,0:0:0:0:
228,96,75998,1,8,0:0:0:0:
311,84,76233,2,0,P|343:70|378:71,1,70,2|8,0:0|0:1,0:0:0:0:
432,136,76701,2,0,P|427:170|409:200,1,70,10|8,0:1|0:0,0:0:0:0:
324,192,77170,6,0,L|344:340,1,140,12|8,0:1|0:1,0:0:0:0:
260,324,77873,1,8,0:0:0:0:
200,264,78108,2,0,P|128:276|68:236,1,140,12|8,0:1|0:1,0:0:0:0:
60,160,78811,1,8,1:2:0:0:
128,112,79045,1,8,0:0:0:0:
128,112,79162,1,8,0:0:0:0:
128,112,79280,6,0,L|136:32,1,70,12|0,0:1|0:0,0:0:0:0:
216,16,79748,1,8,0:0:0:0:
272,80,79983,2,0,L|352:68,1,70,2|8,0:0|0:1,0:0:0:0:
356,152,80451,2,0,L|286:162,1,70,10|8,0:1|0:0,0:0:0:0:
211,203,80920,6,0,P|167:256|173:324,1,140,12|8,0:1|0:1,0:0:0:0:
252,364,81623,1,8,0:0:0:0:
312,304,81858,2,0,B|384:288|384:324|450:304,1,140,12|8,0:1|0:1,0:0:0:0:
491,232,82561,2,0,P|496:197|483:165,1,70,0|0,1:2|3:2,0:0:0:0:
400,152,83030,6,0,L|248:132,1,140,12|8,0:1|0:0,0:0:0:0:
184,168,83733,2,0,B|198:218|170:260|170:260|184:284|201:292,1,140,10|8,0:1|0:1,0:0:0:0:
284,280,84436,1,8,0:0:0:0:
376,324,84670,6,0,P|399:272|380:192,1,140,10|8,0:1|0:1,0:0:0:0:
316,144,85373,1,8,0:0:0:0:
376,84,85608,2,0,L|444:72,1,70,8|0,0:1|0:0,0:0:0:0:
288,32,86076,1,8,1:2:0:0:
212,104,86311,1,8,1:2:0:0:
112,56,86545,6,0,B|91:147|91:147|136:180,1,140,12|8,0:1|0:1,0:0:0:0:
212,188,87248,2,0,L|228:328,1,140,8|8,0:0|0:1,0:0:0:0:
308,300,87951,1,8,0:1:0:0:
388,328,88186,1,8,0:0:0:0:
491,207,88420,6,0,P|424:197|368:236,1,140,12|12,0:1|0:1,0:0:0:0:
324,164,89123,1,12,0:1:0:0:
101,302,90061,1,8,0:0:0:0:
101,302,90178,1,8,0:0:0:0:
101,302,90295,1,4,0:3:0:0:
178,334,90530,5,12,0:1:0:0:
256,192,90647,12,8,92405,0:1:0:0:
340,48,98030,6,0,L|332:100,1,48.9999985046387,12|0,0:1|0:0,0:0:0:0:
360,176,98498,1,8,0:1:0:0:
432,220,98733,2,0,L|492:212,2,48.9999985046387,2|8|0,0:0|0:1|0:0,0:0:0:0:
376,284,99436,1,8,1:1:0:0:
295,263,99670,6,0,P|249:248|201:250,1,97.9999970092774,2|2,0:0|0:0,0:0:0:0:
132,324,100373,1,8,0:1:0:0:
180,260,100608,2,0,L|172:156,1,97.9999970092774,2|2,0:0|0:0,0:0:0:0:
236,108,101311,2,0,L|300:128,1,48.9999985046387,8|0,0:3|0:0,0:0:0:0:
356,160,101780,6,0,P|379:153|402:145,1,48.9999985046387,10|0,0:1|0:0,0:0:0:0:
484,156,102248,1,8,0:1:0:0:
496,240,102483,2,0,P|489:263|483:287,2,48.9999985046387,2|8|0,0:0|0:1|0:0,0:0:0:0:
412,248,103186,1,8,1:1:0:0:
340,292,103420,6,0,P|293:279|245:280,1,97.9999970092774,2|2,0:0|0:0,0:0:0:0:
184,228,104123,1,8,0:1:0:0:
244,172,104358,1,2,0:0:0:0:
244,172,104592,2,0,L|236:116,1,48.9999985046387,8|8,0:1|0:1,0:0:0:0:
322,148,105061,2,0,L|316:100,1,48.9999985046387,8|0,0:3|0:0,0:0:0:0:
416,128,105530,6,0,L|400:244,1,97.9999970092774,12|8,0:1|0:1,0:0:0:0:
412,308,106233,1,0,0:0:0:0:
412,308,106350,1,2,0:0:0:0:
412,308,106467,1,10,0:1:0:0:
332,332,106701,1,2,0:0:0:0:
264,284,106936,2,0,L|204:272,1,48.9999985046387,8|0,1:2|0:0,0:0:0:0:
140,308,107405,6,0,L|40:332,1,97.9999970092774,10|8,0:1|0:1,0:0:0:0:
64,164,108342,2,0,L|68:100,1,48.9999985046387,10|8,0:1|0:0,0:0:0:0:
148,156,108811,2,0,L|152:108,1,48.9999985046387,8|0,0:3|0:0,0:0:0:0:
215,55,109280,6,0,P|273:81|337:71,1,125.999996154785,12|8,0:1|0:1,0:0:0:0:
416,92,109983,2,0,B|445:83|468:95|468:95|483:169,1,125.999996154785,2|0,0:0|0:0,0:0:0:0:
444,248,110686,1,8,1:1:0:0:
364,296,110920,6,0,B|336:282|302:292|302:292|272:278|241:287,1,125.999996154785,2|0,0:0|0:0,0:0:0:0:
168,324,111623,2,0,L|156:248,1,62.9999980773926,10|0,0:1|0:0,0:0:0:0:
76,196,112092,2,0,L|66:258,1,62.9999980773926,10|0,0:1|0:0,0:0:0:0:
168,240,112561,1,10,0:1:0:0:
240,204,112795,1,8,0:0:0:0:
240,204,112912,1,8,0:0:0:0:
240,204,113030,6,0,L|344:196,1,97.9999970092774,12|8,0:1|0:1,0:0:0:0:
420,208,113733,2,0,L|408:276,2,48.9999985046387,2|8|0,0:0|0:1|0:0,0:0:0:0:
461,135,114436,1,8,1:1:0:0:
408,70,114670,6,0,P|364:46|304:58,1,97.9999970092774,2|2,0:0|0:0,0:0:0:0:
272,120,115373,1,8,0:1:0:0:
192,140,115608,2,0,L|80:120,1,97.9999970092774,2|2,0:0|0:0,0:0:0:0:
52,192,116311,2,0,L|64:252,1,48.9999985046387,8|0,0:0|0:0,0:0:0:0:
144,248,116780,6,0,L|132:308,1,48.9999985046387,10|0,0:1|0:0,0:0:0:0:
216,320,117248,1,8,0:1:0:0:
216,320,117483,2,0,L|225:271,1,48.9999985046387,2|8,0:0|0:1,0:0:0:0:
292,220,117951,1,2,0:0:0:0:
376,224,118186,1,8,1:1:0:0:
452,272,118420,6,0,P|480:224|468:152,1,125.999996154785,12|8,0:1|0:1,0:0:0:0:
416,48,119123,1,8,0:0:0:0:
344,92,119358,2,0,B|265:85|265:85|252:65|254:36,1,125.999996154785,12|8,0:1|0:3,0:0:0:0:
176,68,120061,2,0,P|164:97|166:128,1,62.9999980773926,8|4,0:3|0:3,0:0:0:0:
208,200,120530,6,0,P|145:209|83:218,1,125.999996154785,12|0,0:1|0:0,0:0:0:0:
92,300,121233,1,8,0:1:0:0:
171,319,121467,2,0,P|231:335|288:311,1,125.999996154785,10|0,0:0|0:0,0:0:0:0:
348,256,122170,6,0,L|353:193|358:130,1,125.999996154785,10|2,0:1|0:0,0:0:0:0:
292,80,122873,1,0,0:0:0:0:
224,123,123108,2,0,P|192:128|162:122,1,62.9999980773926,10|8,0:1|0:0,0:0:0:0:
124,192,123576,2,0,P|143:216|153:246,1,62.9999980773926,8|2,0:1|0:0,0:0:0:0:
264,224,124045,1,0,0:0:0:0:
264,224,124280,6,0,P|231:288|248:352,1,125.999996154785,12|0,0:1|0:0,0:0:0:0:
320,352,124983,1,8,0:1:0:0:
388,308,125217,2,0,L|404:380,1,62.9999980773926,8|0,0:0|0:0,0:0:0:0:
452,248,125686,1,0,0:0:0:0:
376,216,125920,6,0,L|250:202,1,125.999996154785,10|8,0:1|0:1,0:0:0:0:
188,148,126623,1,10,0:0:0:0:
120,195,126858,2,0,P|106:224|107:262,1,62.9999980773926,0|10,0:0|0:1,0:0:0:0:
208,344,127326,2,0,P|207:312|193:284,1,62.9999980773926,8|8,0:0|0:3,0:0:0:0:
248,224,127795,1,4,0:3:0:0:
312,276,128030,6,0,P|372:288|448:232,1,146.999995513916,12|10,0:1|0:1,0:0:0:0:
364,96,129201,2,0,L|432:84,1,48.9999985046387,0|8,0:0|0:0,0:0:0:0:
420,4,129670,6,0,L|323:20,1,97.9999970092774,10|0,0:1|0:0,0:0:0:0:
260,76,130373,2,0,L|248:128,1,48.9999985046387,2|8,0:0|0:1,0:0:0:0:
164,128,130842,2,0,L|188:184,1,48.9999985046387,2|8,0:0|0:1,0:0:0:0:
124,232,131311,2,0,L|172:260,1,48.9999985046387,8|0,1:2|0:0,0:0:0:0:
156,340,131780,6,0,P|220:344|260:328,1,97.9999970092774,10|0,0:1|0:0,0:0:0:0:
324,292,132483,2,0,L|336:188,1,97.9999970092774,10|0,0:1|0:0,0:0:0:0:
288,124,133186,1,8,0:0:0:0:
360,80,133420,6,0,L|465:66,1,97.9999970092774,10|0,0:1|0:0,0:0:0:0:
488,144,134123,1,0,0:0:0:0:
412,208,134358,2,0,P|400:248|412:308,1,97.9999970092774,10|8,0:1|0:0,0:0:0:0:
340,352,135061,1,12,0:1:0:0:
268,312,135295,1,0,0:0:0:0:
188,336,135530,6,0,P|133:346|63:284,1,146.999995513916,12|10,0:1|0:1,0:0:0:0:
132,140,136701,2,0,L|144:204,1,48.9999985046387,0|8,0:0|0:0,0:0:0:0:
220,164,137170,6,0,L|328:152,1,97.9999970092774,10|0,0:1|0:0,0:0:0:0:
384,204,137873,1,0,0:0:0:0:
460,172,138108,2,0,P|481:128|470:67,1,97.9999970092774,10|8,0:1|0:3,0:0:0:0:
376,24,138811,1,4,1:3:0:0:
304,88,139045,6,0,L|296:200,1,97.9999970092774,12|8,0:1|0:1,0:0:0:0:
264,324,139748,1,8,0:0:0:0:
184,276,139983,6,0,L|175:164,1,112,12|8,0:1|0:1,0:0:0:0:
128,20,140686,1,8,0:0:0:0:
44,68,140920,6,0,L|34:193,1,125.999996154785,12|8,0:1|0:1,0:0:0:0:
116,336,141623,1,8,0:0:0:0:
224,272,141858,5,12,0:1:0:0:
124,232,142092,2,0,L|128:188,2,31.4999990386963,8|8|8,0:0|0:0|0:1,0:0:0:0:
116,336,142561,1,8,0:1:0:0:
272,352,142795,1,8,0:0:0:0:
272,352,142912,1,8,0:0:0:0:
272,352,143030,6,0,L|358:341,1,70,14|0,0:1|0:0,0:0:0:0:
408,292,143498,1,8,0:0:0:0:
423,208,143733,2,0,P|436:175|429:141,1,70,2|8,0:0|0:1,0:0:0:0:
320,92,144201,2,0,P|313:125|325:158,1,70,10|8,0:1|0:0,0:0:0:0:
236,216,144670,6,0,P|174:184|106:197,1,140,10|8,0:1|0:1,0:0:0:0:
80,276,145373,1,8,0:0:0:0:
120,348,145608,2,0,P|189:339|259:332,1,140,10|8,0:1|0:1,0:0:0:0:
336,296,146311,2,0,P|372:312|416:304,1,70,8|0,1:2|0:0,0:0:0:0:
436,216,146780,5,12,0:1:0:0:
412,136,147014,1,0,0:0:0:0:
356,196,147248,1,8,0:0:0:0:
500,152,147483,2,0,L|510:82,1,70,2|8,0:0|0:1,0:0:0:0:
408,56,147951,2,0,L|397:125,1,70,10|8,0:1|0:0,0:0:0:0:
332,208,148420,6,0,B|292:196|292:196|280:88,1,140,12|8,0:1|0:1,0:0:0:0:
212,48,149123,1,8,0:0:0:0:
156,108,149358,2,0,B|128:100|94:114|94:114|60:96|19:102,1,140,12|8,0:1|0:1,0:0:0:0:
44,184,150061,1,8,1:2:0:0:
120,220,150295,1,0,0:0:0:0:
120,220,150412,1,0,0:0:0:0:
120,220,150530,6,0,L|92:368,1,140,12|8,0:1|0:0,0:0:0:0:
208,320,151233,2,0,P|244:340|344:328,1,140,10|8,0:1|0:1,0:0:0:0:
376,256,151936,1,8,0:0:0:0:
320,184,152170,6,0,P|389:172|458:161,1,140,10|8,0:1|0:1,0:0:0:0:
384,80,152873,1,8,0:0:0:0:
256,99,153108,2,0,P|214:150|218:224,1,140,10|8,0:1|0:1,0:0:0:0:
284,276,153811,1,8,1:2:0:0:
184,332,154045,1,2,0:0:0:0:
184,332,154162,1,2,0:0:0:0:
184,332,154280,6,0,L|92:320,1,70,12|0,0:1|0:0,0:0:0:0:
272,288,154748,1,8,0:0:0:0:
328,352,154983,2,0,B|393:333|393:373|465:353,1,140,12|8,0:1|0:1,0:0:0:0:
508,280,155686,1,8,0:0:0:0:
472,204,155920,6,0,L|380:200,1,70,12|0,0:1|0:0,0:0:0:0:
292,128,156389,1,8,0:0:0:0:
292,128,156506,1,8,0:0:0:0:
292,128,156623,1,8,0:3:0:0:
220,172,156858,1,8,0:1:0:0:
220,172,156975,1,0,0:0:0:0:
220,172,157092,6,0,B|202:145|209:107|209:107|190:143|153:150,1,140,8|0,0:0|1:2,0:0:0:0:
100,308,158030,5,14,0:1:0:0:
180,280,158264,1,0,0:0:0:0:
248,328,158498,1,8,0:0:0:0:
324,292,158733,2,0,P|328:257|334:222,1,70,2|8,0:0|0:1,0:0:0:0:
244,184,159201,2,0,P|239:218|233:253,1,70,10|8,0:1|0:0,0:0:0:0:
112,272,159670,6,0,P|120:202|131:133,1,140,12|8,0:1|0:1,0:0:0:0:
204,92,160373,1,8,0:0:0:0:
284,120,160608,2,0,B|280:152|292:169|292:169|380:156,1,140,12|8,0:1|0:1,0:0:0:0:
436,216,161311,1,8,1:2:0:0:
392,288,161545,1,8,0:0:0:0:
392,288,161662,1,8,0:0:0:0:
392,288,161780,6,0,P|359:274|325:273,1,70,12|0,0:1|0:0,0:0:0:0:
248,236,162248,1,8,0:0:0:0:
176,280,162483,2,0,L|188:360,1,70,2|8,0:0|0:1,0:0:0:0:
72,340,162951,2,0,L|61:270,1,70,10|8,0:1|0:0,0:0:0:0:
136,164,163420,6,0,B|96:161|67:179|67:179|39:156|4:156,1,140,12|8,0:1|0:1,0:0:0:0:
12,72,164123,1,8,0:0:0:0:
84,32,164358,2,0,L|228:48,1,140,12|8,0:1|0:1,0:0:0:0:
292,96,165061,2,0,P|308:140|292:180,1,70,0|0,1:2|3:2,0:0:0:0:
224,196,165530,6,0,P|198:262|221:325,1,140,12|8,0:1|0:0,0:0:0:0:
304,328,166233,2,0,B|356:340|395:310|395:310|416:319|424:342,1,140,10|8,0:1|0:1,0:0:0:0:
492,288,166936,1,8,0:0:0:0:
444,220,167170,6,0,L|464:80,1,140,10|8,0:1|0:1,0:0:0:0:
380,92,167873,1,8,0:0:0:0:
360,172,168108,2,0,L|272:192,1,70,8|0,0:1|0:0,0:0:0:0:
216,120,168576,1,8,1:2:0:0:
164,220,168811,1,8,1:2:0:0:
56,172,169045,6,0,P|48:116|100:40,1,140,12|8,0:1|0:1,0:0:0:0:
196,16,169748,2,0,L|216:164,1,140,8|8,0:0|0:1,0:0:0:0:
284,216,170451,1,8,0:1:0:0:
228,284,170686,1,8,0:0:0:0:
363,302,170920,6,0,P|378:235|368:165,1,140,12|10,0:1|0:1,0:0:0:0:
416,92,171623,1,12,0:1:0:0:
344,48,171858,2,0,L|269:33,1,70,0|0,0:0|0:0,0:0:0:0:
220,96,172326,2,0,L|148:112,1,70,0|8,0:0|0:0,0:0:0:0:
151,111,172678,1,8,0:0:0:0:
151,111,172795,1,4,0:3:0:0:
64,57,173030,5,12,0:1:0:0:
256,192,173147,12,8,174905,0:1:0:0:
96,88,179826,6,0,L|103:44,2,35,2|2|2,0:0|0:0|0:0,0:0:0:0:
48,164,180295,1,2,0:0:0:0:
112,228,180530,2,0,P|145:217|179:208,1,70,2|2,0:0|0:0,0:0:0:0:
268,228,180998,1,2,0:0:0:0:
244,316,181233,1,8,0:1:0:0:
363,304,181467,6,0,P|378:273|376:238,1,70,12|8,0:1|0:1,0:0:0:0:
328,168,181935,2,0,L|404:156,1,70,8|2,0:0|0:0,0:0:0:0:
397,157,182287,1,2,0:0:0:0:
397,157,182404,1,8,0:1:0:0:
384,76,182638,2,0,L|314:86,1,70,10|8,0:1|0:0,0:0:0:0:
236,56,183107,6,0,P|176:32|88:56,1,140,10|8,0:1|0:1,0:0:0:0:
40,100,183810,2,0,L|56:172,1,70,8|2,0:0|0:0,0:0:0:0:
44,252,184279,2,0,L|28:332,1,70,8|8,0:1|0:1,0:0:0:0:
112,348,184748,2,0,L|125:279,1,70,8|2,1:2|0:0,0:0:0:0:
188,224,185217,6,0,L|260:216,1,70,10|8,0:1|0:1,0:0:0:0:
316,276,185685,2,0,P|336:304|388:320,1,70,10|0,0:0|0:0,0:0:0:0:
444,288,186154,2,0,P|458:256|455:221,1,70,10|8,0:1|0:1,0:0:0:0:
396,164,186623,1,10,0:0:0:0:
396,164,186740,1,2,0:0:0:0:
396,164,186857,6,0,P|368:120|384:28,1,140,12|8,0:1|0:0,0:0:0:0:
404,16,187443,1,8,0:0:0:0:
404,16,187560,1,4,0:3:0:0:
296,32,187795,2,0,B|258:28|228:47|228:47|199:25|163:29,1,140,12|12,0:1|0:1,0:0:0:0:
88,68,188498,2,0,P|72:116|88:152,1,70,8|0,1:2|3:2,0:0:0:0:
152,168,188967,6,0,L|136:248,1,70,12|8,0:1|0:1,0:0:0:0:
196,296,189435,1,12,0:0:0:0:
284,272,189670,1,0,0:0:0:0:
348,216,189904,2,0,L|428:232,1,70,10|8,0:1|0:1,0:0:0:0:
368,304,190373,1,8,0:0:0:0:
268,260,190607,6,0,P|259:190|252:120,1,140,12|8,0:1|0:1,0:0:0:0:
192,60,191310,1,8,0:0:0:0:
144,128,191545,2,0,B|143:161|124:180|124:180|43:157,1,140,2|8,0:0|0:1,0:0:0:0:
44,240,192248,2,0,L|56:320,1,70,8|0,1:2|0:0,0:0:0:0:
128,348,192717,6,0,P|168:356|204:340,1,70,12|8,0:1|0:1,0:0:0:0:
244,280,193185,1,10,0:0:0:0:
320,312,193420,1,2,0:0:0:0:
320,312,193537,1,2,0:0:0:0:
320,312,193654,2,0,L|332:380,1,70,8|8,0:1|0:1,0:0:0:0:
404,332,194123,1,8,0:0:0:0:
480,355,194357,6,0,P|511:294|497:227,1,140,12|8,0:1|0:1,0:0:0:0:
456,156,195060,1,8,0:0:0:0:
376,188,195295,2,0,L|224:168,1,140,12|8,0:1|0:3,0:0:0:0:
172,220,195998,1,8,1:3:0:0:
96,184,196232,1,4,0:3:0:0:
24,224,196467,5,8,1:1:0:0:
216,100,203263,5,8,0:3:0:0:
184,212,203498,1,4,0:3:0:0:
204,228,203967,6,0,L|360:200,1,146.999995513916,12|8,0:1|0:1,0:0:0:0:
404,264,204904,1,10,0:0:0:0:
380,64,205607,5,8,0:1:0:0:
312,116,205842,1,12,0:1:0:0:
240,72,206076,2,0,L|132:64,1,97.9999970092774,10|8,0:0|0:1,0:0:0:0:
84,124,206779,1,8,0:0:0:0:
108,204,207013,2,0,L|164:192,1,48.9999985046387,8|8,0:0|0:3,0:0:0:0:
240,196,207482,1,8,0:3:0:0:
240,196,207599,1,8,0:3:0:0:
240,196,207717,6,0,L|224:260,1,62.9999980773926,12|0,0:1|0:0,0:0:0:0:
264,328,208185,1,8,0:1:0:0:
340,300,208420,2,0,L|402:292,1,62.9999980773926,4|8,0:0|0:1,0:0:0:0:
428,204,208888,2,0,L|365:211,1,62.9999980773926,2|8,0:0|0:0,0:0:0:0:
312,132,209357,6,0,L|374:124,1,62.9999980773926,4|8,0:0|0:1,0:0:0:0:
336,48,209826,1,8,0:0:0:0:
256,60,210060,1,8,0:3:0:0:
208,124,210295,1,8,0:3:0:0:
208,124,210412,1,8,0:3:0:0:
208,124,210529,6,0,B|120:136|120:136|101:104,1,125.999996154785,4|10,0:3|0:1,0:0:0:0:
84,284,211467,6,0,P|120:264|164:268,1,70,12|0,0:1|0:0,0:0:0:0:
216,312,211935,1,8,0:0:0:0:
288,268,212170,1,2,0:0:0:0:
288,268,212287,1,2,0:0:0:0:
288,268,212404,1,0,0:0:0:0:
368,296,212638,2,0,L|356:368,1,70,10|8,0:1|0:0,0:0:0:0:
452,331,213107,6,0,P|484:271|473:204,1,140,10|8,0:1|0:1,0:0:0:0:
400,112,213810,1,8,0:0:0:0:
336,168,214045,2,0,P|292:180|192:124,1,140,10|8,0:1|0:1,0:0:0:0:
176,68,214748,2,0,P|174:33|189:2,1,70,8|0,1:2|0:0,0:0:0:0:
68,64,215217,5,12,0:1:0:0:
108,136,215451,2,0,P|123:167|121:201,1,70,0|8,0:0|0:0,0:0:0:0:
152,280,215920,2,0,L|137:348,1,70,2|0,0:0|0:0,0:0:0:0:
220,368,216388,2,0,L|234:299,1,70,10|8,0:1|0:0,0:0:0:0:
300,244,216857,6,0,B|365:225|365:265|437:245,1,140,12|8,0:1|0:1,0:0:0:0:
484,176,217560,1,8,0:0:0:0:
400,164,217795,2,0,L|418:25,1,140,12|8,0:1|0:1,0:0:0:0:
336,48,218498,2,0,L|256:64,1,70,8|0,1:2|0:0,0:0:0:0:
200,112,218967,6,0,P|140:116|72:56,1,140,12|0,0:1|0:0,0:0:0:0:
104,192,219670,2,0,P|107:261|111:331,1,140,10|8,0:1|0:1,0:0:0:0:
196,264,220373,1,8,0:0:0:0:
276,292,220607,6,0,B|280:316|296:336|296:336|387:323,1,140,10|8,0:1|0:1,0:0:0:0:
432,252,221310,1,8,0:0:0:0:
404,171,221545,2,0,P|416:103|374:38,1,140,10|8,0:1|0:1,0:0:0:0:
304,72,222248,1,8,1:2:0:0:
224,44,222482,1,2,0:0:0:0:
224,44,222599,1,2,0:0:0:0:
224,44,222717,6,0,L|140:40,1,70,12|0,0:1|0:0,0:0:0:0:
312,88,223185,1,8,0:0:0:0:
240,140,223420,2,0,B|236:180|250:209|250:209|232:240|235:275,1,140,12|8,0:1|0:1,0:0:0:0:
292,348,224123,1,8,0:0:0:0:
416,292,224357,6,0,P|384:277|349:278,1,70,12|0,0:1|0:0,0:0:0:0:
367,195,224826,2,0,P|385:198|402:200,2,35,8|8|8,0:0|0:0|0:3,0:0:0:0:
312,132,225295,1,8,0:1:0:0:
312,132,225412,1,8,0:0:0:0:
312,132,225529,6,0,L|216:156,1,70,12|8,0:0|0:1,0:0:0:0:
240,52,225998,1,0,1:2:0:0:
144,88,226232,1,10,0:0:0:0:
144,88,226349,1,10,0:0:0:0:
144,88,226467,6,0,P|128:136|140:172,1,70,14|0,0:1|0:0,0:0:0:0:
168,228,226935,1,8,0:0:0:0:
248,256,227170,1,2,0:0:0:0:
248,256,227287,1,2,0:0:0:0:
248,256,227404,2,0,P|262:287|260:321,1,70,0|10,0:0|0:1,0:0:0:0:
200,380,227873,1,8,0:0:0:0:
156,308,228107,6,0,L|16:323,1,140,12|8,0:1|0:1,0:0:0:0:
12,208,228810,1,8,0:0:0:0:
92,188,229045,2,0,B|72:116|116:116|94:50,1,140,12|8,0:1|0:1,0:0:0:0:
168,12,229748,1,8,1:2:0:0:
232,64,229982,1,8,0:0:0:0:
232,64,230099,1,8,0:0:0:0:
232,64,230217,6,0,L|220:144,1,70,12|0,0:1|0:0,0:0:0:0:
272,200,230685,1,8,0:0:0:0:
220,264,230920,2,0,L|140:280,1,70,2|8,0:0|0:1,0:0:0:0:
220,352,231388,1,10,0:1:0:0:
220,352,231506,1,8,0:0:0:0:
220,352,231623,1,8,0:3:0:0:
295,319,231857,6,0,P|353:357|421:347,1,140,12|8,0:1|0:1,0:0:0:0:
480,288,232560,1,8,0:0:0:0:
440,212,232795,2,0,B|441:169|428:144|428:144|443:109|436:75,1,140,12|8,0:1|0:1,0:0:0:0:
364,32,233498,2,0,L|288:24,1,70,0|0,1:2|3:2,0:0:0:0:
228,72,233967,6,0,P|188:112|196:216,1,140,12|8,0:1|0:0,0:0:0:0:
248,260,234670,2,0,L|96:284,1,140,12|8,0:1|0:1,0:0:0:0:
208,348,235373,1,8,0:0:0:0:
316,340,235607,6,0,B|364:324|364:324|376:220,1,140,12|8,0:1|0:1,0:0:0:0:
328,160,236310,1,8,0:0:0:0:
384,96,236545,2,0,L|464:84,1,70,12|0,0:1|0:0,0:0:0:0:
304,32,237013,1,8,1:2:0:0:
232,108,237248,1,8,1:2:0:0:
140,56,237482,6,0,P|77:26|9:36,1,140,12|8,0:1|0:1,0:0:0:0:
8,120,238185,2,0,P|22:151|23:186,1,70,8|0,0:0|0:0,0:0:0:0:
96,232,238654,1,8,0:1:0:0:
96,232,238771,1,0,0:0:0:0:
96,232,238888,1,8,0:1:0:0:
48,304,239123,1,8,0:0:0:0:
124,344,239357,6,0,P|193:335|263:328,1,140,12|12,0:1|0:1,0:0:0:0:
184,252,240060,1,12,0:1:0:0:
408,128,240998,1,8,0:0:0:0:
408,128,241115,1,8,0:0:0:0:
408,128,241232,1,8,0:3:0:0:
344,76,241467,6,0,L|264:64,1,62.9999980773926,12|8,0:1|0:1,0:0:0:0:
224,124,241935,2,0,L|148:144,1,62.9999980773926,8|0,0:0|0:0,0:0:0:0:
88,104,242404,1,8,0:1:0:0:
60,180,242638,1,8,0:1:0:0:
8,116,242873,1,8,0:0:0:0:
79,191,243107,6,0,P|98:251|85:312,1,125.999996154785,12|8,0:1|0:1,0:0:0:0:
160,348,243810,2,0,L|240:332,1,62.9999980773926,8|0,0:0|0:0,0:0:0:0:
276,276,244279,2,0,L|337:288,1,62.9999980773926,10|8,0:1|0:1,0:0:0:0:
188,240,244748,2,0,L|126:252,1,62.9999980773926,10|0,0:0|0:0,0:0:0:0:
68,196,245217,6,0,P|56:167|59:135,1,62.9999980773926,12|8,0:1|0:1,0:0:0:0:
120,80,245685,2,0,P|150:84|176:102,1,62.9999980773926,8|2,0:0|0:0,0:0:0:0:
228,164,246154,1,10,0:1:0:0:
288,112,246388,2,0,L|360:100,1,62.9999980773926,8|8,0:1|0:0,0:0:0:0:
240,184,246857,6,0,P|224:220|228:316,1,125.999996154785,12|8,0:1|0:1,0:0:0:0:
300,340,247560,2,0,P|352:340|376:328,1,62.9999980773926,8|0,0:0|0:0,0:0:0:0:
384,256,248029,2,0,L|448:244,1,62.9999980773926,10|8,0:1|0:1,0:0:0:0:
428,164,248498,2,0,L|366:175,1,62.9999980773926,10|8,0:0|0:0,0:0:0:0:
304,124,248967,6,0,L|228:108,1,62.9999980773926,12|8,0:1|0:1,0:0:0:0:
200,40,249435,2,0,P|157:62|72:44,1,125.999996154785,12|10,0:0|0:1,0:0:0:0:
24,108,250138,2,0,L|36:180,1,62.9999980773926,8|8,0:1|0:0,0:0:0:0:
108,204,250607,6,0,P|73:255|70:317,1,125.999996154785,12|8,0:1|0:1,0:0:0:0:
131,375,251310,2,0,P|163:375|193:364,1,62.9999980773926,8|0,0:0|0:0,0:0:0:0:
252,308,251779,2,0,P|280:322|307:337,1,62.9999980773926,10|8,0:1|0:1,0:0:0:0:
372,288,252248,2,0,L|380:318|388:348,1,62.9999980773926,10|0,0:0|0:0,0:0:0:0:
460,296,252717,5,12,0:1:0:0:
512,232,252951,1,8,0:1:0:0:
463,164,253185,2,0,P|473:134|469:103,1,62.9999980773926,8|0,0:0|0:0,0:0:0:0:
408,48,253654,2,0,L|336:64,1,62.9999980773926,10|8,0:1|0:1,0:0:0:0:
296,128,254123,1,10,0:0:0:0:
236,72,254357,6,0,L|101:54,1,125.999996154785,12|8,0:1|0:1,0:0:0:0:
68,124,255060,2,0,L|84:192,1,62.9999980773926,8|0,0:0|0:0,0:0:0:0:
164,192,255529,1,10,0:1:0:0:
128,268,255763,1,8,0:1:0:0:
208,288,255998,2,0,L|192:372,1,62.9999980773926,10|8,0:0|0:3,0:0:0:0:
276,336,256467,6,0,P|348:344|412:328,1,125.999996154785,12|2,0:1|0:0,0:0:0:0:
460,276,257170,2,0,L|471:214,1,62.9999980773926,2|2,0:0|0:0,0:0:0:0:
444,128,257638,1,8,0:3:0:0:
364,192,257873,1,4,0:3:0:0:
264,112,258107,5,4,0:0:0:0:
256,192,258342,12,0,263732,0:0:0:0:
