osu file format v14

[General]
AudioFilename: audio.mp3
AudioLeadIn: 0
PreviewTime: 51227
Countdown: 0
SampleSet: Soft
StackLeniency: 0.7
Mode: 3
LetterboxInBreaks: 0
SpecialStyle: 0
WidescreenStoryboard: 1

[Editor]
DistanceSpacing: 0.8
BeatDivisor: 4
GridSize: 4
TimelineZoom: 3.399999

[Metadata]
Title:Kawaru Mirai (TV Size)
TitleUnicode:カワルミライ (TV Size)
Artist:ChouCho
ArtistUnicode:ChouCho
Creator:Scotty
Version:Easy
Source:神様のメモ帳
Tags:ちょうちょ it's the only neet thing to do kami-sama no memo-chou kamisama memo chou notebook of god heaven's memo pad opening lantis anime japanese jpop j-pop keppsado
BeatmapID:2509073
BeatmapSetID:1204942

[Difficulty]
HPDrainRate:7
CircleSize:4
OverallDifficulty:6.5
ApproachRate:10
SliderMultiplier:1.4
SliderTickRate:1

[Events]
//Background and Video events
0,0,"a.jpg",0,0
//Break Periods
//Storyboard Layer 0 (Background)
//Storyboard Layer 1 (Fail)
//Storyboard Layer 2 (Pass)
//Storyboard Layer 3 (Foreground)
//Storyboard Layer 4 (Overlay)
//Storyboard Sound Samples

[TimingPoints]
299,359.281437125748,4,2,1,50,1,0
51855,-100,4,2,1,50,0,1
62813,-100,4,2,1,50,0,0
63532,-100,4,2,1,50,0,1
75029,-100,4,2,1,50,0,0

[HitObjects]
192,192,299,5,0,0:0:0:0:
448,192,837,1,0,0:0:0:0:
320,192,1376,1,0,0:0:0:0:
64,192,1736,1,0,0:0:0:0:
448,192,2095,1,0,0:0:0:0:
192,192,2275,1,0,0:0:0:0:
64,192,2634,1,0,0:0:0:0:
320,192,2813,1,0,0:0:0:0:
448,192,3173,1,0,0:0:0:0:
192,192,3352,1,0,0:0:0:0:
320,192,3712,1,0,0:0:0:0:
192,192,4071,1,0,0:0:0:0:
64,192,4430,128,0,5688:0:0:0:0:
320,192,5688,1,0,0:0:0:50:clap_wave.wav
64,192,6047,1,2,0:0:0:0:
448,192,6047,128,4,6586:0:0:0:0:
192,192,6586,128,0,7125:0:0:0:0:
64,192,7125,128,2,7843:0:0:0:0:
192,192,8203,1,2,0:0:0:0:
320,192,8382,128,0,8921:0:0:0:0:
448,192,8921,128,2,9281:0:0:0:0:
192,192,9281,128,2,9640:0:0:0:0:
64,192,9640,128,2,9999:0:0:0:0:
448,192,9999,128,2,10358:0:0:0:0:
192,192,10358,128,2,11077:0:0:0:0:
320,192,11077,128,2,11796:0:0:0:0:
64,192,11796,128,2,12514:0:0:0:0:
320,192,12514,128,2,13233:0:0:0:0:
192,192,13233,128,2,13951:0:0:0:0:
448,192,13951,128,2,14670:0:0:0:0:
64,192,14670,128,2,15927:0:0:0:0:
320,192,15927,1,0,0:0:0:0:
64,192,16287,1,0,0:0:0:0:
320,192,16466,128,2,16825:0:0:0:0:
192,192,16825,128,2,17185:0:0:0:0:
64,192,17185,128,2,17544:0:0:0:0:
448,192,17544,1,2,0:0:0:0:
320,192,17544,1,4,0:0:0:0:
192,192,18981,1,2,0:0:0:0:
320,192,19700,1,2,0:0:0:0:
64,192,20418,1,2,0:0:0:0:
448,192,22394,1,0,0:0:0:0:
320,192,23293,1,2,0:0:0:0:
192,192,24730,1,2,0:0:0:0:
320,192,25448,1,2,0:0:0:0:
448,192,26167,1,2,0:0:0:0:
64,192,27604,1,2,0:0:0:0:
192,192,28682,128,2,29041:0:0:0:0:
448,192,29041,1,2,0:0:0:0:
64,192,29400,1,2,0:0:0:0:
320,192,29760,1,2,0:0:0:0:
64,192,30119,1,2,0:0:0:0:
192,192,30119,1,8,0:0:0:0:
448,192,30478,1,2,0:0:0:0:
64,192,30837,1,2,0:0:0:0:
192,192,31197,1,2,0:0:0:0:
192,192,31556,1,2,0:0:0:0:
448,192,31556,1,8,0:0:0:0:
320,192,31915,1,2,0:0:0:0:
64,192,32275,1,2,0:0:0:0:
448,192,32634,1,2,0:0:0:0:
64,192,32993,1,2,0:0:0:0:
192,192,32993,1,8,0:0:0:0:
320,192,33352,1,2,0:0:0:0:
64,192,33712,1,2,0:0:0:0:
448,192,34071,1,2,0:0:0:0:
448,192,34430,1,2,0:0:0:0:
320,192,34430,1,8,0:0:0:0:
192,192,34790,1,2,0:0:0:0:
64,192,35149,1,2,0:0:0:0:
448,192,35508,1,2,0:0:0:0:
320,192,35867,1,2,0:0:0:0:
64,192,35867,1,8,0:0:0:0:
448,192,36227,1,2,0:0:0:0:
320,192,36586,1,2,0:0:0:0:
64,192,36945,1,2,0:0:0:0:
64,192,37304,1,2,0:0:0:0:
192,192,37304,1,8,0:0:0:0:
320,192,37664,1,2,0:0:0:0:
192,192,38023,1,2,0:0:0:0:
448,192,38382,1,2,0:0:0:0:
64,192,38742,1,2,0:0:0:0:
320,192,38742,1,8,0:0:0:0:
448,192,39101,1,2,0:0:0:0:
192,192,39460,128,2,39819:0:0:0:0:
448,192,39819,128,2,40179:0:0:0:0:
64,192,40179,128,2,40538:0:0:0:0:
192,192,40179,1,8,0:0:0:0:
320,192,40538,1,2,0:0:0:0:
448,192,40538,1,4,0:0:0:0:
64,192,40897,1,2,0:0:0:0:
192,192,41257,128,2,41616:0:0:0:0:
448,192,41616,1,2,0:0:0:0:
320,192,41975,128,2,42334:0:0:0:0:
64,192,42334,1,2,0:0:0:0:
448,192,42694,128,2,43053:0:0:0:0:
192,192,43053,1,2,0:0:0:0:
64,192,43412,128,2,43772:0:0:0:0:
448,192,43772,1,2,0:0:0:0:
192,192,44131,1,2,0:0:0:0:
320,192,44490,1,2,0:0:0:0:
64,192,44849,1,2,0:0:0:0:
448,192,45209,1,2,0:0:0:0:
192,192,45568,1,2,0:0:0:0:
320,192,45927,1,2,0:0:0:0:
64,192,46287,128,2,47724:0:0:0:0:
448,192,46646,1,2,0:0:0:0:
320,192,47005,1,2,0:0:0:0:
448,192,47364,1,2,0:0:0:0:
320,192,47724,128,2,48801:0:0:0:0:
192,192,48083,1,2,0:0:0:0:
64,192,48442,1,2,0:0:0:0:
192,192,48801,1,2,0:0:0:0:
448,192,48981,128,2,49879:0:0:0:0:
192,192,49520,1,2,0:0:0:0:
64,192,49879,1,2,0:0:0:0:
192,192,50059,1,0,0:0:0:0:
320,192,50239,1,2,0:0:0:0:
64,192,50418,1,2,0:0:0:0:
448,192,50418,1,4,0:0:0:0:
192,192,50778,1,2,0:0:0:0:
64,192,50957,1,2,0:0:0:0:
320,192,50957,1,4,0:0:0:0:
448,192,51316,1,0,0:0:0:0:
64,192,51496,128,0,51855:0:0:0:0:
320,192,51855,1,2,0:0:0:0:
448,192,51855,1,4,0:0:0:0:
192,192,52215,1,0,0:0:0:70:hihat.wav
448,192,52394,1,10,0:0:0:0:
320,192,52754,1,2,0:0:0:0:
64,192,53113,1,10,0:0:0:0:
448,192,53293,1,0,0:0:0:70:hihat.wav
192,192,53472,1,2,0:0:0:0:
448,192,53652,1,0,0:0:0:70:hihat.wav
64,192,53831,1,10,0:0:0:0:
320,192,54191,1,2,0:0:0:0:
192,192,54550,1,10,0:0:0:0:
448,192,54909,1,2,0:0:0:0:
320,192,55089,1,0,0:0:0:70:hihat.wav
64,192,55269,1,10,0:0:0:0:
448,192,55628,1,2,0:0:0:0:
320,192,55987,1,10,0:0:0:0:
192,192,56167,1,0,0:0:0:70:hihat.wav
448,192,56346,1,2,0:0:0:0:
192,192,56526,1,0,0:0:0:70:hihat.wav
64,192,56706,1,10,0:0:0:0:
320,192,57065,1,2,0:0:0:0:
448,192,57424,1,10,0:0:0:0:
64,192,57784,1,2,0:0:0:0:
320,192,57963,1,0,0:0:0:70:hihat.wav
192,192,58143,1,10,0:0:0:0:
448,192,58502,1,2,0:0:0:0:
192,192,58861,1,10,0:0:0:0:
64,192,59041,1,0,0:0:0:70:hihat.wav
448,192,59221,1,2,0:0:0:0:
64,192,59400,1,0,0:0:0:70:hihat.wav
320,192,59580,1,10,0:0:0:0:
192,192,59939,128,2,60298:0:0:0:0:
448,192,60298,128,10,60658:0:0:0:0:
192,192,60658,1,2,0:0:0:0:
64,192,60658,128,4,61017:0:0:0:0:
320,192,61017,1,10,0:0:0:0:
192,192,61197,128,0,61556:0:0:0:0:
448,192,61556,128,0,61915:0:0:0:0:
192,192,61915,128,0,62275:0:0:0:70:hihat.wav
320,192,62275,1,0,0:0:0:70:hihat.wav
448,192,62813,128,2,63532:0:0:0:0:
320,192,62813,1,4,0:0:0:0:
64,192,63532,1,2,0:0:0:0:
192,192,63532,1,4,0:0:0:0:
320,192,63712,1,0,0:0:0:70:hihat.wav
448,192,63891,1,10,0:0:0:0:
192,192,64251,1,2,0:0:0:0:
64,192,64610,1,10,0:0:0:0:
448,192,64790,1,0,0:0:0:70:hihat.wav
192,192,64969,1,2,0:0:0:0:
448,192,65149,1,0,0:0:0:70:hihat.wav
320,192,65328,1,10,0:0:0:0:
64,192,65688,1,2,0:0:0:0:
448,192,66047,1,10,0:0:0:0:
192,192,66406,1,2,0:0:0:0:
320,192,66586,1,0,0:0:0:70:hihat.wav
64,192,66766,1,10,0:0:0:0:
448,192,67125,1,2,0:0:0:0:
64,192,67484,1,10,0:0:0:0:
192,192,67664,1,0,0:0:0:70:hihat.wav
448,192,67843,1,2,0:0:0:0:
192,192,68023,1,0,0:0:0:70:hihat.wav
320,192,68203,1,10,0:0:0:0:
64,192,68562,1,2,0:0:0:0:
448,192,68921,1,10,0:0:0:0:
192,192,69281,1,2,0:0:0:0:
64,192,69460,1,0,0:0:0:70:hihat.wav
320,192,69640,1,10,0:0:0:0:
448,192,69999,1,2,0:0:0:0:
192,192,70358,1,10,0:0:0:0:
320,192,70538,1,0,0:0:0:70:hihat.wav
64,192,70718,1,2,0:0:0:0:
320,192,70897,1,0,0:0:0:70:hihat.wav
192,192,71077,1,10,0:0:0:0:
448,192,71436,1,2,0:0:0:0:
64,192,71796,1,10,0:0:0:0:
192,192,72155,128,2,72873:0:0:0:0:
320,192,72514,1,10,0:0:0:0:
64,192,72873,128,2,73592:0:0:0:0:
448,192,73233,1,10,0:0:0:0:
320,192,73592,128,2,74310:0:0:0:0:
64,192,73951,1,10,0:0:0:0:
192,192,74310,1,2,0:0:0:0:
448,192,74670,128,10,75029:0:0:0:0:
64,192,75029,1,2,0:0:0:0:
192,192,75029,1,4,0:0:0:0:
320,192,75388,1,0,0:0:0:30:clap_wave.wav
448,192,75568,1,2,0:0:0:0:
64,192,75568,1,4,0:0:0:0:
64,192,76107,128,2,77903:0:0:0:0:
192,192,76107,1,4,0:0:0:0:
448,192,77903,1,2,0:0:0:0:
320,192,77903,1,4,0:0:0:0:
192,192,78263,1,0,0:0:0:30:clap_wave.wav
64,192,78442,1,4,0:0:0:0:
448,192,78442,1,2,0:0:0:0:
448,192,78981,128,2,79700:0:0:0:0:
320,192,78981,1,4,0:0:0:0:
64,192,79700,1,0,0:0:0:0:
320,192,80059,128,2,80418:0:0:0:0:
192,192,80418,1,0,0:0:0:50:clap_wave.wav
448,192,80778,1,2,0:0:0:0:
64,192,80778,1,4,0:0:0:0:
320,192,81137,1,2,0:0:0:0:
192,192,81496,1,2,0:0:0:0:
448,192,81855,1,2,0:0:0:0:
64,192,82215,1,2,0:0:0:0:
320,192,82574,1,2,0:0:0:0:
192,192,82933,1,2,0:0:0:0:
448,192,83293,1,2,0:0:0:0:
64,192,83652,1,2,0:0:0:0:
192,192,83652,1,4,0:0:0:0:
320,192,84370,1,2,0:0:0:0:
192,192,84550,1,2,0:0:0:0:
64,192,84909,1,2,0:0:0:0:
448,192,85089,128,2,86526:0:0:0:0:
192,192,86526,1,0,0:0:0:0:
64,192,87065,1,0,0:0:0:0:
448,192,87694,1,0,0:0:0:0:
