osu file format v14

[General]
AudioFilename: yunocchi.mp3
AudioLeadIn: 0
PreviewTime: 56553
Countdown: 0
SampleSet: Soft
StackLeniency: 0.7
Mode: 0
LetterboxInBreaks: 0
WidescreenStoryboard: 0

[Editor]
DistanceSpacing: 1.2
BeatDivisor: 4
GridSize: 8
TimelineZoom: 1.2

[Metadata]
Title:Happy Fate
TitleUnicode:Happy Fate
Artist:ChouCho
ArtistUnicode:ChouCho
Creator:Delis
Version:Hard
Source:未来日記
Tags:Mirai Nikki Gasai Yuno ちょうちょ
BeatmapID:888376
BeatmapSetID:408807

[Difficulty]
HPDrainRate:5
CircleSize:4
OverallDifficulty:6
ApproachRate:7
SliderMultiplier:1.4
SliderTickRate:1

[Events]
//Background and Video events
0,0,"1.jpg",0,0
//Break Periods
2,87586,93153
2,187586,196486
2,214252,223153
//Storyboard Layer 0 (Background)
//Storyboard Layer 1 (Fail)
//Storyboard Layer 2 (Pass)
//Storyboard Layer 3 (Foreground)
//Storyboard Sound Samples

[TimingPoints]
720,416.666666666667,4,2,1,50,1,0
2490,-100,4,2,1,10,0,0
2699,-100,4,2,1,50,0,0
5511,-100,4,2,1,60,0,0
6449,-100,4,2,2,60,0,0
6657,-100,4,2,1,60,0,0
27152,-100,4,2,2,60,0,0
27204,-100,4,2,1,60,0,0
33949,-100,4,2,2,60,0,0
34157,-100,4,2,1,60,0,0
40407,-100,4,2,2,60,0,0
40615,-100,4,2,1,60,0,0
47386,-125,4,2,1,60,0,0
54053,-100,4,2,1,70,0,0
56657,-100,4,3,0,70,0,0
57074,-100,4,2,1,70,0,0
60720,-100,4,2,1,80,0,0
87386,-100,4,2,2,60,0,0
94157,-100,4,2,1,60,0,0
102074,-100,4,2,2,40,0,0
102282,-100,4,2,1,60,0,0
106657,-100,4,3,0,60,0,0
106970,-100,4,2,1,60,0,0
120720,-125,4,2,1,60,0,0
123949,-125,4,2,2,60,0,0
124157,-125,4,2,1,60,0,0
127386,-100,4,2,1,70,0,0
128324,-100,4,3,0,70,0,0
128740,-100,4,2,1,70,0,0
130615,-100,4,2,1,50,0,0
130824,-100,4,2,1,55,0,0
131032,-100,4,2,1,60,0,0
131240,-100,4,2,1,65,0,0
131449,-100,4,2,1,70,0,0
134053,-100,4,2,1,80,0,0
161136,-100,4,1,1,60,0,0
186553,-100,4,2,1,70,0,0
187282,-100,4,2,2,75,0,0
197386,-100,4,2,1,40,0,0
197803,-100,4,2,1,60,0,0
198845,-100,4,2,1,60,0,0
200720,-100,4,2,1,80,0,0
213220,-100,4,2,1,70,0,0
213740,-100,4,2,1,60,0,0
224053,-100,4,2,1,70,0,0
226553,-100,4,2,1,60,0,0
227386,-100,4,2,2,55,0,0
230720,-100,4,2,2,10,0,0

[Colours]
Combo1 : 21,234,149
Combo2 : 111,255,255
Combo3 : 255,142,255
Combo4 : 248,216,67

[HitObjects]
184,104,720,6,0,L|200:256,1,140,2|0,0:0|3:0,0:0:0:0:
328,136,1553,2,0,L|304:304,1,140,0|0,0:0|3:0,0:0:0:0:
248,336,2178,2,0,B|176:376|88:312|112:224,1,210,2|0,0:0|3:0,0:0:0:0:
192,96,3220,2,0,B|208:136|200:176,2,70,0|2|0,0:0|0:0|3:0,0:0:0:0:
248,32,3845,6,0,B|320:80|328:24|408:72,1,140,2|2,0:0|0:0,0:0:0:0:
456,104,4470,2,0,L|464:192,1,70,0|2,3:0|0:0,0:0:0:0:
384,320,5095,2,0,B|344:312|304:336,1,70,2|2,0:0|0:0,0:0:0:0:
232,344,5511,6,0,B|176:288|208:200|208:200,1,140,8|0,0:3|0:0,0:0:0:0:
204,213,6136,2,0,B|232:192|240:152,1,70,8|0,0:0|0:0,0:0:0:0:
152,144,6553,2,0,B|160:104|136:72,2,70,4|0|8,0:0|0:0|0:0,0:0:0:0:
48,144,7178,6,0,B|8:208|40:296,1,140,4|0,1:0|0:0,0:0:0:0:
112,312,7803,2,0,B|168:320|200:336,1,70,8|2,0:0|0:0,0:0:0:0:
248,280,8220,2,0,B|304:272|336:264,2,70,0|2|8,0:0|0:0|0:0,0:0:0:0:
192,216,8845,2,0,B|152:160|176:80,1,140,2|2,0:0|0:0,0:0:0:0:
256,56,9470,2,0,L|344:64,1,70,8|2,0:0|0:0,0:0:0:0:
384,128,9886,2,0,B|424:176|416:232|360:272,1,140,2|8,0:0|0:0,0:0:0:0:
256,296,10720,6,0,B|232:224|256:136,1,140,2|8,1:1|0:0,0:0:0:0:
250,157,11553,1,0,0:0:0:0:
288,80,11761,1,2,0:0:0:0:
200,80,11970,1,8,0:0:0:0:
160,152,12178,2,0,B|192:224|144:296,1,140,2|0,0:0|0:0,0:0:0:0:
80,328,12803,2,0,B|64:288|72:240,1,70,8|0,0:0|0:0,0:0:0:0:
72,176,13220,2,0,B|80:136|72:104,1,70,2|0,0:0|0:0,0:0:0:0:
136,48,13636,1,8,0:0:0:0:
216,72,13845,5,0,0:0:0:0:
216,72,14053,2,0,B|304:64|352:144,2,140,2|8|0,1:0|0:0|0:0,0:0:0:0:
192,152,15095,2,0,B|184:200|192:240,1,70,2|8,0:0|0:0,0:0:0:0:
272,320,15511,2,0,B|280:248|272:168,1,140,2|0,0:0|0:0,0:0:0:0:
360,192,16136,2,0,B|352:256|352:288,1,70,8|2,0:0|0:0,0:0:0:0:
440,232,16553,2,0,B|456:184|448:136,1,70
432,80,16970,1,8,0:0:0:0:
352,40,17178,5,2,0:0:0:0:
352,40,17282,1,0,0:0:0:0:
352,40,17386,1,2,1:1:0:0:
264,64,17595,2,0,B|256:104|264:160,1,70,2|8,1:2|0:0,0:0:0:0:
288,216,18011,1,2,1:2:0:0:
144,344,18428,1,2,1:2:0:0:
72,296,18636,1,8,0:0:0:0:
88,216,18845,6,0,B|40:160|64:64,1,140,2|0,1:2|1:0,0:0:0:0:
59,83,19470,1,4,1:2:0:0:
128,40,19678,1,2,0:0:0:0:
208,56,19886,2,0,B|216:96|208:128,1,70,2|0,0:0|0:0,0:0:0:0:
288,96,20303,2,0,B|344:40|440:64,1,140,8|4,1:2|0:0,0:0:0:0:
376,224,21136,6,0,L|304:208,1,70,2|0,3:2|0:0,0:0:0:0:
240,160,21553,2,0,B|200:216|224:296,1,140,2|2,3:2|3:2,0:0:0:0:
144,272,22178,2,0,L|160:344,1,70,2|0,0:2|3:0,0:0:0:0:
72,328,22595,1,2,0:2:0:0:
8,272,22803,1,0,3:0:0:0:
72,216,23011,2,0,L|120:144,1,70,2|0,0:2|3:0,0:0:0:0:
184,64,23428,2,0,B|200:104|192:144,1,70,2|0,0:2|3:0,0:0:0:0:
216,216,23845,2,0,B|280:176|376:200,1,140,2|0,0:2|0:0,0:0:0:0:
432,224,24470,5,2,3:2:0:0:
432,224,24678,1,0,0:0:0:0:
424,144,24886,2,0,B|408:112|416:64,2,70,2|2|0,3:2|0:2|3:0,0:0:0:0:
352,184,25511,2,0,B|304:240|320:336,1,140,2|2,0:2|0:2,0:0:0:0:
317,315,26136,1,0,3:0:0:0:
232,304,26345,2,0,B|200:280|160:272,1,70,2|0,0:2|0:0,0:0:0:0:
88,256,26761,2,0,B|104:216|96:176,1,70,2|0,0:2|3:0,0:0:0:0:
88,104,27178,1,4,0:2:0:0:
336,96,27803,6,0,B|304:168|320:256,1,140,2|2,3:2|3:2,0:0:0:0:
392,272,28428,2,0,L|408:344,1,70,0|0,0:2|3:2,0:0:0:0:
320,344,28845,2,0,B|240:376|176:296,1,140,2|2,0:2|0:2,0:2:0:0:
152,240,29470,1,0,3:0:0:0:
136,152,29678,1,2,0:2:0:0:
224,136,29886,2,0,L|232:48,2,70,2|2|2,3:2|0:2|3:2,0:0:0:0:
304,144,30511,5,2,0:0:0:0:
304,144,30720,2,0,B|328:216|280:296,1,140,2|0,3:2|3:0,0:0:0:0:
288,360,31345,1,2,3:2:0:0:
136,288,31761,1,2,0:2:0:0:
88,224,31970,1,0,3:2:0:0:
152,168,32178,2,0,B|192:88|144:32,1,140,2|2,0:2|0:2,0:0:0:0:
80,88,32803,2,0,B|64:128|56:176,1,70,0|2,3:0|0:2,0:0:0:0:
88,232,33220,1,2,3:2:0:0:
312,264,33636,1,4,0:0:0:0:
416,88,34053,1,4,1:2:0:0:
256,80,34470,6,0,B|248:128|256:168,1,70,8|0,0:0|0:0,0:0:0:0:
288,224,34886,1,0,3:0:0:0:
216,272,35095,2,0,B|200:240|208:176,1,70,2|8,0:0|3:2,0:0:0:0:
128,224,35511,2,0,B|80:280|0:264,1,140,2|2,0:0|3:2,0:0:0:0:
32,184,36136,1,8,3:2:0:0:
104,144,36345,2,0,B|120:96|112:48,1,70,2|0,3:2|0:0,0:0:0:0:
192,104,36761,2,0,B|224:128|272:136,1,70,2|8,3:2|3:2,0:0:0:0:
320,192,37178,2,0,B|272:208|256:272|280:328,1,140,2|0,0:0|0:0,0:0:0:0:
352,344,37803,6,0,B|400:344|432:320,1,70,8|0,0:0|0:0,0:0:0:0:
480,264,38220,1,0,3:0:0:0:
432,192,38428,1,2,0:0:0:0:
352,176,38636,1,8,3:2:0:0:
280,216,38845,2,0,B|200:240|144:160,1,140,2|2,3:2|3:2,0:0:0:0:
120,104,39470,1,8,0:0:0:0:
120,104,39678,1,2,0:0:0:0:
40,248,40095,2,0,B|32:304|40:344,1,70,2|8,3:2|3:2,0:0:0:0:
112,288,40511,2,0,B|128:192|104:136,1,140,4|0,0:0|0:0,0:0:0:0:
96,64,41136,6,0,B|152:56|192:40,1,70,8|0,0:0|0:0,0:0:0:0:
232,96,41553,2,0,B|288:88|328:112,1,70,2|2,3:2|0:0,0:0:0:0:
376,128,41970,1,8,0:0:0:0:
416,200,42178,1,2,3:2:0:0:
296,320,42595,1,2,0:0:0:0:
296,320,42803,2,0,B|288:272|296:224,1,70,8|2,0:0|0:0,0:0:0:0:
296,168,43220,1,0,3:0:0:0:
240,104,43428,2,0,B|200:120|168:144,1,70,2|8,0:0|0:0,0:0:0:0:
112,192,43845,5,2,3:2:0:0:
112,192,44053,2,0,B|48:184|24:128|40:80,2,140,0|8|0,3:0|0:0|3:0,0:0:0:0:
192,224,45095,2,0,B|200:272|184:312,1,70,2|8,3:2|0:2,0:0:0:0:
116,328,45511,2,0,B|84:272|116:176,1,140,2|0,3:2|3:0,0:0:0:0:
160,128,46136,1,4,0:0:0:0:
320,64,46553,1,2,3:3:0:0:
440,184,46970,1,4,3:0:0:0:
312,232,47386,6,0,B|256:224|200:256,1,112,4|0,0:0|0:0,0:0:0:0:
144,304,48011,1,2,0:0:0:0:
48,184,48428,2,0,B|40:144|48:104,2,56,0|2|0,0:0|0:0|0:0,0:0:0:0:
120,208,49053,2,0,B|168:192|176:224|240:208,1,112,2|0,0:0|0:0,0:0:0:0:
304,184,49678,1,2,0:0:0:0:
424,288,50095,6,0,B|376:296|344:288,1,56,0|0,0:0|0:0,0:0:0:0:
288,272,50511,1,0,0:0:0:0:
264,200,50720,2,0,B|248:136|280:72,1,112,2|0,0:0|0:0,0:0:0:0:
344,56,51345,1,2,0:0:0:0:
456,168,51761,1,2,0:0:0:0:
344,280,52178,2,0,B|288:224|184:248,1,168,4|2,0:0|0:0,0:0:0:0:
64,344,53220,1,2,0:0:0:0:
16,192,53636,1,8,0:3:0:0:
168,64,54053,6,0,B|184:136|168:208,1,140,4|8,0:0|0:0,0:0:0:0:
256,192,54678,2,0,B|312:144|400:168,1,140,0|0,3:0|1:0,0:0:0:0:
296,336,55511,2,0,B|248:360|192:328|184:264,1,140,4|0,0:0|1:0,0:0:0:0:
208,200,56136,2,0,B|224:152|208:104,1,70,0|2,0:0|3:2,3:2:0:0:
160,64,56553,1,2,1:2:0:0:
80,88,56761,1,2,3:2:0:0:
136,152,56970,1,2,3:2:0:0:
312,56,57386,6,0,B|344:120|320:192,1,140,4|0,0:0|0:0,0:0:0:0:
272,256,58011,2,0,B|248:288|256:336,1,70,0|0,0:0|1:0,0:0:0:0:
320,376,58428,2,0,B|344:344|336:296,1,70,0|0,0:0|1:0,0:0:0:0:
184,240,58845,2,0,B|112:208|136:104,1,140,4|8,0:0|1:0,0:0:0:0:
216,64,59470,1,8,1:0:0:0:
304,112,59678,1,0,1:0:0:0:
304,112,59782,1,0,1:0:0:0:
304,112,59886,2,0,L|312:192,1,70,0|2,3:0|3:2,0:0:0:0:
328,296,60303,5,4,0:0:0:0:
328,296,60720,2,0,B|264:328|248:288|176:328,2,140,4|8|0,0:0|0:0|0:0,0:0:0:0:
408,272,61761,2,0,B|424:232|416:184,1,70,2|8,0:0|0:0,0:0:0:0:
376,128,62178,2,0,B|312:88|224:112,1,140,2|0,0:0|0:0,0:0:0:0:
160,128,62803,2,0,L|104:192,2,70,8|0|2,0:0|0:0|0:0,0:0:0:0:
216,288,63636,6,0,B|200:240|208:208,1,70,10|0,0:0|0:0,0:0:0:0:
288,240,64053,2,0,L|440:264,1,140,2|8,0:0|0:0,0:0:0:0:
424,136,64678,2,0,L|270:157,1,140,2|2,0:0|0:0,0:0:0:0:
216,200,65303,1,8,0:0:0:0:
168,272,65511,2,0,B|104:216|136:128,1,140,2|2,0:0|0:0,0:0:0:0:
168,72,66136,1,8,0:0:0:0:
312,160,66553,6,0,B|320:208|312:240,1,70,2|0,0:0|0:0,0:0:0:0:
248,280,66970,1,8,0:0:0:0:
224,200,67178,1,2,0:0:0:0:
240,120,67386,1,4,0:0:0:0:
80,64,67803,1,8,0:0:0:0:
24,128,68011,2,0,B|0:200|32:280,1,140,2|2,0:0|0:0,0:0:0:0:
88,328,68636,2,0,L|176:336,1,70,8|2,0:0|0:0,0:0:0:0:
240,344,69053,1,0,0:0:0:0:
352,224,69470,6,0,B|368:184|360:144,1,70,8|0,0:0|0:0,0:0:0:0:
288,112,69886,2,0,B|296:152|280:200,1,70,2|0,0:0|0:0,0:0:0:0:
208,216,70303,2,0,B|200:168|216:136,1,70,8|0,0:0|0:0,0:0:0:0:
176,72,70720,2,0,B|128:48|72:72|56:120,2,140,2|8|2,0:0|0:0|0:0,0:0:0:0:
256,48,71761,2,0,L|328:72,1,70,0|8,0:0|0:0,0:0:0:0:
400,96,72178,5,2,0:0:0:0:
448,168,72386,1,0,0:0:0:0:
384,216,72595,1,0,1:0:0:0:
384,216,72803,1,12,0:0:0:0:
216,224,73220,2,0,B|152:176|64:216,1,140,2|8,0:0|1:2,0:0:0:0:
224,120,74053,6,0,L|208:40,2,70,4|0|8,0:0|0:0|0:0,0:0:0:0:
304,128,74678,2,0,L|320:208,2,70,2|0|0,0:0|0:0|0:0,0:0:0:0:
360,64,75303,1,8,0:0:0:0:
424,112,75511,2,0,B|456:184|408:264,1,140,2|0,0:0|0:0,0:0:0:0:
344,288,76136,2,0,B|288:296|256:312,1,70,8|0,0:0|0:0,0:0:0:0:
200,344,76553,1,2,0:0:0:0:
104,208,76970,6,0,B|96:160|104:112,1,70,8|0,0:0|0:0,0:0:0:0:
184,160,77386,2,0,P|256:184|336:176,1,140,4|8,0:0|0:0,0:0:0:0:
384,120,78011,2,0,P|312:96|232:104,1,140,4|0,0:0|0:0,0:0:0:0:
184,48,78636,1,8,0:0:0:0:
104,64,78845,2,0,B|64:56|16:64,2,70,4|0|0,0:0|0:0|0:0,0:0:0:0:
136,144,79470,1,12,0:0:0:0:
184,216,79678,1,0,0:0:0:0:
264,192,79886,6,0,B|256:136|264:104,1,70,2|0,0:0|0:0,0:0:0:0:
336,152,80303,2,0,L|352:240,1,70,8|0,0:0|0:0,0:0:0:0:
312,296,80720,2,0,B|256:344|168:328,1,140,4|8,0:0|0:0,0:0:0:0:
104,288,81345,1,2,0:0:0:0:
56,216,81553,1,0,0:0:0:0:
96,144,81761,2,0,B|112:104|104:64,1,70,2|8,0:0|0:0,0:0:0:0:
176,160,82178,2,0,B|208:184|256:176,1,70,2|0,0:0|0:0,0:0:0:0:
304,112,82595,2,0,B|264:88|208:96,1,70,2|8,0:0|0:0,0:0:0:0:
336,192,83011,2,0,B|376:264|344:344,1,140,2|2,0:0|0:0,0:0:0:0:
264,336,83636,2,0,B|216:328|176:352,1,70,8|2,0:0|0:0,0:0:0:0:
112,312,84053,5,4,0:0:0:0:
104,232,84261,1,0,3:0:0:0:
184,216,84470,1,8,0:0:0:0:
176,136,84678,1,2,0:2:0:0:
344,112,85095,1,2,0:2:0:0:
368,280,85511,1,2,2:2:0:0:
200,296,85928,5,0,1:0:0:0:
184,216,86136,1,4,1:2:0:0:
264,200,86345,1,0,3:0:0:0:
280,280,86553,1,2,0:2:0:0:
96,152,86970,1,8,0:0:0:0:
304,80,87386,1,4,0:0:0:0:
256,192,94053,5,4,0:0:0:0:
96,256,94470,2,0,B|88:216|96:168,1,70,2|0,0:0|0:0,0:0:0:0:
104,104,94886,1,0,0:0:0:0:
272,80,95303,1,2,0:0:0:0:
352,112,95511,2,0,B|368:192|352:256,1,140,0|0,0:0|0:0,0:0:0:0:
288,312,96136,1,2,0:0:0:0:
224,256,96345,2,0,B|176:240|136:248,1,70,0|0,0:0|0:0,0:0:0:0:
104,312,96761,2,0,B|144:328|184:320,1,70,0|2,0:0|0:0,0:0:0:0:
224,256,97178,2,0,B|208:184|240:176|224:104,1,140,0|0,0:0|0:0,0:0:0:0:
216,32,97803,5,2,0:0:0:0:
376,88,98220,2,0,B|360:168|416:248,1,140,0|2,0:0|0:0,0:0:0:0:
360,296,98845,2,0,B|280:272|208:320,1,140,0|0,0:0|0:0,0:0:0:0:
152,360,99470,1,2,0:0:0:0:
96,296,99678,2,0,L|72:144,1,140,0|0,0:0|0:0,0:0:0:0:
96,80,100303,1,2,0:0:0:0:
176,72,100511,2,0,B|256:56|312:120,1,140,0|0,0:0|0:0,0:0:0:0:
336,192,101136,6,0,L|328:280,2,70,2|0|0,0:0|0:0|0:0,0:0:0:0:
408,232,101761,1,0,0:0:0:0:
392,312,101970,1,2,0:0:0:0:
320,352,102178,2,0,B|240:368|192:288,1,140,4|0,0:0|0:0,0:0:0:0:
192,216,102803,2,0,L|200:128,1,70,2|0,0:0|0:0,0:0:0:0:
120,176,103220,2,0,L|88:256,1,70,0|0,0:0|0:0,0:0:0:0:
40,176,103636,5,2,0:0:0:0:
40,176,103845,2,0,B|-8:112|16:32,1,140,2|0,0:0|0:0,0:0:0:0:
96,40,104470,1,2,0:0:0:0:
96,40,104678,1,0,0:0:0:0:
240,128,105095,2,0,B|248:176|240:200,1,70,2|2,0:0|0:0,0:0:0:0:
256,280,105511,2,0,B|288:312|336:296,2,70,0|0|8,0:0|0:0|0:3,0:0:0:0:
176,264,106136,2,0,P|120:280|96:304,1,70,0|0,0:0|0:0,0:0:0:0:
40,240,106553,1,0,1:0:0:0:
24,160,106761,5,0,3:0:0:0:
24,160,106865,1,0,3:0:0:0:
24,160,106970,1,8,0:2:0:0:
280,104,107386,1,4,3:2:0:0:
136,48,107803,6,0,B|120:96|128:136,1,70,8|0,3:2|0:0,0:0:0:0:
176,184,108220,1,2,3:2:0:0:
216,256,108428,1,2,0:0:0:0:
184,336,108636,1,8,3:2:0:0:
104,344,108845,2,0,L|16:320,2,70,2|0|2,0:0|3:0|0:0,0:0:0:0:
104,256,109470,1,0,3:0:0:0:
48,192,109678,2,0,B|32:160|40:104,1,70,2|0,0:0|3:0,0:0:0:0:
104,80,110095,2,0,B|120:128|112:168,1,70,2|8,0:0|3:2,0:0:0:0:
192,176,110511,2,0,L|344:216,1,140,2|0,0:0|0:0,0:0:0:0:
408,232,111136,5,8,3:2:0:0:
408,232,111345,1,2,0:0:0:0:
408,232,111553,2,0,B|424:200|416:152,2,70,0|2|8,3:0|0:0|3:2,0:0:0:0:
336,272,112178,2,0,L|248:288,1,70,2|0,0:0|3:0,0:0:0:0:
216,216,112595,2,0,L|200:120,1,70,2|8,0:0|3:2,0:0:0:0:
128,176,113011,2,0,B|80:192|56:208,1,70,2|0,0:0|3:0,0:0:0:0:
128,256,113428,2,0,B|111:299|104:336,1,70,2|8,0:0|3:2,0:0:0:0:
192,320,113845,2,0,B|272:344|328:272,1,140,2|0,0:0|0:0,0:0:0:0:
344,200,114470,6,0,B|288:144|320:48,2,140,8|0|8,3:2|3:2|3:2,0:0:0:0:
424,232,115511,1,2,0:0:0:0:
248,184,115928,2,0,B|200:168|160:176,1,70,2|8,0:0|3:2,0:0:0:0:
96,200,116345,1,0,0:0:0:0:
48,128,116553,2,0,B|40:88|56:48,2,70,2|0|8,3:2|0:0|0:2,0:0:0:0:
8,200,117178,6,0,B|40:264|16:344,1,140,4|0,0:0|0:0,0:0:0:0:
96,360,117803,1,8,3:2:0:0:
168,312,118011,1,2,0:0:0:0:
304,208,118428,1,2,0:0:0:0:
384,200,118636,1,8,3:2:0:0:
432,272,118845,2,0,B|416:320|352:344|296:312,1,140,2|8,0:0|1:0,0:0:0:0:
264,256,119470,1,4,1:2:0:0:
264,256,119678,1,2,0:0:0:0:
224,88,120095,6,0,B|176:80|144:64,2,70,2|4|2,0:0|0:3|0:0,0:0:0:0:
288,128,120720,2,0,B|352:120|408:168,1,112,4|0,0:0|0:0,0:0:0:0:
456,200,121345,1,2,0:0:0:0:
328,288,121761,2,0,B|328:336|320:368,2,56,0|2|0,0:0|0:0|0:0,0:0:0:0:
248,304,122386,2,0,B|192:296|136:320,1,112,2|0,0:0|0:0,0:0:0:0:
72,360,123011,1,2,0:0:0:0:
128,216,123428,6,0,B|136:168|128:144,1,56,0|2,0:0|0:0,0:0:0:0:
120,80,123845,1,0,0:0:0:0:
184,40,124053,2,0,B|240:64|296:56,1,112,4|0,1:2|0:0,0:0:0:0:
368,40,124678,1,2,0:0:0:0:
480,152,125095,1,2,0:0:0:0:
344,232,125511,2,0,B|296:208|224:216,1,112,4|0,0:0|0:0,0:0:0:0:
160,240,126136,2,0,L|168:320,1,56,2|0,0:0|0:0,0:0:0:0:
88,272,126553,2,0,L|80:352,2,56,2|0|8,0:0|0:0|0:3,0:0:0:0:
104,112,127386,5,4,0:0:0:0:
104,112,127595,1,0,1:0:0:0:
184,128,127803,1,8,0:0:0:0:
184,128,128011,2,0,L|192:48,1,70,0|4,0:0|0:3,0:0:0:0:
264,96,128428,2,0,L|272:152,2,35,0|0|8,3:0|3:0|0:3,0:0:0:0:
344,88,128845,2,0,B|376:160|336:240,1,140,4|0,0:0|0:0,0:0:0:0:
296,296,129470,2,0,L|256:352,2,35,8|0|0,0:0|1:0|0:0,0:0:0:0:
232,240,129886,2,0,B|192:232|152:248,2,70,0|0|8,1:0|1:0|1:2,0:0:0:0:
280,168,130511,1,0,0:0:0:0:
224,104,130720,6,0,L|192:40,1,70,4|0,1:0|1:0,0:0:0:0:
136,104,131136,2,0,L|64:72,1,70,0|0,1:0|1:0,0:0:0:0:
80,160,131553,2,0,B|56:208|72:272,1,105,0|0,1:0|1:0,0:0:0:0:
80,280,131970,1,0,0:0:0:0:
160,296,132178,2,0,B|184:256|248:240|288:272,1,140,2|0,1:0|1:0,0:0:0:0:
360,312,132803,1,8,1:2:0:0:
408,240,133011,1,0,1:0:0:0:
408,240,133115,1,0,1:0:0:0:
408,240,133220,2,0,B|424:200|408:144,1,70,2|0,1:2|0:0,0:0:0:0:
312,136,133636,5,4,0:0:0:0:
312,136,134053,2,0,B|256:192|168:168,2,140,4|4|0,0:0|0:0|0:0,0:0:0:0:
360,208,135095,2,0,B|336:248|344:296,1,70,2|8,0:0|0:0,0:0:0:0:
264,312,135511,2,0,B|176:336|128:256,1,140,2|0,0:0|0:0,0:0:0:0:
144,192,136136,2,0,B|160:152|152:112,1,70,8|0,0:0|0:0,0:0:0:0:
128,40,136553,1,2,0:0:0:0:
288,88,136970,6,0,L|376:72,1,70,8|0,0:0|0:0,0:0:0:0:
400,144,137386,2,0,B|320:160|280:240,1,140,4|8,0:0|0:0,0:0:0:0:
256,304,138011,2,0,B|288:224|232:160,1,140,2|2,0:0|0:0,0:0:0:0:
176,120,138636,1,8,0:0:0:0:
241,171,138845,2,0,B|312:128|304:32,1,140,2|0,0:0|0:0,0:0:0:0:
392,64,139470,2,0,L|384:152,1,70,8|0,0:0|0:0,0:0:0:0:
376,216,139886,6,0,B|416:224|472:208,1,70,2|0,0:0|0:0,0:0:0:0:
368,296,140303,2,0,B|376:336|360:392,1,70,8|2,0:0|0:0,0:0:0:0:
288,336,140720,1,6,0:0:0:0:
288,336,141136,1,8,0:0:0:0:
224,280,141345,2,0,B|168:232|80:248,1,140,2|0,0:0|0:0,0:0:0:0:
72,168,141970,2,0,B|88:120|80:80,1,70,8|2,0:0|0:0,0:0:0:0:
168,80,142386,2,0,B|208:96|248:88,1,70,0|0,0:0|0:0,0:0:0:0:
320,112,142803,6,0,B|384:64|472:96,2,140,8|2|8,0:0|0:0|0:0,0:0:0:0:
256,320,144053,2,0,B|240:256|272:240|256:168,1,140,2|8,0:0|0:0,0:0:0:0:
176,208,144678,1,0,0:0:0:0:
128,280,144886,2,0,B|120:328|128:360,2,70,0|0|8,0:0|0:0|0:0,0:0:0:0:
56,240,145511,6,0,L|48:160,1,70,2|0,0:0|0:0,0:0:0:0:
72,88,145928,1,0,1:0:0:0:
152,56,146136,2,0,L|248:72,1,70,8|0,1:2|0:0,0:0:0:0:
328,88,146553,2,0,L|256:128,1,70,2|0,0:2|1:0,0:0:0:0:
200,168,146970,2,0,L|224:264,1,70,8|0,1:2|0:0,0:0:0:0:
320,312,147386,6,0,B|256:360|176:328,1,140,4|8,0:0|0:0,0:0:0:0:
176,248,148011,2,0,B|240:200|320:232,1,140,2|0,0:0|0:0,0:0:0:0:
384,264,148636,1,8,0:0:0:0:
440,200,148845,2,0,B|464:128|408:48,1,140,2|0,0:0|0:0,0:0:0:0:
336,80,149470,2,0,B|296:96|256:88,1,70,8|0,0:0|0:0,0:0:0:0:
184,72,149886,2,0,B|144:56|96:72,1,70,2|0,0:0|0:0,0:0:0:0:
40,112,150303,5,8,0:0:0:0:
104,168,150511,1,0,0:0:0:0:
72,248,150720,2,0,B|112:320|208:304,1,140,4|8,0:0|0:0,0:0:0:0:
264,264,151345,2,0,B|328:224|416:248,1,140,4|4,0:0|0:0,0:0:0:0:
432,168,151970,1,8,0:0:0:0:
376,104,152178,2,0,L|352:32,1,70,4|0,0:0|0:0,0:0:0:0:
288,96,152595,1,0,0:0:0:0:
208,128,152803,2,0,B|168:136|120:112,1,70,12|0,0:0|0:0,0:0:0:0:
72,176,153220,6,0,B|32:248|88:320,1,140,2|8,0:0|0:0,0:0:0:0:
144,248,153845,1,2,0:0:0:0:
144,248,154053,2,0,L|168:320,2,70,4|0|8,0:0|0:0|0:0,0:0:0:0:
224,216,154678,2,0,B|360:168|384:160,1,140,2|2,0:0|0:0,0:0:0:0:
432,136,155303,1,8,0:0:0:0:
360,96,155511,2,0,B|336:56|352:8,1,70,2|0,0:0|3:0,0:0:0:0:
272,64,155928,2,0,B|232:88|184:80,1,70,2|8,0:0|0:0,0:0:0:0:
120,96,156345,2,0,B|64:152|96:256,1,140,2|2,0:0|0:0,0:0:0:0:
160,272,156970,2,0,B|176:312|168:360,1,70,8|2,0:0|0:0,0:0:0:0:
256,336,157386,5,4,0:0:0:0:
336,304,157595,1,2,3:2:0:0:
368,224,157803,1,8,0:0:0:0:
344,144,158011,1,4,0:0:0:0:
192,72,158428,2,0,B|176:112|184:160,1,70,2|0,1:0|0:0,0:0:0:0:
216,216,158845,2,0,L|192:296,1,70,4|0,0:0|0:0,0:0:0:0:
120,320,159261,1,0,1:0:0:0:
120,320,159470,2,0,B|96:288|104:232,1,70,4|0,1:2|0:0,0:0:0:0:
120,168,159886,2,0,P|208:160|288:152,1,140,2|2,0:0|0:0,0:0:0:0:
344,144,160511,6,0,B|400:200|352:296,1,140,4|0,0:0|0:0,0:0:0:0:
320,344,161136,1,4,0:0:0:0:
192,232,161553,2,0,L|176:136,2,70,0|2|8,0:0|0:0|0:2,0:0:0:0:
40,312,162386,2,0,B|88:256|72:160,1,140,0|8,0:0|1:2,0:0:0:0:
200,64,163220,2,0,B|256:88|280:48|352:72,1,140,2|8,1:0|0:2,0:0:0:0:
424,104,163845,5,0,0:0:0:0:
424,104,163949,1,0,1:0:0:0:
424,104,164053,2,0,B|432:216|432:272,2,140,4|8|2,0:0|0:2|1:0,0:0:0:0:
344,144,165095,2,0,B|352:208|344:232,1,70,2|8,0:0|1:2,0:0:0:0:
256,280,165511,2,0,B|216:216|240:120,1,140,2|0,1:0|0:0,0:0:0:0:
240,64,166136,2,0,B|200:40|152:48,2,70,8|0|0,0:2|0:0|1:0,0:0:0:0:
312,104,166761,5,2,0:0:0:0:
376,160,166970,1,8,1:2:0:0:
296,192,167178,1,0,0:0:0:0:
216,176,167386,2,0,B|144:136|56:168,1,140,4|8,1:0|0:2,0:0:0:0:
16,208,168011,1,2,1:0:0:0:
168,280,168428,2,0,B|216:288|256:304,1,70,2|8,0:0|0:2,0:0:0:0:
312,320,168845,6,0,B|400:328|432:232,1,140,2|2,0:0|0:0,0:0:0:0:
368,144,169470,2,0,B|352:184|360:232,2,70,8|0|2,0:2|0:0|0:0,0:0:0:0:
304,96,170095,1,0,0:0:0:0:
224,112,170303,2,0,L|144:128,1,70,8|0,0:2|0:0,0:0:0:0:
80,160,170720,2,0,B|104:240|24:304,2,140,4|8|2,0:0|0:2|0:0,0:0:0:0:
160,192,171761,2,0,B|200:216|232:240,1,70,2|8,0:0|0:2,0:0:0:0:
296,272,172178,6,0,B|352:280|392:232|384:184,1,140,2|8,0:0|0:0,0:0:0:0:
264,192,172803,2,0,B|240:160|248:112,1,70,12|2,0:0|0:2,0:0:0:0:
248,40,173220,1,0,3:0:0:0:
168,56,173428,2,0,B|128:72|80:64,2,70,2|8|0,0:0|0:2|0:0,0:0:0:0:
128,144,174053,6,0,B|48:160|8:240,2,140,4|8|2,0:0|0:2|0:0,0:0:0:0:
216,144,175095,2,0,B|264:152|304:176,1,70,2|8,0:0|0:2,0:0:0:0:
368,176,175511,2,0,B|344:104|392:24,1,140,2|0,0:0|0:0,0:0:0:0:
456,80,176136,1,8,0:2:0:0:
456,280,176553,1,2,0:0:0:0:
376,296,176761,1,0,0:0:0:0:
304,256,176970,1,8,0:2:0:0:
224,272,177178,1,0,0:0:0:0:
144,256,177386,6,0,B|136:200|128:152|120:104,1,140,2|8,0:0|0:2,0:0:0:0:
288,128,178220,2,0,B|296:168|280:216,1,70,2|2,0:0|0:0,0:0:0:0:
224,256,178636,1,8,0:2:0:0:
304,288,178845,2,0,B|384:320|440:240,1,140,2|2,0:0|0:0,0:0:0:0:
464,176,179470,2,0,L|472:96,1,70,8|2,0:2|0:0,0:0:0:0:
384,56,179886,2,0,L|392:136,1,70,0|2,0:0|0:0,0:0:0:0:
304,152,180303,2,0,L|320:56,1,70,8|2,0:3|0:0,0:0:0:0:
224,96,180720,6,0,B|184:168|240:256,1,140,0|8,0:0|0:2,0:0:0:0:
312,352,181553,2,0,L|400:368,2,70,2|8|8,0:0|0:2|0:2,0:0:0:0:
232,320,182178,2,0,L|64:344,1,140,2|2,0:0|0:0,0:0:0:0:
32,280,182803,2,0,B|8:240|24:192,1,70,8|2,0:2|0:0,0:0:0:0:
40,128,183220,1,0,0:2:0:0:
120,96,183428,1,8,0:2:0:0:
184,160,183636,6,0,L|168:208,4,35,8|0|0|0|2,0:2|0:2|0:2|0:2|0:2,0:2:0:0:
264,133,184261,2,0,B|306:135|352:120,1,70,2|8,0:0|0:2,0:0:0:0:
408,168,184678,1,2,0:0:0:0:
304,328,185095,1,2,0:0:0:0:
384,344,185303,1,8,0:2:0:0:
456,296,185511,2,0,B|459:258|448:216,1,70,2|0,0:0|0:0,0:0:0:0:
440,144,185928,5,8,0:0:0:0:
360,120,186136,1,4,0:0:0:0:
360,120,186345,1,0,0:0:0:0:
280,144,186553,2,0,B|272:192|280:240,1,70,0|0,1:0|0:0,0:0:0:0:
360,272,186970,2,0,B|368:224|360:176,1,70,0|0,1:0|0:0,0:0:0:0:
360,120,187386,1,4,0:2:0:0:
232,320,197386,6,0,L|224:152,1,140,2|0,0:0|0:0,0:0:0:0:
216,88,198011,1,0,0:0:0:0:
136,136,198220,2,0,L|128:216,2,70,2|0|0,0:0|0:0|0:0,0:0:0:0:
144,48,198845,1,4,0:0:0:0:
408,136,199261,5,0,1:0:0:0:
344,80,199470,2,0,L|336:32,2,35,2|8|0,0:0|0:3|0:0,0:0:0:0:
288,144,199886,1,2,1:2:0:0:
288,144,199990,1,0,1:2:0:0:
288,144,200095,2,0,L|296:198,2,35,8|4|4,3:0|3:0|1:2,0:0:0:0:
176,352,200720,6,0,B|152:320|168:272,1,70,4|0,0:0|0:0,0:0:0:0:
200,200,201136,1,8,0:0:0:0:
240,120,201345,2,0,B|248:72|224:40,1,70,2|0,0:0|0:0,0:0:0:0:
152,32,201761,2,0,B|144:80|168:112,1,70,2|8,0:0|0:0,0:0:0:0:
240,192,202178,2,0,B|328:184|368:256,1,140,2|2,0:0|0:0,0:0:0:0:
424,304,202803,1,8,0:0:0:0:
488,248,203011,1,0,0:0:0:0:
480,168,203220,1,2,0:0:0:0:
480,168,203636,2,0,B|456:112|448:72,1,70,8|2,0:0|0:0,0:0:0:0:
320,56,204053,6,0,B|256:96|168:80,1,140,2|8,0:0|0:0,0:0:0:0:
152,160,204678,2,0,B|200:224|168:304,1,140,2|2,0:0|0:0,0:0:0:0:
256,272,205303,1,8,0:0:0:0:
328,312,205511,2,0,L|412:332,2,70,2|0|2,0:0|0:0|0:0,0:0:0:0:
352,232,206136,2,0,L|336:144,1,70,8|2,0:0|0:0,0:0:0:0:
320,80,206553,5,2,0:0:0:0:
248,32,206761,1,0,0:0:0:0:
224,112,206970,1,8,0:0:0:0:
152,64,207178,1,0,0:0:0:0:
120,144,207386,2,0,B|80:224|152:288,1,140,4|8,0:0|0:0,0:0:0:0:
224,272,208011,2,0,B|264:264|312:296,1,70,2|0,0:0|0:0,0:0:0:0:
368,328,208428,1,2,0:0:0:0:
440,288,208636,1,8,0:0:0:0:
440,200,208845,6,0,L|424:128,1,70,2|0,0:0|0:0,0:0:0:0:
408,48,209261,2,0,L|480:61,1,70,2|8,0:0|0:0,0:0:0:0:
336,112,209678,2,0,L|352:192,1,70,2|0,0:0|0:0,0:0:0:0:
256,160,210095,2,0,B|272:208|256:256,2,70,2|8|2,0:0|0:0|0:0,0:0:0:0:
216,88,210720,5,2,0:0:0:0:
136,56,210928,1,0,3:0:0:0:
216,88,211136,1,8,0:0:0:0:
152,144,211345,1,2,0:0:0:0:
232,336,211761,1,2,0:0:0:0:
416,248,212178,1,0,0:0:0:0:
440,168,212386,6,0,B|448:128|432:88,1,70,0|2,1:0|0:0,0:0:0:0:
360,128,212803,2,0,L|280:136,1,70,12|2,0:0|0:0,0:0:0:0:
208,144,213220,2,0,B|192:104|200:64,1,70,2|0,0:0|3:0,0:0:0:0:
112,64,213636,2,0,L|32:72,2,70,8|0|2,0:0|3:0|0:0,0:0:0:0:
304,128,224053,5,2,3:2:0:0:
296,208,224261,2,0,B|280:272|264:304,1,70,2|8,3:2|0:0,0:0:0:0:
208,224,224678,2,0,B|224:168|232:128,1,70,2|0,3:2|0:0,0:0:0:0:
144,168,225095,2,0,B|128:120|96:80,1,70,2|8,0:2|0:0,0:0:0:0:
64,168,225511,2,0,B|24:232|48:304,1,140,2|8,0:0|1:0,0:0:0:0:
120,352,226136,2,0,L|208:336,1,70,4|0,0:0|3:0,0:0:0:0:
272,320,226553,1,2,0:0:0:0:
344,168,226970,1,0,1:0:0:0:
256,192,227386,12,0,230720,0:0:0:0:
