osu file format v14

[General]
AudioFilename: audio.mp3
AudioLeadIn: 0
PreviewTime: 59291
Countdown: 0
SampleSet: Soft
StackLeniency: 0.7
Mode: 3
LetterboxInBreaks: 0
SpecialStyle: 0
WidescreenStoryboard: 0

[Editor]
DistanceSpacing: 0.9
BeatDivisor: 4
GridSize: 32
TimelineZoom: 1.2

[Metadata]
Title:Happy Fate (Cut Ver.)
TitleUnicode:Happy Fate (Cut Ver.)
Artist:ChouCho
ArtistUnicode:ちょうちょ
Creator:Stelar
Version:Happy End
Source:未来日記
Tags:Gasai Yuno no Theme ~Koukotsu Ai~ 我妻由乃のテーマ~恍惚愛~ japanese pop jpop j-pop anime female vocalist utaite Mirai Nikki Future Diary Inspired Album Vol.1 ~Ingaritsu Noise~ Youhei Matsui 松井洋平 Tomohiro Nakatsuchi 中土智博 LACA-15167 Kanon Matsubara
BeatmapID:2419216
BeatmapSetID:1159367

[Difficulty]
HPDrainRate:8
CircleSize:4
OverallDifficulty:8
ApproachRate:5
SliderMultiplier:1.4
SliderTickRate:1

[Events]
//Background and Video events
0,0,"yunoooo.jpg",0,0
//Break Periods
//Storyboard Layer 0 (Background)
//Storyboard Layer 1 (Fail)
//Storyboard Layer 2 (Pass)
//Storyboard Layer 3 (Foreground)
//Storyboard Layer 4 (Overlay)
//Storyboard Sound Samples

[TimingPoints]
214,416.666666666667,4,2,1,40,1,0
6672,-100,4,2,1,45,0,0
20214,-100,4,2,1,40,0,0
46880,-100,4,2,1,35,0,0
53547,-100,4,2,1,40,0,0
60214,-100,4,2,1,50,0,1
86880,-100,4,2,1,35,0,0
96880,-100,4,2,1,40,0,0

[HitObjects]
64,192,214,5,0,0:0:0:0:
448,192,214,128,0,630:0:0:0:0:
320,192,422,1,0,0:0:0:0:
64,192,630,1,0,0:0:0:80:Rim.wav
192,192,630,1,0,0:0:0:0:
320,192,839,1,0,0:0:0:0:
64,192,1047,1,0,0:0:0:0:
448,192,1255,1,0,0:0:0:0:
192,192,1464,1,0,0:0:0:80:Rim.wav
320,192,1464,1,0,0:0:0:0:
64,192,1672,128,0,2297:0:0:0:0:
448,192,1672,1,0,0:0:0:0:
192,192,1880,1,0,0:0:0:0:
320,192,2089,1,0,0:0:0:0:
192,192,2297,1,0,0:0:0:80:Rim.wav
448,192,2297,1,0,0:0:0:0:
320,192,2505,1,0,0:0:0:0:
64,192,2714,1,0,0:0:0:0:
448,192,2922,1,0,0:0:0:0:
192,192,3130,1,0,0:0:0:80:Rim.wav
320,192,3130,1,0,0:0:0:0:
64,192,3339,1,0,0:0:0:0:
448,192,3339,128,0,3964:0:0:0:0:
320,192,3547,1,0,0:0:0:0:
64,192,3755,1,0,0:0:0:0:
192,192,3964,1,0,0:0:0:80:Rim.wav
320,192,3964,1,0,0:0:0:0:
64,192,4172,1,0,0:0:0:0:
448,192,4589,1,0,0:0:0:0:
320,192,4658,1,0,0:0:0:0:
192,192,4727,1,0,0:0:0:0:
64,192,4797,1,0,0:0:0:0:
448,192,4866,1,0,0:0:0:0:
320,192,4936,1,0,0:0:0:0:
64,192,5005,1,2,0:0:0:0:
192,192,5005,128,0,5214:0:0:0:0:
320,192,5214,1,0,0:0:0:80:Rim.wav
448,192,5214,1,0,0:0:0:0:
64,192,5422,128,0,5839:0:0:0:0:
320,192,5526,1,0,0:0:0:0:
192,192,5630,1,0,0:0:0:80:Rim.wav
448,192,5630,128,0,6047:0:0:0:0:
320,192,5839,128,0,6047:0:0:0:0:
64,192,6047,1,0,0:0:0:0:
192,192,6255,128,0,6672:0:0:0:0:
320,192,6464,128,0,6672:0:0:0:80:Rim.wav
448,192,6464,1,0,0:0:0:0:
64,192,6672,128,2,7297:0:0:0:0:
448,192,6672,128,4,7297:0:0:0:0:
192,192,7297,1,8,0:0:0:0:
320,192,7297,1,0,0:0:0:0:
64,192,7505,1,0,0:0:0:0:
192,192,7714,1,2,0:0:0:0:
448,192,7714,1,0,0:0:0:0:
320,192,7922,1,0,0:0:0:0:
64,192,8130,1,8,0:0:0:0:
192,192,8130,1,0,0:0:0:0:
448,192,8130,1,0,0:0:0:0:
320,192,8339,1,0,0:0:0:0:
64,192,8547,1,2,0:0:0:0:
448,192,8547,1,0,0:0:0:0:
192,192,8755,1,0,0:0:0:0:
64,192,8964,1,8,0:0:0:0:
320,192,8964,1,0,0:0:0:0:
448,192,8964,1,0,0:0:0:0:
192,192,9172,1,0,0:0:0:0:
320,192,9380,1,2,0:0:0:0:
448,192,9380,1,0,0:0:0:0:
64,192,9589,1,0,0:0:0:0:
192,192,9797,1,8,0:0:0:0:
320,192,9797,1,0,0:0:0:0:
448,192,9797,1,0,0:0:0:0:
64,192,10005,1,0,0:0:0:0:
192,192,10214,1,2,0:0:0:0:
448,192,10214,1,0,0:0:0:0:
320,192,10422,1,0,0:0:0:0:
64,192,10630,1,8,0:0:0:0:
192,192,10630,1,0,0:0:0:0:
448,192,10630,1,0,0:0:0:0:
320,192,10839,1,0,0:0:0:0:
64,192,11047,1,2,0:0:0:0:
192,192,11047,1,0,0:0:0:0:
448,192,11255,128,0,11464:0:0:0:0:
64,192,11464,1,8,0:0:0:0:
192,192,11464,1,0,0:0:0:0:
320,192,11464,1,0,0:0:0:0:
448,192,11672,1,0,0:0:0:0:
64,192,11880,1,2,0:0:0:0:
320,192,11880,1,0,0:0:0:0:
192,192,12089,1,0,0:0:0:0:
64,192,12297,1,8,0:0:0:0:
320,192,12297,1,0,0:0:0:0:
448,192,12297,1,0,0:0:0:0:
192,192,12505,1,0,0:0:0:0:
64,192,12714,1,2,0:0:0:0:
448,192,12714,1,0,0:0:0:0:
320,192,12922,1,0,0:0:0:0:
64,192,13130,1,8,0:0:0:0:
192,192,13130,1,0,0:0:0:0:
448,192,13130,1,0,0:0:0:0:
320,192,13339,1,0,0:0:0:0:
64,192,13547,1,2,0:0:0:0:
192,192,13547,1,0,0:0:0:0:
448,192,13755,1,0,0:0:0:0:
64,192,13964,1,8,0:0:0:0:
192,192,13964,1,0,0:0:0:0:
320,192,13964,1,0,0:0:0:0:
448,192,14172,1,0,0:0:0:0:
192,192,14380,1,2,0:0:0:0:
320,192,14380,1,0,0:0:0:0:
64,192,14589,1,0,0:0:0:0:
192,192,14797,1,8,0:0:0:0:
320,192,14797,1,0,0:0:0:0:
448,192,14797,1,0,0:0:0:0:
64,192,15005,1,0,0:0:0:0:
320,192,15214,1,2,0:0:0:0:
448,192,15214,1,0,0:0:0:0:
192,192,15422,1,0,0:0:0:0:
64,192,15630,1,8,0:0:0:0:
320,192,15630,1,0,0:0:0:0:
448,192,15630,1,0,0:0:0:0:
192,192,15839,1,0,0:0:0:0:
64,192,16047,1,2,0:0:0:0:
448,192,16047,1,0,0:0:0:0:
320,192,16255,1,0,0:0:0:0:
64,192,16464,1,8,0:0:0:0:
192,192,16464,1,0,0:0:0:0:
448,192,16464,1,0,0:0:0:0:
320,192,16672,1,0,0:0:0:0:
64,192,16880,128,2,17089:0:0:0:0:
192,192,16880,128,0,17089:0:0:0:0:
320,192,17089,128,2,17193:0:0:0:0:
448,192,17089,128,0,17193:0:0:0:0:
64,192,17297,1,8,0:0:0:0:
192,192,17297,1,0,0:0:0:0:
448,192,17297,1,0,0:0:0:0:
320,192,17505,128,2,17714:0:0:0:0:
448,192,17505,128,0,17714:0:0:0:0:
64,192,17922,128,2,18026:0:0:0:0:
192,192,17922,128,0,18026:0:0:0:0:
64,192,18130,1,8,0:0:0:0:
320,192,18130,1,0,0:0:0:0:
448,192,18130,1,0,0:0:0:0:
192,192,18339,1,2,0:0:0:0:
320,192,18339,1,0,0:0:0:0:
64,192,18547,1,2,0:0:0:0:
448,192,18547,1,0,0:0:0:0:
192,192,18755,1,8,0:0:0:0:
320,192,18755,1,0,0:0:0:0:
448,192,18755,1,0,0:0:0:0:
64,192,18964,1,8,0:0:0:0:
192,192,18964,1,4,0:0:0:0:
320,192,18964,1,0,0:0:0:0:
320,192,19172,128,2,19589:0:0:0:0:
448,192,19172,128,0,19380:0:0:0:0:
192,192,19380,128,0,19797:0:0:0:0:
64,192,19589,128,2,19797:0:0:0:0:
448,192,19589,1,0,0:0:0:0:
320,192,19797,1,8,0:0:0:0:
448,192,19797,128,0,20214:0:0:0:0:
64,192,20214,1,2,0:0:0:0:
192,192,20214,1,4,0:0:0:0:
320,192,20214,1,0,0:0:0:0:
192,192,20422,1,0,0:0:0:0:
320,192,20630,1,2,0:0:0:0:
448,192,20630,1,0,0:0:0:0:
64,192,20839,1,0,0:0:0:0:
192,192,21047,1,2,0:0:0:0:
448,192,21047,1,0,0:0:0:0:
320,192,21255,1,0,0:0:0:0:
64,192,21464,1,2,0:0:0:0:
448,192,21464,1,0,0:0:0:0:
192,192,21672,1,0,0:0:0:0:
320,192,21880,1,2,0:0:0:0:
448,192,21880,1,0,0:0:0:0:
192,192,22089,1,0,0:0:0:0:
64,192,22297,1,2,0:0:0:0:
448,192,22297,1,0,0:0:0:0:
320,192,22505,128,0,22714:0:0:0:0:
64,192,22714,1,2,0:0:0:0:
192,192,22714,128,0,22922:0:0:0:0:
448,192,22922,128,0,23130:0:0:0:0:
192,192,23130,1,2,0:0:0:0:
320,192,23130,128,0,23339:0:0:0:0:
64,192,23339,128,0,23547:0:0:0:0:
320,192,23547,1,2,0:0:0:0:
448,192,23547,1,0,0:0:0:0:
192,192,23755,1,0,0:0:0:0:
64,192,23964,1,2,0:0:0:0:
448,192,23964,1,0,0:0:0:0:
320,192,24172,1,0,0:0:0:0:
64,192,24380,1,2,0:0:0:0:
192,192,24380,1,0,0:0:0:0:
320,192,24589,1,0,0:0:0:0:
64,192,24797,1,2,0:0:0:0:
448,192,24797,1,0,0:0:0:0:
192,192,25005,1,0,0:0:0:0:
320,192,25214,1,2,0:0:0:0:
448,192,25214,1,0,0:0:0:0:
64,192,25422,1,0,0:0:0:0:
192,192,25630,1,2,0:0:0:0:
448,192,25630,1,0,0:0:0:0:
320,192,25839,128,0,26047:0:0:0:0:
64,192,26047,1,2,0:0:0:0:
192,192,26047,128,0,26255:0:0:0:0:
448,192,26255,128,0,26464:0:0:0:0:
64,192,26464,128,2,26672:0:0:0:0:
320,192,26464,1,0,0:0:0:0:
192,192,26672,128,0,26880:0:0:0:0:
320,192,26880,1,2,0:0:0:0:
448,192,26880,1,0,0:0:0:0:
192,192,27089,1,0,0:0:0:0:
64,192,27297,1,2,0:0:0:0:
448,192,27297,1,0,0:0:0:0:
320,192,27505,1,0,0:0:0:0:
64,192,27714,1,2,0:0:0:0:
192,192,27714,1,0,0:0:0:0:
320,192,27922,1,0,0:0:0:0:
64,192,28130,1,2,0:0:0:0:
448,192,28130,1,0,0:0:0:0:
192,192,28339,1,0,0:0:0:0:
320,192,28547,1,2,0:0:0:0:
448,192,28547,1,0,0:0:0:0:
64,192,28755,128,0,28964:0:0:0:0:
320,192,28964,128,2,29172:0:0:0:0:
448,192,28964,1,0,0:0:0:0:
192,192,29172,128,0,29380:0:0:0:0:
320,192,29380,1,2,0:0:0:0:
448,192,29380,128,0,29589:0:0:0:0:
64,192,29589,128,0,29797:0:0:0:0:
192,192,29797,128,2,30005:0:0:0:0:
320,192,29797,1,0,0:0:0:0:
448,192,30005,128,0,30630:0:0:0:0:
192,192,30214,1,2,0:0:0:0:
320,192,30214,1,0,0:0:0:0:
64,192,30422,1,0,0:0:0:0:
192,192,30630,1,2,0:0:0:0:
320,192,30630,128,0,30839:0:0:0:0:
64,192,30839,128,0,31255:0:0:0:0:
192,192,31047,1,2,0:0:0:0:
448,192,31047,1,0,0:0:0:0:
320,192,31255,128,0,31464:0:0:0:0:
64,192,31464,1,2,0:0:0:0:
192,192,31464,128,0,31672:0:0:0:0:
448,192,31672,128,0,32089:0:0:0:0:
192,192,31880,1,2,0:0:0:0:
320,192,31880,1,0,0:0:0:0:
64,192,32089,128,0,32297:0:0:0:0:
320,192,32297,128,2,32505:0:0:0:0:
448,192,32297,1,0,0:0:0:0:
192,192,32505,128,0,32714:0:0:0:0:
64,192,32714,1,2,0:0:0:0:
448,192,32714,128,0,33130:0:0:0:0:
320,192,32922,1,0,0:0:0:0:
64,192,33130,128,8,33547:0:0:0:0:
192,192,33130,128,4,33547:0:0:0:0:
320,192,33130,1,0,0:0:0:0:
320,192,33547,128,2,33964:0:0:0:0:
448,192,33547,128,4,33964:0:0:0:0:
64,192,33964,1,8,0:0:0:0:
192,192,33964,1,0,0:0:0:0:
448,192,34172,1,0,0:0:0:0:
192,192,34380,1,2,0:0:0:0:
320,192,34380,1,0,0:0:0:0:
448,192,34589,128,0,34797:0:0:0:0:
64,192,34797,1,8,0:0:0:0:
192,192,34797,1,0,0:0:0:0:
320,192,34797,1,0,0:0:0:0:
192,192,35005,128,0,35214:0:0:0:0:
64,192,35214,1,2,0:0:0:0:
448,192,35214,1,0,0:0:0:0:
320,192,35422,128,0,35630:0:0:0:0:
64,192,35630,1,8,0:0:0:0:
192,192,35630,1,0,0:0:0:0:
448,192,35630,1,0,0:0:0:0:
64,192,35839,128,0,36047:0:0:0:0:
320,192,36047,1,2,0:0:0:0:
448,192,36047,1,0,0:0:0:0:
192,192,36255,128,0,36464:0:0:0:0:
64,192,36464,1,8,0:0:0:0:
320,192,36464,1,0,0:0:0:0:
448,192,36464,1,0,0:0:0:0:
320,192,36672,128,0,36880:0:0:0:0:
64,192,36880,1,2,0:0:0:0:
192,192,36880,1,0,0:0:0:0:
448,192,37089,1,0,0:0:0:0:
64,192,37297,1,8,0:0:0:0:
192,192,37297,1,0,0:0:0:0:
320,192,37297,1,0,0:0:0:0:
64,192,37505,128,0,37714:0:0:0:0:
320,192,37714,1,2,0:0:0:0:
448,192,37714,1,0,0:0:0:0:
320,192,37922,128,0,38130:0:0:0:0:
64,192,38130,1,8,0:0:0:0:
192,192,38130,1,0,0:0:0:0:
448,192,38130,1,0,0:0:0:0:
192,192,38339,128,0,38547:0:0:0:0:
320,192,38547,1,2,0:0:0:0:
448,192,38547,1,0,0:0:0:0:
448,192,38755,128,0,38964:0:0:0:0:
64,192,38964,1,8,0:0:0:0:
192,192,38964,1,0,0:0:0:0:
320,192,38964,1,0,0:0:0:0:
192,192,39172,128,0,39380:0:0:0:0:
64,192,39380,1,2,0:0:0:0:
448,192,39380,1,0,0:0:0:0:
320,192,39589,1,0,0:0:0:0:
64,192,39797,1,8,0:0:0:0:
192,192,39797,1,0,0:0:0:0:
448,192,39797,1,0,0:0:0:0:
448,192,40005,128,0,40214:0:0:0:0:
192,192,40214,1,2,0:0:0:0:
320,192,40214,1,0,0:0:0:0:
64,192,40422,1,0,0:0:0:0:
192,192,40630,1,8,0:0:0:0:
320,192,40630,1,0,0:0:0:0:
448,192,40630,1,0,0:0:0:0:
64,192,40839,1,0,0:0:0:0:
192,192,41047,1,2,0:0:0:0:
448,192,41047,1,0,0:0:0:0:
448,192,41255,128,0,41464:0:0:0:0:
64,192,41464,1,8,0:0:0:0:
192,192,41464,1,0,0:0:0:0:
320,192,41464,1,0,0:0:0:0:
64,192,41672,128,0,41880:0:0:0:0:
320,192,41880,1,2,0:0:0:0:
448,192,41880,1,0,0:0:0:0:
192,192,42089,1,0,0:0:0:0:
64,192,42297,1,8,0:0:0:0:
320,192,42297,1,0,0:0:0:0:
448,192,42297,1,0,0:0:0:0:
448,192,42505,128,0,42714:0:0:0:0:
64,192,42714,1,2,0:0:0:0:
192,192,42714,1,0,0:0:0:0:
320,192,42922,128,0,43130:0:0:0:0:
64,192,43130,1,8,0:0:0:0:
192,192,43130,128,0,43339:0:0:0:0:
448,192,43130,1,0,0:0:0:0:
64,192,43339,128,0,43547:0:0:0:0:
320,192,43547,1,2,0:0:0:0:
448,192,43547,1,0,0:0:0:0:
192,192,43755,1,0,0:0:0:0:
64,192,43964,1,8,0:0:0:0:
320,192,43964,1,0,0:0:0:0:
448,192,43964,1,0,0:0:0:0:
320,192,44172,1,0,0:0:0:0:
64,192,44380,1,2,0:0:0:0:
192,192,44380,1,0,0:0:0:0:
448,192,44589,1,0,0:0:0:0:
64,192,44797,1,8,0:0:0:0:
192,192,44797,1,0,0:0:0:0:
320,192,44797,1,0,0:0:0:0:
192,192,45005,128,0,45214:0:0:0:0:
320,192,45214,1,2,0:0:0:0:
448,192,45214,1,0,0:0:0:0:
64,192,45422,1,8,0:0:0:0:
192,192,45422,1,0,0:0:0:0:
448,192,45422,1,0,0:0:0:0:
64,192,45630,1,8,0:0:0:0:
192,192,45630,1,4,0:0:0:0:
448,192,45630,1,0,0:0:0:0:
320,192,45839,128,0,46047:0:0:0:0:
64,192,46047,1,2,0:0:0:0:
448,192,46047,1,0,0:0:0:0:
192,192,46255,128,0,46464:0:0:0:0:
64,192,46464,1,8,0:0:0:0:
320,192,46464,128,0,46672:0:0:0:45:Tom1.wav
448,192,46464,1,0,0:0:0:0:
64,192,46672,128,0,46880:0:0:0:0:
192,192,46880,1,2,0:0:0:0:
320,192,46880,128,4,47297:0:0:0:0:
448,192,46880,128,0,47714:0:0:0:0:
64,192,47297,128,0,47401:0:0:0:0:
64,192,47505,128,0,47714:0:0:0:0:
192,192,47714,1,0,0:0:0:80:Rim.wav
320,192,47714,1,0,0:0:0:0:
448,192,47922,128,0,48130:0:0:0:0:
64,192,48130,128,0,48339:0:0:0:0:
320,192,48339,128,0,48547:0:0:0:0:
64,192,48547,1,0,0:0:0:0:
192,192,48547,128,0,49380:0:0:0:0:
448,192,48547,128,0,48964:0:0:0:0:
320,192,48964,128,0,49068:0:0:0:0:
320,192,49172,128,0,49380:0:0:0:0:
64,192,49380,1,0,0:0:0:80:Rim.wav
448,192,49380,1,0,0:0:0:0:
64,192,49589,128,0,50005:0:0:0:0:
192,192,49797,128,0,50214:0:0:0:0:
320,192,50005,128,0,50422:0:0:0:0:
64,192,50214,128,2,50839:0:0:0:0:
448,192,50214,128,0,50422:0:0:0:0:
192,192,50630,128,0,51047:0:0:0:0:
448,192,50839,128,0,51464:0:0:0:0:
64,192,51047,1,0,0:0:0:80:Rim.wav
320,192,51047,1,0,0:0:0:0:
64,192,51255,128,0,51464:0:0:0:0:
192,192,51464,1,0,0:0:0:0:
64,192,51672,1,2,0:0:0:0:
320,192,51672,128,4,52297:0:0:0:0:
448,192,51672,128,0,52089:0:0:0:0:
64,192,52089,128,0,52714:0:0:0:0:
192,192,52297,128,0,52714:0:0:0:0:
448,192,52714,1,0,0:0:0:0:
192,192,52922,1,0,0:0:0:45:Tom1.wav
320,192,52922,1,0,0:0:0:0:
64,192,53130,1,0,0:0:0:45:Tom2.wav
448,192,53130,1,0,0:0:0:0:
192,192,53234,1,0,0:0:0:45:Tom3.wav
320,192,53234,1,0,0:0:0:0:
64,192,53547,1,2,0:0:0:0:
192,192,53547,1,4,0:0:0:0:
448,192,53547,1,0,0:0:0:0:
64,192,53755,1,8,0:0:0:0:
320,192,53755,1,0,0:0:0:0:
448,192,53755,1,0,0:0:0:0:
192,192,53964,1,0,0:0:0:0:
64,192,54172,1,2,0:0:0:0:
448,192,54172,1,0,0:0:0:0:
192,192,54380,1,0,0:0:0:45:Tom1.wav
320,192,54380,1,0,0:0:0:0:
64,192,54589,1,0,0:0:0:0:
192,192,54693,1,8,0:0:0:0:
448,192,54693,1,0,0:0:0:0:
320,192,54797,1,8,0:0:0:0:
64,192,55005,1,2,0:0:0:0:
192,192,55005,1,4,0:0:0:0:
448,192,55005,1,0,0:0:0:0:
64,192,55422,1,8,0:0:0:0:
320,192,55422,1,0,0:0:0:0:
448,192,55422,1,0,0:0:0:0:
192,192,55630,1,0,0:0:0:0:
64,192,55839,1,2,0:0:0:0:
448,192,55839,1,0,0:0:0:0:
192,192,56047,1,8,0:0:0:0:
320,192,56047,1,0,0:0:0:0:
448,192,56047,1,0,0:0:0:0:
64,192,56255,1,0,0:0:0:0:
192,192,56359,1,0,0:0:0:0:
320,192,56464,1,4,0:0:0:0:
64,192,56880,1,2,0:0:0:0:
320,192,56880,1,4,0:0:0:0:
448,192,56880,1,0,0:0:0:0:
192,192,57297,1,0,0:0:0:0:
320,192,57505,1,0,0:0:0:0:
64,192,57714,1,8,0:0:0:0:
192,192,57714,1,0,0:0:0:0:
320,192,57818,1,8,0:0:0:0:
448,192,57818,1,0,0:0:0:0:
192,192,57922,1,2,0:0:0:0:
64,192,58026,1,2,0:0:0:0:
320,192,58130,1,8,0:0:0:0:
448,192,58130,1,0,0:0:0:0:
64,192,58339,128,2,58755:0:0:0:0:
192,192,58339,1,4,0:0:0:0:
448,192,58339,128,0,58755:0:0:0:0:
192,192,58755,1,8,0:0:0:0:
320,192,58755,1,0,0:0:0:0:
64,192,58964,1,8,0:0:0:0:
448,192,58964,1,0,0:0:0:0:
448,192,59172,1,8,0:0:0:0:
320,192,59241,1,0,0:0:0:45:Tom2.wav
192,192,59311,1,2,0:0:0:0:
64,192,59380,1,2,0:0:0:0:
448,192,59380,1,0,0:0:0:0:
192,192,59589,1,2,0:0:0:0:
320,192,59589,1,0,0:0:0:0:
320,192,59797,128,8,60005:0:0:0:0:
448,192,59797,128,4,60005:0:0:0:0:
64,192,60005,128,0,60214:0:0:0:0:
192,192,60214,1,2,0:0:0:0:
320,192,60214,1,4,0:0:0:0:
448,192,60214,1,0,0:0:0:0:
320,192,60422,1,0,0:0:0:0:
64,192,60630,1,8,0:0:0:0:
192,192,60630,1,0,0:0:0:0:
448,192,60630,1,0,0:0:0:0:
320,192,60839,1,0,0:0:0:0:
64,192,61047,1,2,0:0:0:0:
192,192,61047,1,0,0:0:0:0:
448,192,61255,1,0,0:0:0:0:
64,192,61464,1,8,0:0:0:0:
192,192,61464,1,0,0:0:0:0:
320,192,61464,1,0,0:0:0:0:
448,192,61672,1,0,0:0:0:0:
192,192,61880,1,2,0:0:0:0:
320,192,61880,1,0,0:0:0:0:
64,192,62089,1,0,0:0:0:0:
192,192,62297,1,8,0:0:0:0:
320,192,62297,1,0,0:0:0:0:
448,192,62297,1,0,0:0:0:0:
64,192,62505,1,0,0:0:0:0:
192,192,62714,1,2,0:0:0:0:
448,192,62714,1,0,0:0:0:0:
320,192,62922,1,0,0:0:0:0:
64,192,63130,1,8,0:0:0:0:
192,192,63130,1,0,0:0:0:0:
448,192,63130,1,0,0:0:0:0:
320,192,63339,1,0,0:0:0:0:
64,192,63547,1,2,0:0:0:0:
448,192,63547,1,0,0:0:0:0:
192,192,63755,1,0,0:0:0:0:
64,192,63964,1,8,0:0:0:0:
320,192,63964,1,0,0:0:0:0:
448,192,63964,1,0,0:0:0:0:
192,192,64172,1,0,0:0:0:0:
320,192,64380,1,2,0:0:0:0:
448,192,64380,1,0,0:0:0:0:
64,192,64589,1,0,0:0:0:0:
192,192,64797,1,8,0:0:0:0:
320,192,64797,1,0,0:0:0:0:
448,192,64797,1,0,0:0:0:0:
64,192,65005,1,0,0:0:0:0:
192,192,65214,1,2,0:0:0:0:
448,192,65214,1,0,0:0:0:0:
320,192,65422,1,0,0:0:0:0:
64,192,65630,1,8,0:0:0:0:
192,192,65630,1,0,0:0:0:0:
448,192,65630,1,0,0:0:0:0:
320,192,65839,1,0,0:0:0:0:
64,192,66047,1,2,0:0:0:0:
192,192,66047,1,0,0:0:0:0:
448,192,66255,1,0,0:0:0:0:
64,192,66464,1,8,0:0:0:0:
192,192,66464,1,0,0:0:0:0:
320,192,66464,1,0,0:0:0:0:
448,192,66672,1,0,0:0:0:0:
192,192,66880,1,2,0:0:0:0:
320,192,66880,1,0,0:0:0:0:
64,192,67089,1,0,0:0:0:0:
192,192,67297,1,8,0:0:0:0:
320,192,67297,1,0,0:0:0:0:
448,192,67297,1,0,0:0:0:0:
64,192,67505,1,0,0:0:0:0:
192,192,67714,1,2,0:0:0:0:
448,192,67714,1,0,0:0:0:0:
320,192,67922,1,0,0:0:0:0:
64,192,68130,1,8,0:0:0:0:
192,192,68130,1,0,0:0:0:0:
448,192,68130,1,0,0:0:0:0:
320,192,68339,1,0,0:0:0:0:
192,192,68547,1,2,0:0:0:0:
448,192,68547,1,0,0:0:0:0:
64,192,68755,1,0,0:0:0:0:
320,192,68964,1,8,0:0:0:0:
448,192,68964,128,0,69380:0:0:0:0:
64,192,69172,1,0,0:0:0:0:
192,192,69380,128,2,69797:0:0:0:0:
320,192,69380,1,0,0:0:0:0:
448,192,69589,1,0,0:0:0:0:
64,192,69797,1,8,0:0:0:0:
320,192,69797,128,0,70214:0:0:0:0:
192,192,70005,1,0,0:0:0:0:
64,192,70214,128,2,70839:0:0:0:0:
448,192,70214,1,0,0:0:0:0:
320,192,70422,1,0,0:0:0:0:
192,192,70630,1,8,0:0:0:0:
448,192,70630,1,0,0:0:0:0:
320,192,70839,128,0,71047:0:0:0:0:
192,192,71047,1,2,0:0:0:0:
448,192,71047,128,0,71880:0:0:0:0:
64,192,71255,1,0,0:0:0:0:
192,192,71464,1,8,0:0:0:0:
320,192,71464,1,0,0:0:0:0:
64,192,71672,1,0,0:0:0:0:
192,192,71880,1,2,0:0:0:0:
320,192,71880,1,0,0:0:0:0:
64,192,72089,1,8,0:0:0:0:
320,192,72089,1,0,0:0:0:0:
448,192,72089,1,0,0:0:0:0:
64,192,72297,1,8,0:0:0:0:
320,192,72297,1,4,0:0:0:0:
448,192,72297,1,0,0:0:0:0:
192,192,72505,1,0,0:0:0:0:
320,192,72714,1,2,0:0:0:0:
448,192,72714,1,0,0:0:0:0:
64,192,72922,1,0,0:0:0:0:
192,192,73130,1,8,0:0:0:0:
320,192,73130,128,0,73547:0:0:0:0:
448,192,73130,128,0,73547:0:0:0:0:
64,192,73547,1,2,0:0:0:0:
192,192,73547,1,4,0:0:0:0:
320,192,73755,1,0,0:0:0:0:
64,192,73964,1,8,0:0:0:0:
192,192,73964,1,0,0:0:0:0:
448,192,73964,1,0,0:0:0:0:
320,192,74172,1,0,0:0:0:0:
192,192,74380,1,2,0:0:0:0:
448,192,74380,1,0,0:0:0:0:
64,192,74589,1,0,0:0:0:0:
192,192,74797,1,8,0:0:0:0:
320,192,74797,1,0,0:0:0:0:
448,192,74797,1,0,0:0:0:0:
64,192,75005,1,0,0:0:0:0:
320,192,75214,1,2,0:0:0:0:
448,192,75214,1,0,0:0:0:0:
192,192,75422,1,0,0:0:0:0:
64,192,75630,1,8,0:0:0:0:
320,192,75630,1,0,0:0:0:0:
448,192,75630,1,0,0:0:0:0:
192,192,75839,1,0,0:0:0:0:
64,192,76047,1,2,0:0:0:0:
320,192,76047,1,0,0:0:0:0:
448,192,76255,1,0,0:0:0:0:
64,192,76464,1,8,0:0:0:0:
192,192,76464,1,0,0:0:0:0:
320,192,76464,1,0,0:0:0:0:
448,192,76672,1,0,0:0:0:0:
192,192,76880,1,2,0:0:0:0:
320,192,76880,1,0,0:0:0:0:
64,192,77089,1,0,0:0:0:0:
192,192,77297,1,8,0:0:0:0:
320,192,77297,1,0,0:0:0:0:
448,192,77297,1,0,0:0:0:0:
64,192,77505,1,0,0:0:0:0:
320,192,77714,1,2,0:0:0:0:
448,192,77714,1,0,0:0:0:0:
192,192,77922,1,0,0:0:0:0:
64,192,78130,1,8,0:0:0:0:
320,192,78130,1,0,0:0:0:0:
448,192,78130,1,0,0:0:0:0:
192,192,78339,1,0,0:0:0:0:
64,192,78547,1,2,0:0:0:0:
448,192,78547,1,0,0:0:0:0:
320,192,78755,1,0,0:0:0:0:
64,192,78964,1,8,0:0:0:0:
192,192,78964,1,0,0:0:0:0:
448,192,78964,1,0,0:0:0:0:
320,192,79172,1,0,0:0:0:0:
64,192,79380,1,2,0:0:0:0:
192,192,79380,1,0,0:0:0:0:
448,192,79589,1,0,0:0:0:0:
64,192,79797,1,8,0:0:0:0:
192,192,79797,1,0,0:0:0:0:
320,192,79797,1,0,0:0:0:0:
448,192,80005,1,0,0:0:0:0:
64,192,80214,1,2,0:0:0:0:
320,192,80214,1,0,0:0:0:0:
192,192,80422,1,0,0:0:0:0:
64,192,80630,1,8,0:0:0:0:
320,192,80630,1,0,0:0:0:0:
448,192,80630,1,0,0:0:0:0:
192,192,80839,1,0,0:0:0:0:
320,192,81047,1,2,0:0:0:0:
448,192,81047,1,0,0:0:0:0:
64,192,81255,1,0,0:0:0:0:
192,192,81464,1,8,0:0:0:0:
320,192,81464,1,0,0:0:0:0:
448,192,81464,1,0,0:0:0:0:
64,192,81672,1,0,0:0:0:0:
192,192,81880,1,2,0:0:0:0:
320,192,81880,1,0,0:0:0:0:
448,192,82089,1,0,0:0:0:0:
64,192,82297,1,8,0:0:0:0:
192,192,82297,1,0,0:0:0:0:
320,192,82297,1,0,0:0:0:0:
448,192,82505,1,0,0:0:0:0:
64,192,82714,1,2,0:0:0:0:
320,192,82714,1,0,0:0:0:0:
192,192,82922,1,0,0:0:0:0:
64,192,83130,1,8,0:0:0:0:
320,192,83130,1,0,0:0:0:0:
448,192,83130,1,0,0:0:0:0:
192,192,83339,1,0,0:0:0:0:
320,192,83547,1,2,0:0:0:0:
448,192,83547,1,0,0:0:0:0:
320,192,83755,1,2,0:0:0:0:
448,192,83755,1,0,0:0:0:0:
64,192,83964,1,8,0:0:0:0:
192,192,83964,1,0,0:0:0:0:
448,192,83964,1,0,0:0:0:0:
64,192,84172,1,2,0:0:0:0:
320,192,84172,1,0,0:0:0:0:
192,192,84589,1,2,0:0:0:0:
448,192,84589,1,0,0:0:0:0:
64,192,84797,1,8,0:0:0:0:
320,192,84797,1,0,0:0:0:0:
448,192,84797,1,0,0:0:0:0:
64,192,85005,1,2,0:0:0:0:
192,192,85005,1,0,0:0:0:0:
192,192,85214,1,2,0:0:0:0:
320,192,85214,1,0,0:0:0:0:
64,192,85422,1,8,0:0:0:0:
320,192,85422,1,0,0:0:0:0:
448,192,85422,1,0,0:0:0:0:
64,192,85630,1,8,0:0:0:0:
320,192,85630,1,4,0:0:0:0:
448,192,85630,1,0,0:0:0:0:
64,192,85839,1,2,0:0:0:0:
192,192,85839,1,0,0:0:0:0:
448,192,86047,1,0,0:0:0:0:
64,192,86255,1,2,0:0:0:0:
192,192,86255,1,0,0:0:0:0:
64,192,86464,1,8,0:0:0:0:
320,192,86464,1,0,0:0:0:0:
448,192,86464,1,0,0:0:0:0:
192,192,86672,1,2,0:0:0:0:
448,192,86672,1,0,0:0:0:0:
64,192,86880,128,0,89380:0:0:0:0:
448,192,87297,1,0,0:0:0:30:Tamb.wav
192,192,87714,1,0,0:0:0:0:
448,192,87922,1,0,0:0:0:0:
320,192,88130,1,0,0:0:0:30:Tamb.wav
192,192,88339,1,0,0:0:0:0:
448,192,88755,1,0,0:0:0:0:
192,192,88964,1,0,0:0:0:30:Tamb.wav
448,192,89172,1,0,0:0:0:0:
320,192,89380,128,0,90214:0:0:0:0:
192,192,89589,1,0,0:0:0:0:
64,192,89797,1,0,0:0:0:30:Tamb.wav
192,192,90214,128,0,91047:0:0:0:0:
448,192,90214,1,0,0:0:0:0:
448,192,90630,1,0,0:0:0:30:Tamb.wav
448,192,91047,128,0,91672:0:0:0:0:
320,192,91255,1,0,0:0:0:0:
192,192,91464,1,0,0:0:0:30:Tamb.wav
64,192,91672,128,0,92297:0:0:0:0:
448,192,92089,1,0,0:0:0:0:
320,192,92297,128,0,92714:0:0:0:30:Tamb.wav
64,192,92505,1,0,0:0:0:0:
192,192,92714,128,0,93130:0:0:0:0:
320,192,92922,1,0,0:0:0:0:
448,192,93130,128,0,93547:0:0:0:30:Tamb.wav
320,192,93339,128,0,93547:0:0:0:0:
64,192,93547,128,0,94589:0:0:0:0:
192,192,93547,1,0,0:0:0:0:
192,192,93964,1,0,0:0:0:30:Tamb.wav
448,192,94172,1,0,0:0:0:0:
320,192,94380,1,0,0:0:0:0:
448,192,94589,128,0,94797:0:0:0:0:
320,192,94797,128,0,95005:0:0:0:30:Tamb.wav
64,192,95005,128,0,95839:0:0:0:0:
192,192,95422,1,0,0:0:0:0:
320,192,95630,1,0,0:0:0:30:Tamb.wav
448,192,95839,128,0,95943:0:0:0:0:
320,192,95943,128,0,96047:0:0:0:0:
64,192,96047,128,0,96151:0:0:0:0:
192,192,96151,128,0,96255:0:0:0:0:
448,192,96255,128,0,96359:0:0:0:0:
320,192,96359,128,0,96464:0:0:0:0:
64,192,96464,128,0,96672:0:0:0:30:Tamb.wav
192,192,96672,128,0,96776:0:0:0:0:
320,192,96776,128,0,96880:0:0:0:0:
64,192,96880,1,2,0:0:0:0:
448,192,96880,1,0,0:0:0:0:
320,192,97089,1,2,0:0:0:0:
192,192,97089,1,0,0:0:0:0:
64,192,97297,1,8,0:0:0:0:
320,192,97297,1,0,0:0:0:0:
448,192,97297,1,0,0:0:0:0:
192,192,97505,1,2,0:0:0:0:
64,192,97505,1,0,0:0:0:0:
320,192,97922,1,2,0:0:0:0:
448,192,97922,1,0,0:0:0:0:
64,192,98130,1,8,0:0:0:0:
192,192,98130,1,0,0:0:0:0:
448,192,98130,1,0,0:0:0:0:
192,192,98339,1,2,0:0:0:0:
320,192,98339,1,0,0:0:0:0:
192,192,98547,1,2,0:0:0:0:
320,192,98547,1,0,0:0:0:0:
64,192,98755,1,8,0:0:0:0:
320,192,98755,1,0,0:0:0:0:
448,192,98755,1,0,0:0:0:0:
64,192,98964,1,8,0:0:0:0:
192,192,98964,1,4,0:0:0:0:
448,192,98964,1,0,0:0:0:0:
192,192,99172,1,2,0:0:0:0:
320,192,99172,1,0,0:0:0:0:
64,192,99380,1,0,0:0:0:0:
320,192,99589,1,2,0:0:0:0:
448,192,99589,1,0,0:0:0:0:
64,192,99797,1,8,0:0:0:0:
192,192,99797,1,0,0:0:0:0:
320,192,99797,1,0,0:0:0:0:
448,192,100005,1,0,0:0:0:0:
64,192,100214,128,0,103547:0:0:0:0:
